<?xml version="1.0" standalone="no"?>
<!DOCTYPE svg PUBLIC "-//W3C//DTD SVG 1.1//EN" "http://www.w3.org/Graphics/SVG/1.1/DTD/svg11.dtd" >
<svg xmlns="http://www.w3.org/2000/svg" xmlns:xlink="http://www.w3.org/1999/xlink" version="1.1">
<metadata>
Created by FontForge 20170731 at Tue Mar  2 19:22:39 2021
 By Aleksey,,,
Copyright (c) 2000 The Hoefler Type Foundry, Inc., dba Hoefler &#38; Frere-Jones. All Rights Reserved.
</metadata>
<defs>
<font id="GothamPro" horiz-adv-x="1024" >
  <font-face 
    font-family="Gotham Pro"
    font-weight="400"
    font-stretch="normal"
    units-per-em="2048"
    panose-1="2 0 5 3 4 0 0 2 0 4"
    ascent="1638"
    descent="-410"
    x-height="1059"
    cap-height="1434"
    bbox="-139 -401 2372 1858"
    underline-thickness="40"
    underline-position="-312"
    unicode-range="U+0020-FB04"
  />
<missing-glyph 
d="M0 0v1434h1024v-1434h-1024zM166 100h694l-348 523zM100 197l351 520l-351 520v-1040zM922 197v1040l-351 -520zM512 809l348 522h-694z" />
    <glyph glyph-name="fi" unicode="fi" horiz-adv-x="1292" 
d="M236 0v920h-146v137h146v92q0 180 92 272q82 82 227 82q100 0 174 -26v-138q-96 27 -154 27q-184 0 -184 -225v-86h336v-135h-334v-920h-157zM944 0v1059h156v-1059h-156zM932 1290v174h180v-174h-180z" />
    <glyph glyph-name="fl" unicode="fl" horiz-adv-x="1292" 
d="M236 0v920h-146v137h146v92q0 180 92 272q82 82 227 82q100 0 174 -26v-138q-96 27 -154 27q-184 0 -184 -225v-86h336v-135h-334v-920h-157zM944 0v1495h156v-1495h-156z" />
    <glyph glyph-name="ffi" unicode="ffi" horiz-adv-x="2043" 
d="M236 0v920h-146v137h146v92q0 180 92 272q82 82 227 82q100 0 174 -26v-138q-96 27 -154 27q-184 0 -184 -225v-86h336v-135h-334v-920h-157zM989 0v920h-145v137h145v92q0 182 90 272q85 82 228 82q103 0 174 -26v-138q-93 27 -152 27q-94 0 -139 -55.5t-45 -169.5v-86
h334v-135h-334v-920h-156zM1696 0v1059h157v-1059h-157zM1686 1290v174h178v-174h-178z" />
    <glyph glyph-name="ffl" unicode="ffl" horiz-adv-x="2043" 
d="M236 0v920h-146v137h146v92q0 180 92 272q82 82 227 82q100 0 174 -26v-138q-96 27 -154 27q-184 0 -184 -225v-86h336v-135h-334v-920h-157zM989 0v920h-145v137h145v92q0 182 90 272q85 82 228 82q103 0 174 -26v-138q-93 27 -152 27q-94 0 -139 -55.5t-45 -169.5v-86
h334v-135h-334v-920h-156zM1696 0v1495h157v-1495h-157z" />
    <glyph glyph-name=".notdef" 
d="M0 0v1434h1024v-1434h-1024zM166 100h694l-348 523zM100 197l351 520l-351 520v-1040zM922 197v1040l-351 -520zM512 809l348 522h-694z" />
    <glyph glyph-name=".null" horiz-adv-x="0" 
 />
    <glyph glyph-name="nonmarkingreturn" horiz-adv-x="682" 
 />
    <glyph glyph-name="space" unicode=" " horiz-adv-x="614" 
 />
    <glyph glyph-name="exclam" unicode="!" horiz-adv-x="555" 
d="M233 406l-47 911v117h185v-117l-49 -911h-89zM184 0v215h189v-215h-189z" />
    <glyph glyph-name="quotedbl" unicode="&#x22;" horiz-adv-x="901" 
d="M532 877l64 557h188v-11l-166 -546h-86zM133 877l62 557h190v-11l-166 -546h-86z" />
    <glyph glyph-name="numbersign" unicode="#" horiz-adv-x="1433" 
d="M254 0l61 362h-223v142h248l76 434h-244v141h266l62 355h143l-59 -355h389l61 355h144l-60 -355h221v-141h-245l-76 -434h242v-142h-265l-63 -362h-144l62 362h-389l-64 -362h-143zM485 504h389l74 434h-389z" />
    <glyph glyph-name="dollar" unicode="$" horiz-adv-x="1302" 
d="M598 -201v205q-265 23 -483 211l92 123q97 -87 191.5 -135t205.5 -60v512q-230 55 -333 148t-103 254q0 158 120.5 263t309.5 114v118h131v-122q203 -18 391 -164l-88 -123q-139 119 -309 147v-504q233 -54 337.5 -148.5t104.5 -252.5q0 -163 -120.5 -268t-315.5 -117
v-201h-131zM604 815v481q-127 -4 -202.5 -69.5t-75.5 -163.5q0 -61 22 -103.5t84 -79.5t172 -65zM723 137q130 6 207.5 72.5t77.5 169.5q0 95 -60.5 151.5t-224.5 96.5v-490z" />
    <glyph glyph-name="percent" unicode="%" horiz-adv-x="1708" 
d="M430 717q-143 0 -233.5 107t-90.5 259q0 151 92 259t236 108q141 0 231.5 -107.5t90.5 -259.5q0 -98 -40 -181t-115.5 -134t-170.5 -51zM254 0l1053 1434h145l-1051 -1434h-147zM1274 -16q-141 0 -231.5 107t-90.5 259q0 98 40 181.5t115.5 134.5t170.5 51
q142 0 231.5 -107.5t89.5 -259.5q0 -151 -90.5 -258.5t-234.5 -107.5zM434 831q82 0 134.5 72.5t52.5 179.5q0 106 -56 179t-135 73q-83 0 -134.5 -72.5t-51.5 -179.5t55 -179.5t135 -72.5zM1278 98q83 0 134.5 72t51.5 180q0 107 -55 179.5t-135 72.5q-82 0 -134.5 -73
t-52.5 -179q0 -107 55.5 -179.5t135.5 -72.5z" />
    <glyph glyph-name="ampersand" unicode="&#x26;" horiz-adv-x="1425" 
d="M1237 -29l-225 232q-207 -223 -469 -223q-196 0 -323.5 112t-127.5 293q0 278 346 414q-76 89 -109.5 161.5t-33.5 157.5q0 144 106 242t273 98q149 0 248.5 -95t99.5 -233q0 -252 -338 -372l328 -334q94 138 172 319l133 -61q-107 -229 -207 -360l250 -256zM594 850
q138 46 207 114t69 162q0 86 -57 142.5t-145 56.5q-96 0 -156.5 -59.5t-60.5 -151.5q0 -63 30.5 -119.5t112.5 -144.5zM555 117q190 0 358 186l-383 395q-138 -51 -206 -132t-68 -179q0 -116 84 -193t215 -77z" />
    <glyph glyph-name="quotesingle" unicode="'" horiz-adv-x="501" 
d="M133 877l62 557h192v-11l-166 -546h-88z" />
    <glyph glyph-name="parenleft" unicode="(" horiz-adv-x="888" 
d="M707 -289q-277 156 -422.5 377t-145.5 500t145.5 499.5t422.5 376.5l67 -104q-237 -152 -356 -341t-119 -431t119 -431t356 -341z" />
    <glyph glyph-name="parenright" unicode=")" horiz-adv-x="888" 
d="M182 -289l-67 105q237 152 356 341t119 431t-119 431t-356 341l67 104q277 -156 422.5 -376.5t145.5 -499.5t-145.5 -500t-422.5 -377z" />
    <glyph glyph-name="asterisk" unicode="*" horiz-adv-x="880" 
d="M387 813l21 256l-211 -149l-56 96l238 108l-238 111l56 94l211 -147l-21 256h107l-21 -256l211 147l55 -94l-237 -111l237 -108l-55 -96l-211 149l21 -256h-107z" />
    <glyph glyph-name="plus" unicode="+" horiz-adv-x="1310" 
d="M580 225v422h-426v148h426v422h151v-422h426v-148h-426v-422h-151z" />
    <glyph glyph-name="comma" unicode="," horiz-adv-x="501" 
d="M119 -250l-25 72q71 26 104 63.5t33 94.5v20h-73v215h188v-184q0 -123 -54 -188.5t-173 -92.5z" />
    <glyph glyph-name="hyphen" unicode="-" horiz-adv-x="835" 
d="M133 532v166h569v-166h-569z" />
    <glyph glyph-name="period" unicode="." horiz-adv-x="501" 
d="M158 0v215h188v-215h-188z" />
    <glyph glyph-name="slash" unicode="/" horiz-adv-x="1040" 
d="M-43 -262l950 1896h146l-951 -1896h-145z" />
    <glyph glyph-name="zero" unicode="0" horiz-adv-x="1464" 
d="M731 -25q-136 0 -250.5 59t-191 160t-119.5 236t-43 287q0 201 74 369t214.5 270t319.5 102q180 0 318.5 -101t211 -268.5t72.5 -371.5q0 -201 -73.5 -369.5t-213.5 -270.5t-319 -102zM735 123q130 0 230.5 83t152 217t51.5 294q0 158 -53 292.5t-154.5 218t-230.5 83.5
q-130 0 -231 -82.5t-153 -216.5t-52 -295q0 -117 31.5 -224.5t87.5 -189.5t139.5 -131t181.5 -49z" />
    <glyph glyph-name="one" unicode="1" horiz-adv-x="733" 
d="M367 0v1276l-271 -84l-39 131l351 121h118v-1444h-159z" />
    <glyph glyph-name="two" unicode="2" horiz-adv-x="1226" 
d="M98 0v125l520 459q168 148 234 246t66 204q0 123 -84 199t-205 76q-118 0 -206 -59.5t-179 -186.5l-119 86q69 103 136 166.5t162.5 101t217.5 37.5q193 0 318.5 -115.5t125.5 -294.5q0 -78 -20 -143t-69 -132.5t-109.5 -129t-163.5 -152.5l-383 -340h760v-147h-1002z
" />
    <glyph glyph-name="three" unicode="3" horiz-adv-x="1255" 
d="M637 -25q-173 0 -308 68t-227 188l117 105q175 -213 420 -213q133 0 223 78.5t90 204.5q0 131 -110 203.5t-291 72.5h-92l-33 96l453 510h-701v146h916v-119l-451 -500q97 -8 180 -35.5t150 -75.5t105 -124t38 -172q0 -189 -138 -311t-341 -122z" />
    <glyph glyph-name="four" unicode="4" horiz-adv-x="1374" 
d="M885 0v340h-756l-41 117l811 987h141v-969h224v-135h-224v-340h-155zM283 475h602v739z" />
    <glyph glyph-name="five" unicode="5" horiz-adv-x="1253" 
d="M621 -25q-146 0 -277 62t-235 166l106 116q202 -196 408 -196q153 0 249.5 90.5t96.5 230.5q0 133 -100 217t-257 84q-150 0 -301 -81l-108 71l41 699h825v-150h-684l-31 -459q145 64 283 64q215 0 355.5 -120.5t140.5 -322.5q0 -210 -143.5 -340.5t-368.5 -130.5z" />
    <glyph glyph-name="six" unicode="6" horiz-adv-x="1325" 
d="M682 -25q-99 0 -182 24t-153 77.5t-119 134.5t-76 200t-27 269q0 164 41 305.5t116 247t188.5 165.5t250.5 60q123 0 223.5 -41.5t200.5 -122.5l-94 -125q-84 71 -164 106.5t-174 35.5q-191 0 -305.5 -174t-114.5 -453v-6q149 219 407 219q134 0 246 -53.5t181 -156
t69 -234.5q0 -206 -147.5 -342t-366.5 -136zM684 119q155 0 250.5 95t95.5 237q0 133 -98 220t-252 87q-156 0 -257 -95t-101 -223q0 -137 102.5 -229t259.5 -92z" />
    <glyph glyph-name="seven" unicode="7" horiz-adv-x="1220" 
d="M281 0l647 1286h-789v148h973v-121l-651 -1313h-180z" />
    <glyph glyph-name="eight" unicode="8" horiz-adv-x="1290" 
d="M645 -20q-152 0 -274.5 51t-193.5 144.5t-71 213.5q0 123 80 213.5t215 138.5q-245 112 -245 334q0 108 67.5 195.5t179 135.5t242.5 48t242.5 -48t179.5 -137t68 -198q0 -217 -246 -330q135 -50 215 -139.5t80 -214.5q0 -120 -71 -213t-193.5 -143.5t-274.5 -50.5z
M645 799q139 0 233.5 74t94.5 192q0 106 -94 177t-234 71t-234 -71t-94 -181q0 -115 94.5 -188.5t233.5 -73.5zM645 121q172 0 273.5 78t101.5 194q0 119 -108 196t-267 77t-267 -78t-108 -199q0 -113 102 -190.5t273 -77.5z" />
    <glyph glyph-name="nine" unicode="9" horiz-adv-x="1325" 
d="M604 -25q-130 0 -235 46.5t-207 130.5l94 124q90 -78 174 -115.5t178 -37.5q125 0 222.5 78t150.5 217t53 315v19q-144 -230 -405 -230q-221 0 -360.5 126t-139.5 323q0 135 64.5 246t183.5 176t268 65q97 0 179 -23.5t152.5 -76.5t119.5 -134t76.5 -201t27.5 -271
q0 -225 -74.5 -402t-210.5 -276t-311 -99zM647 662q158 0 257.5 97.5t99.5 229.5q0 138 -103 232t-262 94q-156 0 -250 -99t-94 -241q0 -137 98 -225t254 -88z" />
    <glyph glyph-name="colon" unicode=":" horiz-adv-x="522" 
d="M168 844v215h188v-215h-188zM168 0v215h188v-215h-188z" />
    <glyph glyph-name="semicolon" unicode=";" horiz-adv-x="522" 
d="M168 844v215h188v-215h-188zM129 -250l-25 72q71 27 104.5 64.5t33.5 93.5v20h-74v215h188v-184q0 -123 -54 -188.5t-173 -92.5z" />
    <glyph glyph-name="less" unicode="&#x3c;" horiz-adv-x="1310" 
d="M1108 176l-961 477v135l961 478v-158l-789 -385l789 -387v-160z" />
    <glyph glyph-name="equal" unicode="=" horiz-adv-x="1310" 
d="M184 885v151h942v-151h-942zM184 406v151h942v-151h-942z" />
    <glyph glyph-name="greater" unicode="&#x3e;" horiz-adv-x="1310" 
d="M203 176v158l788 385l-788 387v160l960 -478v-135z" />
    <glyph glyph-name="question" unicode="?" horiz-adv-x="1099" 
d="M451 406l-31 331l10 11q197 4 302.5 81t105.5 211q0 113 -82 190t-217 77q-207 0 -373 -193l-105 100q95 114 211 176t271 62q205 0 331.5 -115t126.5 -295q0 -93 -33.5 -167.5t-93 -124t-134.5 -80t-165 -43.5l-20 -221h-104zM408 0v215h188v-215h-188z" />
    <glyph glyph-name="at" unicode="@" horiz-adv-x="2007" 
d="M1022 -332q-129 0 -249.5 32.5t-220.5 90.5t-183 140.5t-140 180.5t-88.5 213t-31.5 236q0 181 70 346t189.5 286t286 193t351.5 72q184 0 350.5 -67t284.5 -178t187.5 -259.5t69.5 -306.5q0 -125 -33 -224t-88 -158t-121.5 -89.5t-139.5 -30.5q-109 0 -183 46.5
t-104 125.5q-146 -172 -338 -172q-154 0 -260.5 104t-106.5 269q0 106 41.5 202t108.5 162.5t152 106t171 39.5q202 0 299 -170l27 141l137 -18l-82 -465q-14 -80 -14 -125q0 -78 45.5 -122t128.5 -44q119 0 203 108.5t84 313.5q0 140 -63 274.5t-170 238t-261 166.5
t-325 63q-173 0 -327 -66t-262.5 -177t-171.5 -264t-63 -321q0 -136 39.5 -261t114.5 -226.5t177 -177t233 -117t276 -41.5q149 0 268 33.5t242 105.5l33 -55q-253 -154 -543 -154zM922 272q132 0 233.5 112t101.5 257q0 112 -71 186t-178 74q-132 0 -234 -109t-102 -264
q0 -119 69.5 -187.5t180.5 -68.5z" />
    <glyph glyph-name="A" unicode="A" horiz-adv-x="1617" 
d="M80 0l653 1444h152l653 -1444h-174l-168 379h-780l-170 -379h-166zM479 524h654l-326 731z" />
    <glyph glyph-name="B" unicode="B" horiz-adv-x="1478" 
d="M203 0v1434h610q251 0 375 -127q92 -95 92 -234q0 -128 -64 -208.5t-163 -123.5q307 -92 307 -350q0 -183 -141.5 -287t-378.5 -104h-637zM362 795h424q151 0 240.5 67t89.5 193q0 108 -83 170.5t-234 62.5h-437v-493zM362 145h482q164 0 258 69.5t94 191.5
q0 118 -97.5 181.5t-283.5 63.5h-453v-506z" />
    <glyph glyph-name="C" unicode="C" horiz-adv-x="1511" 
d="M858 -25q-203 0 -368.5 98.5t-258 268t-92.5 375.5q0 151 54.5 287t149 236t230.5 159t291 59q181 0 307.5 -58.5t247.5 -172.5l-106 -115q-100 95 -207 146t-244 51q-156 0 -283.5 -78t-199.5 -213.5t-72 -300.5q0 -164 72.5 -299.5t200 -214t282.5 -78.5
q140 0 246.5 51t216.5 156l107 -113q-120 -122 -254.5 -183t-319.5 -61z" />
    <glyph glyph-name="D" unicode="D" horiz-adv-x="1601" 
d="M203 0v1434h497q166 0 309 -55t242 -150.5t155 -228t56 -283.5q0 -150 -56 -282t-155 -228t-242 -151.5t-309 -55.5h-497zM365 150h335q133 0 245 43.5t188 119t118.5 180t42.5 224.5q0 118 -42.5 222t-118.5 180.5t-188 120.5t-245 44h-335v-1134z" />
    <glyph glyph-name="E" unicode="E" horiz-adv-x="1372" 
d="M203 0v1434h1036v-148h-874v-489h782v-148h-782v-502h884v-147h-1046z" />
    <glyph glyph-name="F" unicode="F" horiz-adv-x="1343" 
d="M203 0v1434h1030v-150h-868v-512h776v-147h-776v-625h-162z" />
    <glyph glyph-name="G" unicode="G" horiz-adv-x="1605" 
d="M868 -25q-165 0 -303.5 58t-231 158t-143.5 235.5t-51 290.5q0 147 52.5 281.5t145 236.5t228.5 162.5t293 60.5q173 0 297 -47t238 -143l-105 -123q-93 80 -193.5 122t-242.5 42q-155 0 -280.5 -80t-195 -215.5t-69.5 -296.5q0 -171 68.5 -306t198 -212.5t300.5 -77.5
q118 0 227 40t187 103v357h-436v145h592v-571q-109 -98 -257 -159t-319 -61z" />
    <glyph glyph-name="H" unicode="H" horiz-adv-x="1556" 
d="M203 0v1434h162v-637h827v637h162v-1434h-162v645h-827v-645h-162z" />
    <glyph glyph-name="I" unicode="I" horiz-adv-x="595" 
d="M217 0v1434h162v-1434h-162z" />
    <glyph glyph-name="J" unicode="J" horiz-adv-x="1132" 
d="M506 -20q-288 0 -443 253l117 101q70 -105 145 -155t183 -50q126 0 203 89.5t77 254.5v961h164v-959q0 -246 -131 -377q-121 -118 -315 -118z" />
    <glyph glyph-name="K" unicode="K" horiz-adv-x="1472" 
d="M203 0v1434h162v-856l823 856h209l-615 -627l641 -807h-202l-551 694l-305 -309v-385h-162z" />
    <glyph glyph-name="L" unicode="L" horiz-adv-x="1267" 
d="M203 0v1434h162v-1284h806v-150h-968z" />
    <glyph glyph-name="M" unicode="M" horiz-adv-x="1777" 
d="M203 0v1434h164l522 -783l522 783h164v-1434h-162v1161l-522 -768h-8l-523 766v-1159h-157z" />
    <glyph glyph-name="N" unicode="N" horiz-adv-x="1617" 
d="M203 0v1434h151l903 -1149v1149h158v-1434h-129l-926 1176v-1176h-157z" />
    <glyph glyph-name="O" unicode="O" horiz-adv-x="1740" 
d="M868 -25q-159 0 -297 60t-231.5 161.5t-147 236.5t-53.5 284q0 147 54 282t148.5 236.5t233 162t297.5 60.5q160 0 297.5 -60t231.5 -161t147.5 -236t53.5 -284q0 -118 -34 -229t-99 -203.5t-153.5 -162t-204 -108.5t-243.5 -39zM872 125q161 0 290 79t200.5 214
t71.5 299q0 162 -72.5 297t-202.5 215t-291 80t-290 -79t-200 -214t-71 -299q0 -162 72 -297t202 -215t291 -80z" />
    <glyph glyph-name="P" unicode="P" horiz-adv-x="1368" 
d="M203 0v1434h536q245 0 391 -123t146 -336q0 -113 -45 -203.5t-122.5 -147.5t-178.5 -87.5t-217 -30.5h-348v-506h-162zM365 653h354q178 0 285.5 87.5t107.5 232.5q0 150 -104 230.5t-281 80.5h-362v-631z" />
    <glyph glyph-name="Q" unicode="Q" horiz-adv-x="1740" 
d="M1509 -43l-188 172q-194 -154 -453 -154q-159 0 -297 60t-231.5 161.5t-147 236.5t-53.5 284q0 147 54 282t148.5 236.5t233 162t297.5 60.5q160 0 297.5 -60t231.5 -161t147.5 -236t53.5 -284q0 -135 -44.5 -259t-127.5 -222l190 -158zM872 125q190 0 330 108l-266 228
l108 121l265 -240q125 160 125 375q0 162 -72.5 297t-202.5 215t-291 80t-290 -79t-200 -214t-71 -299q0 -162 72 -297t202 -215t291 -80z" />
    <glyph glyph-name="R" unicode="R" horiz-adv-x="1480" 
d="M203 0v1434h616q264 0 408 -144q110 -110 110 -286q0 -172 -106 -279t-283 -139l441 -586h-199l-416 557h-409v-557h-162zM365 702h440q164 0 266.5 80t102.5 219q0 132 -97 207.5t-270 75.5h-442v-582z" />
    <glyph glyph-name="S" unicode="S" horiz-adv-x="1310" 
d="M694 -20q-329 0 -585 229l100 119q116 -105 231 -154t260 -49q144 0 232 69t88 179q0 70 -30 116.5t-112.5 85.5t-230.5 70q-128 28 -215 62t-148.5 83.5t-89.5 116t-28 156.5q0 169 133.5 280t337.5 111q153 0 272.5 -43t231.5 -133l-94 -125q-190 156 -414 156
q-137 0 -221 -67t-84 -169q0 -71 31 -118t116.5 -86.5t241.5 -73.5q243 -53 355 -149t112 -261q0 -183 -137 -294t-353 -111z" />
    <glyph glyph-name="T" unicode="T" horiz-adv-x="1327" 
d="M582 0v1284h-482v150h1127v-150h-482v-1284h-163z" />
    <glyph glyph-name="U" unicode="U" horiz-adv-x="1554" 
d="M776 -23q-272 0 -434 162.5t-162 460.5v834h162v-824q0 -231 115.5 -357t322.5 -126q202 0 317 121.5t115 351.5v834h162v-822q0 -307 -161.5 -471t-436.5 -164z" />
    <glyph glyph-name="V" unicode="V" horiz-adv-x="1536" 
d="M696 -10l-616 1444h180l510 -1235l512 1235h174l-616 -1444h-144z" />
    <glyph glyph-name="W" unicode="W" horiz-adv-x="2267" 
d="M604 -10l-512 1444h176l410 -1194l393 1198h133l393 -1198l410 1194h170l-512 -1444h-137l-393 1163l-396 -1163h-135z" />
    <glyph glyph-name="X" unicode="X" horiz-adv-x="1484" 
d="M94 0l551 731l-530 703h190l440 -586l437 586h188l-530 -701l551 -733h-193l-459 616l-458 -616h-187z" />
    <glyph glyph-name="Y" unicode="Y" horiz-adv-x="1466" 
d="M651 0v567l-596 867h197l483 -717l488 717h188l-596 -865v-569h-164z" />
    <glyph glyph-name="Z" unicode="Z" horiz-adv-x="1419" 
d="M137 0v109l928 1179h-897v146h1118v-109l-930 -1180h930v-145h-1149z" />
    <glyph glyph-name="bracketleft" unicode="[" horiz-adv-x="899" 
d="M193 -266v1700h585v-123h-436v-1454h436v-123h-585z" />
    <glyph glyph-name="backslash" unicode="\" horiz-adv-x="1040" 
d="M938 -262l-950 1896h145l950 -1896h-145z" />
    <glyph glyph-name="bracketright" unicode="]" horiz-adv-x="899" 
d="M121 -266v123h438v1454h-438v123h586v-1700h-586z" />
    <glyph glyph-name="asciicircum" unicode="^" 
d="M133 1010l318 428h122l318 -428h-139l-242 315l-242 -315h-135z" />
    <glyph glyph-name="underscore" unicode="_" horiz-adv-x="1228" 
d="M-4 -328v129h1237v-129h-1237z" />
    <glyph glyph-name="grave" unicode="`" 
d="M526 1219l-231 221l164 76l194 -297h-127z" />
    <glyph glyph-name="a" unicode="a" horiz-adv-x="1185" 
d="M492 -23q-103 0 -191 36.5t-146.5 114t-58.5 183.5q0 166 123.5 256t329.5 90q166 0 323 -45v33q0 140 -81.5 213.5t-231.5 73.5q-155 0 -321 -76l-48 129q98 45 187 67.5t198 22.5q226 0 343 -117q110 -110 110 -311v-647h-156v158q-142 -181 -380 -181zM522 104
q148 0 250 80.5t102 204.5v98q-153 45 -309 45q-146 0 -227.5 -58.5t-81.5 -158.5q0 -96 77 -153.5t189 -57.5z" />
    <glyph glyph-name="b" unicode="b" horiz-adv-x="1359" 
d="M739 -23q-249 0 -405 226v-203h-158v1495h158v-649q159 235 405 235q77 0 150.5 -23.5t137.5 -70.5t113 -112t77 -154.5t28 -192.5q0 -126 -43 -231.5t-114 -174.5t-161.5 -107t-187.5 -38zM711 119q159 0 265.5 111t106.5 300q0 183 -108.5 296.5t-263.5 113.5
q-74 0 -143 -30t-122.5 -83t-85.5 -131t-32 -168t32 -167.5t85.5 -129.5t122.5 -82t143 -30z" />
    <glyph glyph-name="c" unicode="c" horiz-adv-x="1169" 
d="M653 -25q-151 0 -276 75t-195.5 202t-70.5 276q0 148 70.5 275t195.5 202.5t276 75.5q140 0 240.5 -50t183.5 -138l-100 -107q-71 74 -148.5 115t-177.5 41q-161 0 -270 -120t-109 -294q0 -172 112.5 -291.5t277.5 -119.5q171 0 319 159l104 -96q-88 -99 -190 -152
t-242 -53z" />
    <glyph glyph-name="d" unicode="d" horiz-adv-x="1359" 
d="M621 -23q-77 0 -150.5 23.5t-137.5 70.5t-113 112t-77 154.5t-28 192.5q0 125 43 231t114.5 175t162 107t186.5 38q250 0 405 -225v639h158v-1495h-158v213q-160 -236 -405 -236zM649 119q74 0 143 30t122.5 83t85.5 131.5t32 168.5q0 177 -115 292.5t-268 115.5
q-159 0 -266 -111.5t-107 -300.5q0 -182 108.5 -295.5t264.5 -113.5z" />
    <glyph glyph-name="e" unicode="e" horiz-adv-x="1212" 
d="M270 465q17 -162 123 -257t250 -95q192 0 334 149l98 -88q-86 -97 -190 -148t-246 -51q-145 0 -265 68.5t-191.5 196t-71.5 288.5q0 152 65 278.5t181.5 200.5t260.5 74q152 0 266 -76t171 -202t57 -283q0 -30 -2 -55h-840zM270 592h682q-14 154 -101.5 255t-236.5 101
q-135 0 -231 -100.5t-113 -255.5z" />
    <glyph glyph-name="f" unicode="f" horiz-adv-x="751" 
d="M236 0v920h-146v137h146v92q0 180 92 272q82 82 227 82q100 0 174 -26v-138q-96 27 -154 27q-184 0 -184 -225v-86h336v-135h-334v-920h-157z" />
    <glyph glyph-name="g" unicode="g" horiz-adv-x="1359" 
d="M645 -332q-268 0 -481 148l72 123q187 -136 407 -136q179 0 282 97.5t103 279.5v125q-167 -223 -416 -223q-96 0 -185 35.5t-158.5 98.5t-111.5 158.5t-42 207.5t42 207.5t112 158.5t159 98t184 35q255 0 414 -213v191h158v-875q0 -239 -135 -374q-142 -142 -404 -142z
M643 221q101 0 189.5 44.5t144 129t55.5 189.5q0 157 -116 257.5t-273 100.5q-155 0 -261 -99t-106 -261q0 -156 108 -258.5t259 -102.5z" />
    <glyph glyph-name="h" unicode="h" horiz-adv-x="1261" 
d="M176 0v1495h158v-621q126 207 362 207q189 0 297.5 -116t108.5 -308v-657h-158v618q0 149 -77.5 234.5t-215.5 85.5t-227.5 -92t-89.5 -240v-606h-158z" />
    <glyph glyph-name="i" unicode="i" horiz-adv-x="538" 
d="M180 1290v174h180v-174h-180zM190 0v1059h158v-1059h-158z" />
    <glyph glyph-name="j" unicode="j" horiz-adv-x="538" 
d="M180 1290v174h180v-174h-180zM90 -334q-54 0 -98 10v129q37 -6 78 -6q56 0 88 35.5t32 106.5v1118h158v-1120q0 -136 -67.5 -204.5t-190.5 -68.5z" />
    <glyph glyph-name="k" unicode="k" horiz-adv-x="1165" 
d="M176 0v1495h158v-1032l571 596h197l-445 -455l459 -604h-188l-379 494l-215 -218v-276h-158z" />
    <glyph glyph-name="l" unicode="l" horiz-adv-x="538" 
d="M190 0v1495h158v-1495h-158z" />
    <glyph glyph-name="m" unicode="m" horiz-adv-x="1947" 
d="M176 0v1059h158v-178q29 44 58.5 76t71 62t95 46t117.5 16q123 0 208.5 -57.5t131.5 -153.5q137 211 373 211q183 0 288 -114.5t105 -311.5v-655h-158v618q0 153 -72 236.5t-202 83.5q-125 0 -209 -88t-84 -240v-610h-156v623q0 148 -72.5 231.5t-199.5 83.5t-211 -94.5
t-84 -239.5v-604h-158z" />
    <glyph glyph-name="n" unicode="n" horiz-adv-x="1261" 
d="M176 0v1059h158v-185q126 207 362 207q189 0 297.5 -116t108.5 -308v-657h-158v618q0 149 -77.5 234.5t-215.5 85.5t-227.5 -92t-89.5 -240v-606h-158z" />
    <glyph glyph-name="o" unicode="o" horiz-adv-x="1323" 
d="M659 -25q-155 0 -281.5 75t-196.5 201.5t-70 276.5q0 149 71 275.5t198.5 202t283.5 75.5q155 0 282 -75t197.5 -201.5t70.5 -276.5q0 -148 -71.5 -275t-199.5 -202.5t-284 -75.5zM664 117q169 0 279 119t110 292q0 172 -114 293t-280 121q-169 0 -278 -120.5
t-109 -293.5q0 -171 113 -291t279 -120z" />
    <glyph glyph-name="p" unicode="p" horiz-adv-x="1359" 
d="M176 -328v1387h158v-213q159 235 405 235q77 0 150.5 -23.5t137.5 -70.5t113 -112t77 -154.5t28 -192.5q0 -126 -43 -231.5t-114 -174.5t-161.5 -107t-187.5 -38q-249 0 -405 226v-531h-158zM711 119q159 0 265.5 111t106.5 300q0 183 -108.5 296.5t-263.5 113.5
q-74 0 -143 -30t-122.5 -83t-85.5 -131t-32 -168t32 -167.5t85.5 -129.5t122.5 -82t143 -30z" />
    <glyph glyph-name="q" unicode="q" horiz-adv-x="1359" 
d="M1026 -328v541q-160 -236 -405 -236q-77 0 -150.5 23.5t-137.5 70.5t-113 112t-77 154.5t-28 192.5q0 125 43 231t114.5 175t162 107t186.5 38q250 0 405 -225v203h158v-1387h-158zM649 119q74 0 143 30t122.5 83t85.5 131.5t32 168.5q0 177 -115 292.5t-268 115.5
q-159 0 -266 -111.5t-107 -300.5q0 -182 108.5 -295.5t264.5 -113.5z" />
    <glyph glyph-name="r" unicode="r" horiz-adv-x="829" 
d="M176 0v1059h158v-277q61 138 174 219.5t258 75.5v-170h-12q-182 0 -301 -127.5t-119 -357.5v-422h-158z" />
    <glyph glyph-name="s" unicode="s" horiz-adv-x="1019" 
d="M526 -20q-114 0 -231.5 41.5t-206.5 113.5l80 113q181 -135 367 -135q97 0 158 47t61 125q0 31 -15 56.5t-37 43t-60.5 34.5t-70.5 27.5t-82 24.5q-45 13 -72.5 21.5t-68.5 24t-67 30.5t-56 38.5t-46.5 49.5t-28 62t-11.5 77q0 135 101.5 219t259.5 84q96 0 197.5 -31
t183.5 -85l-72 -119q-159 102 -313 102q-93 0 -149 -44t-56 -114q0 -24 9 -44.5t31.5 -38t41.5 -29.5t58 -26.5t61.5 -21.5t70.5 -22q42 -12 71 -22t67.5 -26t64.5 -32t54 -39.5t44.5 -50t27.5 -61.5t11 -76q0 -147 -107 -232t-270 -85z" />
    <glyph glyph-name="t" unicode="t" horiz-adv-x="827" 
d="M530 -18q-136 0 -217.5 73t-81.5 226v639h-147v139h147v319h158v-319h336v-139h-336v-619q0 -176 178 -176q79 0 154 37v-135q-85 -45 -191 -45z" />
    <glyph glyph-name="u" unicode="u" horiz-adv-x="1261" 
d="M565 -23q-189 0 -297 116t-108 308v658h157v-619q0 -149 77 -234t216 -85q137 0 227.5 92.5t90.5 239.5v606h155v-1059h-155v184q-130 -207 -363 -207z" />
    <glyph glyph-name="v" unicode="v" horiz-adv-x="1202" 
d="M530 -8l-458 1067h174l356 -879l359 879h169l-460 -1067h-140z" />
    <glyph glyph-name="w" unicode="w" horiz-adv-x="1763" 
d="M457 -8l-371 1067h168l278 -850l285 854h131l287 -854l278 850h164l-372 -1067h-138l-284 835l-287 -835h-139z" />
    <glyph glyph-name="x" unicode="x" horiz-adv-x="1175" 
d="M80 0l416 539l-400 520h180l314 -410l313 410h176l-401 -516l418 -543h-183l-327 432l-330 -432h-176z" />
    <glyph glyph-name="y" unicode="y" horiz-adv-x="1210" 
d="M340 -334q-116 0 -225 53l53 125q74 -39 166 -39q72 0 121.5 44t95.5 155l-481 1055h174l385 -883l340 883h168l-445 -1094q-67 -162 -148.5 -230.5t-203.5 -68.5z" />
    <glyph glyph-name="z" unicode="z" horiz-adv-x="1138" 
d="M115 0v100l702 826h-678v133h893v-101l-704 -825h704v-133h-917z" />
    <glyph glyph-name="braceleft" unicode="{" horiz-adv-x="989" 
d="M852 -289q-109 20 -187.5 49t-128 64t-78.5 83t-39.5 99t-10.5 119q0 15 1 76.5t1 79.5q0 125 -54.5 185t-187.5 60h-53v123h53q133 0 187.5 60.5t54.5 185.5q0 18 -1 79.5t-1 76.5q0 68 10.5 118.5t39.5 98.5t78.5 83t128 64t187.5 49l25 -104q-108 -28 -171 -56
t-96.5 -69t-43 -85t-9.5 -120q0 -20 1 -75.5t1 -77.5q0 -123 -54 -189.5t-159 -99.5q109 -36 161 -101t52 -188q0 -22 -1 -78t-1 -76q0 -60 6 -98.5t24 -75t53.5 -61.5t92.5 -48.5t144 -45.5z" />
    <glyph glyph-name="bar" unicode="|" horiz-adv-x="620" 
d="M244 -262v1896h133v-1896h-133z" />
    <glyph glyph-name="braceright" unicode="}" horiz-adv-x="989" 
d="M137 -289l-26 105q109 28 172 55.5t96.5 68.5t43 85t9.5 120q0 20 -1 76t-1 78q0 123 54 189.5t159 99.5q-109 36 -161 101t-52 188q0 22 1 77.5t1 75.5q0 76 -9.5 120t-42.5 85t-96.5 69t-172.5 56l26 104q109 -20 188 -49t128.5 -64t78 -82.5t39.5 -98.5t11 -119
q0 -15 -1 -76.5t-1 -79.5q0 -126 53.5 -186t185.5 -60h53v-123h-53q-132 0 -185.5 -60t-53.5 -185q0 -18 1 -79.5t1 -76.5q0 -85 -18 -146t-65.5 -114.5t-136.5 -91t-225 -62.5z" />
    <glyph glyph-name="asciitilde" unicode="~" horiz-adv-x="968" 
d="M246 485l-96 27q31 117 75.5 167t118.5 50q47 0 143.5 -42t130.5 -42q39 0 61 22t46 81l94 -27q-31 -117 -75 -167t-117 -50q-49 0 -146 42t-129 42q-39 0 -60.5 -22t-45.5 -81z" />
    <glyph glyph-name="uni00A0" unicode="&#xa0;" horiz-adv-x="614" 
 />
    <glyph glyph-name="exclamdown" unicode="&#xa1;" horiz-adv-x="555" 
d="M186 0v117l47 911h89l49 -911v-117h-185zM184 1219v215h189v-215h-189z" />
    <glyph glyph-name="cent" unicode="&#xa2;" horiz-adv-x="1189" 
d="M434 -12l45 217q-161 58 -260.5 200t-99.5 322q0 148 71 275t196.5 202.5t275.5 75.5h26l31 166h133l-37 -184q144 -39 270 -172l-102 -107q-103 106 -201 137l-157 -803q14 -2 43 -2q178 0 325 158l99 -92q-87 -99 -190.5 -153t-242.5 -54q-37 0 -55 2l-37 -188h-133z
M512 346l154 793h-9q-160 0 -269 -119.5t-109 -292.5q0 -128 64 -230.5t169 -150.5z" />
    <glyph glyph-name="sterling" unicode="&#xa3;" horiz-adv-x="1318" 
d="M137 0v94l172 43v467h-172v141h172v222q0 235 129 364q123 123 324 123q151 0 254 -58t184 -163l-125 -98q-67 84 -138.5 127t-176.5 43q-122 0 -201 -76q-88 -85 -88 -262v-222h571v-141h-571v-461h727v-143h-1061z" />
    <glyph glyph-name="currency" unicode="&#xa4;" horiz-adv-x="1474" 
d="M881 -25q-215 0 -370 139.5t-210 370.5h-186v129h166q-5 41 -5 103q0 67 9 119h-170v127h192q60 221 211 358t352 137q170 0 287 -73t207 -207l-123 -88q-82 115 -167.5 169t-209.5 54q-134 0 -238.5 -96t-152.5 -254h526v-127h-553q-8 -44 -8 -119q0 -37 4 -103h557
v-129h-530q46 -167 157 -265.5t261 -98.5q115 0 199.5 59t164.5 176l117 -82q-94 -142 -209.5 -220.5t-277.5 -78.5z" />
    <glyph glyph-name="yen" unicode="&#xa5;" horiz-adv-x="1404" 
d="M625 0v238h-420v127h420v180h-420v127h370l-520 762h193l457 -701l460 701h185l-523 -762h373v-127h-420v-180h420v-127h-420v-238h-155z" />
    <glyph glyph-name="brokenbar" unicode="&#xa6;" horiz-adv-x="454" 
d="M150 -182v512h153v-512h-153zM150 842v512h153v-512h-153z" />
    <glyph glyph-name="section" unicode="&#xa7;" horiz-adv-x="1294" 
d="M672 -20q-139 0 -259.5 51.5t-209.5 142.5l102 98q160 -157 371 -157q103 0 157 38t54 101q0 58 -74.5 101.5t-259.5 86.5q-234 56 -330 122t-96 173q0 91 73 152t197 82q-151 77 -151 211q0 123 103 197.5t274 74.5q139 0 259.5 -51.5t209.5 -142.5l-103 -99
q-161 158 -371 158q-104 0 -157 -37.5t-53 -101.5q0 -59 73 -101.5t260 -87.5q235 -56 330.5 -121.5t95.5 -173.5q0 -90 -73.5 -151t-196.5 -82q71 -35 111.5 -89.5t40.5 -121.5q0 -123 -103 -197.5t-274 -74.5zM793 539q98 0 160.5 42t62.5 103q0 54 -65 96.5t-226 81.5
q-132 33 -223 33q-98 0 -160.5 -42t-62.5 -103q0 -54 64.5 -97t225.5 -82q125 -32 224 -32z" />
    <glyph glyph-name="dieresis" unicode="&#xa8;" 
d="M240 1219v194h184v-194h-184zM600 1219v194h184v-194h-184z" />
    <glyph glyph-name="copyright" unicode="&#xa9;" horiz-adv-x="1699" 
d="M848 -25q-204 0 -374.5 100t-267.5 270.5t-97 371.5q0 149 58 285.5t157 236.5t237 159.5t291 59.5t290.5 -59t235.5 -158.5t155.5 -236t57.5 -287.5q0 -149 -58 -285.5t-157 -237t-237 -160t-291 -59.5zM848 39q189 0 344.5 92t243.5 248t88 342q0 184 -87.5 338.5
t-242 245t-342.5 90.5q-189 0 -344.5 -92t-243.5 -248t-88 -342q0 -184 87.5 -338.5t242 -245t342.5 -90.5zM858 334q-162 0 -271.5 115t-109.5 280q0 162 110.5 276.5t274.5 114.5q96 0 163.5 -31.5t131.5 -91.5l-76 -82q-107 103 -221 103t-191 -85t-77 -206
q0 -119 78.5 -204t191.5 -85q67 0 117.5 25.5t107.5 77.5l74 -72q-65 -67 -135.5 -101t-167.5 -34z" />
    <glyph glyph-name="ordfeminine" unicode="&#xaa;" horiz-adv-x="798" 
d="M119 592v96h532v-96h-532zM344 836q-89 0 -154 49t-65 139t69.5 140t182.5 50q81 0 164 -22v10q0 70 -42 108t-118 38q-78 0 -176 -45l-31 86q115 51 217 51q118 0 184 -60t66 -178v-354h-100v78q-74 -90 -197 -90zM362 922q74 0 126.5 40t52.5 103v49q-79 23 -156 23
q-60 0 -107 -27.5t-47 -85.5q0 -48 37.5 -75t93.5 -27z" />
    <glyph glyph-name="guillemotleft" unicode="&#xab;" horiz-adv-x="1126" 
d="M430 84l-332 438v17l332 436l121 -68l-277 -375l277 -378zM887 84l-332 438v17l332 436l119 -68l-277 -375l277 -378z" />
    <glyph glyph-name="logicalnot" unicode="&#xac;" horiz-adv-x="1310" 
d="M973 518v365h-791v153h944v-518h-153z" />
    <glyph glyph-name="uni00AD" unicode="&#xad;" horiz-adv-x="835" 
d="M133 532v166h569v-166h-569z" />
    <glyph glyph-name="registered" unicode="&#xae;" horiz-adv-x="1699" 
d="M848 -25q-204 0 -374.5 100t-267.5 270.5t-97 371.5q0 149 58 285.5t157 236.5t237 159.5t291 59.5t290.5 -59t235.5 -158.5t155.5 -236t57.5 -287.5q0 -149 -58 -285.5t-157 -237t-237 -160t-291 -59.5zM848 39q189 0 344.5 92t243.5 248t88 342q0 184 -87.5 338.5
t-242 245t-342.5 90.5q-189 0 -344.5 -92t-243.5 -248t-88 -342q0 -184 87.5 -338.5t242 -245t342.5 -90.5zM559 358v760h340q145 0 225 -80q62 -59 62 -151q0 -89 -53.5 -145.5t-143.5 -77.5l236 -306h-140l-223 287h-190v-287h-113zM672 745h217q81 0 130.5 37t49.5 103
q0 60 -46.5 95.5t-127.5 35.5h-223v-271z" />
    <glyph glyph-name="macron" unicode="&#xaf;" 
d="M188 1229v137h648v-137h-648z" />
    <glyph glyph-name="degree" unicode="&#xb0;" horiz-adv-x="937" 
d="M469 819q-127 0 -224.5 94.5t-97.5 221.5q0 125 97.5 218t224.5 93t224.5 -94t97.5 -222q0 -124 -97.5 -217.5t-224.5 -93.5zM469 926q86 0 144.5 62t58.5 147q0 82 -58.5 143t-144.5 61t-144.5 -62t-58.5 -147q0 -82 58.5 -143t144.5 -61z" />
    <glyph glyph-name="plusminus" unicode="&#xb1;" horiz-adv-x="1310" 
d="M147 29v143h1016v-143h-1016zM575 274v344h-432v148h432v344h158v-344h434v-148h-434v-344h-158z" />
    <glyph glyph-name="twosuperior" unicode="&#xb2;" 
d="M0 0v1434h1024v-1434h-1024zM166 100h694l-348 523zM100 197l351 520l-351 520v-1040zM922 197v1040l-351 -520zM512 809l348 522h-694z" />
    <glyph glyph-name="threesuperior" unicode="&#xb3;" 
d="M0 0v1434h1024v-1434h-1024zM166 100h694l-348 523zM100 197l351 520l-351 520v-1040zM922 197v1040l-351 -520zM512 809l348 522h-694z" />
    <glyph glyph-name="acute" unicode="&#xb4;" 
d="M371 1219l194 297l164 -76l-231 -221h-127z" />
    <glyph glyph-name="mu" unicode="&#xb5;" horiz-adv-x="1288" 
d="M176 -328v1387h158v-619q0 -139 83 -231t214 -92q138 0 230.5 95t92.5 241v606h158v-1059h-158v184q-123 -204 -356 -204q-166 0 -264 139v-447h-158z" />
    <glyph glyph-name="paragraph" unicode="&#xb6;" horiz-adv-x="1044" 
d="M692 0v541h-22q-164 0 -292 50.5t-204 153t-76 244.5q0 206 149.5 325.5t391.5 119.5h217v-1434h-164z" />
    <glyph glyph-name="periodcentered" unicode="&#xb7;" horiz-adv-x="501" 
d="M158 508v215h188v-215h-188z" />
    <glyph glyph-name="cedilla" unicode="&#xb8;" 
d="M461 -317l-154 69l185 268h124z" />
    <glyph glyph-name="onesuperior" unicode="&#xb9;" 
d="M0 0v1434h1024v-1434h-1024zM166 100h694l-348 523zM100 197l351 520l-351 520v-1040zM922 197v1040l-351 -520zM512 809l348 522h-694z" />
    <glyph glyph-name="ordmasculine" unicode="&#xba;" horiz-adv-x="798" 
d="M104 592v96h590v-96h-590zM397 834q-128 0 -213.5 89t-85.5 216q0 126 87 215.5t216 89.5q128 0 213.5 -89t85.5 -216q0 -126 -87 -215.5t-216 -89.5zM401 932q83 0 136 59.5t53 147.5q0 87 -55 147t-138 60t-135.5 -59.5t-52.5 -147.5q0 -86 55 -146.5t137 -60.5z" />
    <glyph glyph-name="guillemotright" unicode="&#xbb;" horiz-adv-x="1126" 
d="M240 84l-119 68l276 376l-276 377l119 70l331 -436v-17zM696 84l-121 68l277 376l-277 377l121 70l332 -436v-17z" />
    <glyph glyph-name="onequarter" unicode="&#xbc;" 
d="M0 0v1434h1024v-1434h-1024zM166 100h694l-348 523zM100 197l351 520l-351 520v-1040zM922 197v1040l-351 -520zM512 809l348 522h-694z" />
    <glyph glyph-name="onehalf" unicode="&#xbd;" 
d="M0 0v1434h1024v-1434h-1024zM166 100h694l-348 523zM100 197l351 520l-351 520v-1040zM922 197v1040l-351 -520zM512 809l348 522h-694z" />
    <glyph glyph-name="threequarters" unicode="&#xbe;" 
d="M0 0v1434h1024v-1434h-1024zM166 100h694l-348 523zM100 197l351 520l-351 520v-1040zM922 197v1040l-351 -520zM512 809l348 522h-694z" />
    <glyph glyph-name="questiondown" unicode="&#xbf;" horiz-adv-x="1099" 
d="M557 -18q-207 0 -333 114.5t-126 294.5q0 93 33.5 168t93 124.5t134.5 80t165 43.5l19 221h104l33 -332l-10 -10q-197 -4 -302.5 -81.5t-105.5 -211.5q0 -113 82 -189.5t217 -76.5q209 0 371 192l104 -100q-95 -114 -209.5 -175.5t-269.5 -61.5zM504 1219v215h188v-215
h-188z" />
    <glyph glyph-name="Agrave" unicode="&#xc0;" horiz-adv-x="1617" 
d="M80 0l653 1444h152l653 -1444h-174l-168 379h-780l-170 -379h-166zM479 524h654l-326 731zM743 1561l-231 221l164 76l194 -297h-127z" />
    <glyph glyph-name="Aacute" unicode="&#xc1;" horiz-adv-x="1617" 
d="M80 0l653 1444h152l653 -1444h-174l-168 379h-780l-170 -379h-166zM479 524h654l-326 731zM748 1561l194 297l164 -76l-232 -221h-126z" />
    <glyph glyph-name="Acircumflex" unicode="&#xc2;" horiz-adv-x="1617" 
d="M80 0l653 1444h152l653 -1444h-174l-168 379h-780l-170 -379h-166zM479 524h654l-326 731zM522 1554l217 269h140l217 -269h-135l-154 138l-154 -138h-131z" />
    <glyph glyph-name="Atilde" unicode="&#xc3;" horiz-adv-x="1617" 
d="M80 0l653 1444h152l653 -1444h-174l-168 379h-780l-170 -379h-166zM479 524h654l-326 731zM569 1542l-96 27q31 115 76 165t119 50q49 0 145.5 -41t128.5 -41q39 0 61 21.5t46 78.5l96 -26q-31 -115 -76 -165t-119 -50q-49 0 -145.5 40.5t-128.5 40.5q-39 0 -61 -21.5
t-46 -78.5z" />
    <glyph glyph-name="Adieresis" unicode="&#xc4;" horiz-adv-x="1617" 
d="M80 0l653 1444h152l653 -1444h-174l-168 379h-780l-170 -379h-166zM479 524h654l-326 731zM537 1561v194h184v-194h-184zM897 1561v194h184v-194h-184z" />
    <glyph glyph-name="Aring" unicode="&#xc5;" horiz-adv-x="1617" 
d="M80 0l629 1393q-51 27 -82 74.5t-31 105.5q0 83 64 143t149 60q86 0 149.5 -61t63.5 -146q0 -56 -31 -102.5t-82 -73.5l629 -1393h-174l-168 379h-780l-170 -379h-166zM479 524h654l-326 731zM809 1444q51 0 89 38t38 91q0 51 -37.5 88t-89.5 37q-53 0 -90 -37.5
t-37 -91.5q0 -51 38 -88t89 -37z" />
    <glyph glyph-name="AE" unicode="&#xc6;" horiz-adv-x="2140" 
d="M35 0l842 1434h1130v-148h-838v-489h746v-148h-746v-502h848v-147h-1011v379h-578l-223 -379h-170zM510 524h496v766h-50z" />
    <glyph glyph-name="Ccedilla" unicode="&#xc7;" horiz-adv-x="1511" 
d="M756 -317l-154 69l158 230q-179 23 -320.5 124.5t-221 261.5t-79.5 349q0 151 54.5 287t149 236t230.5 159t291 59q182 0 311.5 -57.5t247.5 -169.5l-110 -119q-100 95 -207 146t-244 51q-156 0 -283.5 -78t-199.5 -213.5t-72 -300.5q0 -164 72.5 -299.5t200 -214
t282.5 -78.5q140 0 246.5 51t216.5 156l107 -105q-116 -118 -243 -181.5t-298 -70.5z" />
    <glyph glyph-name="Egrave" unicode="&#xc8;" horiz-adv-x="1372" 
d="M203 0v1434h1036v-148h-874v-489h782v-148h-782v-502h884v-147h-1046zM696 1561l-231 221l164 76l194 -297h-127z" />
    <glyph glyph-name="Eacute" unicode="&#xc9;" horiz-adv-x="1372" 
d="M203 0v1434h1036v-148h-874v-489h782v-148h-782v-502h884v-147h-1046zM608 1561l195 297l164 -76l-232 -221h-127z" />
    <glyph glyph-name="Ecircumflex" unicode="&#xca;" horiz-adv-x="1372" 
d="M203 0v1434h1036v-148h-874v-489h782v-148h-782v-502h884v-147h-1046zM426 1561l217 268h139l217 -268h-135l-153 137l-154 -137h-131z" />
    <glyph glyph-name="Edieresis" unicode="&#xcb;" horiz-adv-x="1372" 
d="M203 0v1434h1036v-148h-874v-489h782v-148h-782v-502h884v-147h-1046zM440 1561v194h185v-194h-185zM801 1561v194h184v-194h-184z" />
    <glyph glyph-name="Igrave" unicode="&#xcc;" horiz-adv-x="595" 
d="M217 0v1434h162v-1434h-162zM236 1561l-232 221l164 76l194 -297h-126z" />
    <glyph glyph-name="Iacute" unicode="&#xcd;" horiz-adv-x="595" 
d="M217 0v1434h162v-1434h-162zM233 1561l195 297l164 -76l-232 -221h-127z" />
    <glyph glyph-name="Icircumflex" unicode="&#xce;" horiz-adv-x="595" 
d="M217 0v1434h162v-1434h-162zM12 1561l217 268h140l217 -268h-135l-154 137l-154 -137h-131z" />
    <glyph glyph-name="Idieresis" unicode="&#xcf;" horiz-adv-x="595" 
d="M217 0v1434h162v-1434h-162zM27 1561v194h184v-194h-184zM387 1561v194h184v-194h-184z" />
    <glyph glyph-name="Eth" unicode="&#xd0;" horiz-adv-x="1662" 
d="M264 0v647h-153v148h153v639h498q166 0 309 -55t242 -150.5t155 -228t56 -283.5q0 -150 -56 -282t-155 -228t-242 -151.5t-309 -55.5h-498zM426 150h336q133 0 245 43.5t188 119t118.5 180t42.5 224.5q0 118 -42.5 222t-118.5 180.5t-188 120.5t-245 44h-336v-489h430
v-148h-430v-497z" />
    <glyph glyph-name="Ntilde" unicode="&#xd1;" horiz-adv-x="1617" 
d="M203 0v1434h151l903 -1149v1149h158v-1434h-129l-926 1176v-1176h-157zM569 1542l-96 27q31 115 76 165t119 50q49 0 145.5 -41t128.5 -41q39 0 61 21.5t46 78.5l96 -26q-31 -115 -76 -165t-119 -50q-49 0 -145.5 40.5t-128.5 40.5q-39 0 -61 -21.5t-46 -78.5z" />
    <glyph glyph-name="Ograve" unicode="&#xd2;" horiz-adv-x="1740" 
d="M868 -25q-159 0 -297 60t-231.5 161.5t-147 236.5t-53.5 284q0 147 54 282t148.5 236.5t233 162t297.5 60.5q160 0 297.5 -60t231.5 -161t147.5 -236t53.5 -284q0 -118 -34 -229t-99 -203.5t-153.5 -162t-204 -108.5t-243.5 -39zM872 125q161 0 290 79t200.5 214
t71.5 299q0 162 -72.5 297t-202.5 215t-291 80t-290 -79t-200 -214t-71 -299q0 -162 72 -297t202 -215t291 -80zM797 1561l-232 221l164 76l195 -297h-127z" />
    <glyph glyph-name="Oacute" unicode="&#xd3;" horiz-adv-x="1740" 
d="M868 -25q-159 0 -297 60t-231.5 161.5t-147 236.5t-53.5 284q0 147 54 282t148.5 236.5t233 162t297.5 60.5q160 0 297.5 -60t231.5 -161t147.5 -236t53.5 -284q0 -118 -34 -229t-99 -203.5t-153.5 -162t-204 -108.5t-243.5 -39zM872 125q161 0 290 79t200.5 214
t71.5 299q0 162 -72.5 297t-202.5 215t-291 80t-290 -79t-200 -214t-71 -299q0 -162 72 -297t202 -215t291 -80zM817 1561l195 297l164 -76l-232 -221h-127z" />
    <glyph glyph-name="Ocircumflex" unicode="&#xd4;" horiz-adv-x="1740" 
d="M868 -25q-159 0 -297 60t-231.5 161.5t-147 236.5t-53.5 284q0 147 54 282t148.5 236.5t233 162t297.5 60.5q160 0 297.5 -60t231.5 -161t147.5 -236t53.5 -284q0 -118 -34 -229t-99 -203.5t-153.5 -162t-204 -108.5t-243.5 -39zM872 125q161 0 290 79t200.5 214
t71.5 299q0 162 -72.5 297t-202.5 215t-291 80t-290 -79t-200 -214t-71 -299q0 -162 72 -297t202 -215t291 -80zM584 1561l217 268h139l217 -268h-135l-154 137l-153 -137h-131z" />
    <glyph glyph-name="Otilde" unicode="&#xd5;" horiz-adv-x="1740" 
d="M868 -25q-159 0 -297 60t-231.5 161.5t-147 236.5t-53.5 284q0 147 54 282t148.5 236.5t233 162t297.5 60.5q160 0 297.5 -60t231.5 -161t147.5 -236t53.5 -284q0 -118 -34 -229t-99 -203.5t-153.5 -162t-204 -108.5t-243.5 -39zM872 125q161 0 290 79t200.5 214
t71.5 299q0 162 -72.5 297t-202.5 215t-291 80t-290 -79t-200 -214t-71 -299q0 -162 72 -297t202 -215t291 -80zM631 1542l-96 27q31 116 76 165.5t118 49.5q49 0 146 -41t129 -41q39 0 60.5 21.5t45.5 78.5l96 -26q-31 -116 -76 -165.5t-118 -49.5q-49 0 -146 40.5
t-129 40.5q-39 0 -60.5 -21.5t-45.5 -78.5z" />
    <glyph glyph-name="Odieresis" unicode="&#xd6;" horiz-adv-x="1740" 
d="M868 -25q-159 0 -297 60t-231.5 161.5t-147 236.5t-53.5 284q0 147 54 282t148.5 236.5t233 162t297.5 60.5q160 0 297.5 -60t231.5 -161t147.5 -236t53.5 -284q0 -118 -34 -229t-99 -203.5t-153.5 -162t-204 -108.5t-243.5 -39zM872 125q161 0 290 79t200.5 214
t71.5 299q0 162 -72.5 297t-202.5 215t-291 80t-290 -79t-200 -214t-71 -299q0 -162 72 -297t202 -215t291 -80zM598 1561v194h184v-194h-184zM958 1561v194h185v-194h-185z" />
    <glyph glyph-name="multiply" unicode="&#xd7;" horiz-adv-x="1310" 
d="M266 193l-104 106l387 387l-387 387l104 107l387 -392l387 392l105 -107l-387 -387l387 -387l-105 -106l-387 389z" />
    <glyph glyph-name="Oslash" unicode="&#xd8;" horiz-adv-x="1740" 
d="M868 -25q-258 0 -448 150l-127 -135h-170l203 221q-90 101 -138.5 231t-48.5 275q0 147 54 282t148.5 236.5t233 162t297.5 60.5q262 0 449 -151l127 137h170l-203 -221q90 -101 138.5 -231t48.5 -275q0 -118 -34 -229t-99 -203.5t-153.5 -162t-204 -108.5t-243.5 -39z
M872 123q161 0 290 79.5t200.5 215t71.5 299.5q0 219 -129 383l-781 -852q147 -125 348 -125zM436 334l781 852q-147 125 -349 125q-161 0 -290 -79.5t-200 -215t-71 -299.5q0 -219 129 -383z" />
    <glyph glyph-name="Ugrave" unicode="&#xd9;" horiz-adv-x="1554" 
d="M776 -23q-272 0 -434 162.5t-162 460.5v834h162v-824q0 -231 115.5 -357t322.5 -126q202 0 317 121.5t115 351.5v834h162v-822q0 -307 -161.5 -471t-436.5 -164zM725 1550l-231 222l163 75l195 -297h-127z" />
    <glyph glyph-name="Uacute" unicode="&#xda;" horiz-adv-x="1554" 
d="M776 -23q-272 0 -434 162.5t-162 460.5v834h162v-824q0 -231 115.5 -357t322.5 -126q202 0 317 121.5t115 351.5v834h162v-822q0 -307 -161.5 -471t-436.5 -164zM702 1550l195 297l164 -75l-232 -222h-127z" />
    <glyph glyph-name="Ucircumflex" unicode="&#xdb;" horiz-adv-x="1554" 
d="M776 -23q-272 0 -434 162.5t-162 460.5v834h162v-824q0 -231 115.5 -357t322.5 -126q202 0 317 121.5t115 351.5v834h162v-822q0 -307 -161.5 -471t-436.5 -164zM489 1554l218 269h139l217 -269h-135l-154 138l-153 -138h-132z" />
    <glyph glyph-name="Udieresis" unicode="&#xdc;" horiz-adv-x="1554" 
d="M776 -23q-272 0 -434 162.5t-162 460.5v834h162v-824q0 -231 115.5 -357t322.5 -126q202 0 317 121.5t115 351.5v834h162v-822q0 -307 -161.5 -471t-436.5 -164zM504 1554v195h184v-195h-184zM864 1554v195h185v-195h-185z" />
    <glyph glyph-name="Yacute" unicode="&#xdd;" horiz-adv-x="1466" 
d="M651 0v567l-596 867h197l483 -717l488 717h188l-596 -865v-569h-164zM674 1550l194 297l164 -75l-231 -222h-127z" />
    <glyph glyph-name="Thorn" unicode="&#xde;" horiz-adv-x="1378" 
d="M203 0v1434h162v-246h374q245 0 391 -123.5t146 -335.5q0 -113 -45 -203.5t-122.5 -148.5t-178.5 -88.5t-217 -30.5h-348v-258h-162zM365 406h354q178 0 285.5 88t107.5 233q0 150 -104 230.5t-281 80.5h-362v-632z" />
    <glyph glyph-name="germandbls" unicode="&#xdf;" horiz-adv-x="1269" 
d="M598 -4v127q185 5 288 74.5t103 199.5q0 120 -103.5 191t-287.5 90v117q303 111 303 335q0 106 -74 173t-194 67q-132 0 -215.5 -93.5t-83.5 -248.5v-1028h-158v1026q0 218 126 350.5t339 132.5q190 0 306 -105.5t116 -266.5q0 -69 -24 -130.5t-65.5 -107t-90 -79.5
t-105.5 -58q76 -17 140 -46t118 -72.5t84.5 -108t30.5 -142.5q0 -187 -144.5 -292t-394.5 -105h-14z" />
    <glyph glyph-name="agrave" unicode="&#xe0;" horiz-adv-x="1185" 
d="M492 -23q-103 0 -191 36.5t-146.5 114t-58.5 183.5q0 166 123.5 256t329.5 90q166 0 323 -45v33q0 140 -81.5 213.5t-231.5 73.5q-155 0 -321 -76l-48 129q98 45 187 67.5t198 22.5q226 0 343 -117q110 -110 110 -311v-647h-156v158q-142 -181 -380 -181zM522 104
q148 0 250 80.5t102 204.5v98q-153 45 -309 45q-146 0 -227.5 -58.5t-81.5 -158.5q0 -96 77 -153.5t189 -57.5zM535 1219l-232 221l164 76l195 -297h-127z" />
    <glyph glyph-name="aacute" unicode="&#xe1;" horiz-adv-x="1185" 
d="M492 -23q-103 0 -191 36.5t-146.5 114t-58.5 183.5q0 166 123.5 256t329.5 90q166 0 323 -45v33q0 140 -81.5 213.5t-231.5 73.5q-155 0 -321 -76l-48 129q98 45 187 67.5t198 22.5q226 0 343 -117q110 -110 110 -311v-647h-156v158q-142 -181 -380 -181zM522 104
q148 0 250 80.5t102 204.5v98q-153 45 -309 45q-146 0 -227.5 -58.5t-81.5 -158.5q0 -96 77 -153.5t189 -57.5zM508 1219l194 297l164 -76l-231 -221h-127z" />
    <glyph glyph-name="acircumflex" unicode="&#xe2;" horiz-adv-x="1185" 
d="M492 -23q-103 0 -191 36.5t-146.5 114t-58.5 183.5q0 166 123.5 256t329.5 90q166 0 323 -45v33q0 140 -81.5 213.5t-231.5 73.5q-155 0 -321 -76l-48 129q98 45 187 67.5t198 22.5q226 0 343 -117q110 -110 110 -311v-647h-156v158q-142 -181 -380 -181zM522 104
q148 0 250 80.5t102 204.5v98q-153 45 -309 45q-146 0 -227.5 -58.5t-81.5 -158.5q0 -96 77 -153.5t189 -57.5zM309 1219l217 268h140l217 -268h-135l-154 137l-154 -137h-131z" />
    <glyph glyph-name="atilde" unicode="&#xe3;" horiz-adv-x="1185" 
d="M492 -23q-103 0 -191 36.5t-146.5 114t-58.5 183.5q0 166 123.5 256t329.5 90q166 0 323 -45v33q0 140 -81.5 213.5t-231.5 73.5q-155 0 -321 -76l-48 129q98 45 187 67.5t198 22.5q226 0 343 -117q110 -110 110 -311v-647h-156v158q-142 -181 -380 -181zM522 104
q148 0 250 80.5t102 204.5v98q-153 45 -309 45q-146 0 -227.5 -58.5t-81.5 -158.5q0 -96 77 -153.5t189 -57.5zM358 1200l-96 27q31 115 76 165t119 50q49 0 145.5 -41t128.5 -41q39 0 61 21.5t46 78.5l96 -26q-31 -115 -76 -165t-119 -50q-49 0 -145.5 40.5t-128.5 40.5
q-39 0 -61 -21.5t-46 -78.5z" />
    <glyph glyph-name="adieresis" unicode="&#xe4;" horiz-adv-x="1185" 
d="M492 -23q-103 0 -191 36.5t-146.5 114t-58.5 183.5q0 166 123.5 256t329.5 90q166 0 323 -45v33q0 140 -81.5 213.5t-231.5 73.5q-155 0 -321 -76l-48 129q98 45 187 67.5t198 22.5q226 0 343 -117q110 -110 110 -311v-647h-156v158q-142 -181 -380 -181zM522 104
q148 0 250 80.5t102 204.5v98q-153 45 -309 45q-146 0 -227.5 -58.5t-81.5 -158.5q0 -96 77 -153.5t189 -57.5zM324 1219v194h184v-194h-184zM684 1219v194h184v-194h-184z" />
    <glyph glyph-name="aring" unicode="&#xe5;" horiz-adv-x="1185" 
d="M492 -23q-103 0 -191 36.5t-146.5 114t-58.5 183.5q0 166 123.5 256t329.5 90q166 0 323 -45v33q0 140 -81.5 213.5t-231.5 73.5q-155 0 -321 -76l-48 129q98 45 187 67.5t198 22.5q226 0 343 -117q110 -110 110 -311v-647h-156v158q-142 -181 -380 -181zM522 104
q148 0 250 80.5t102 204.5v98q-153 45 -309 45q-146 0 -227.5 -58.5t-81.5 -158.5q0 -96 77 -153.5t189 -57.5zM596 1214q-86 0 -149.5 61t-63.5 146q0 83 64 143t149 60q86 0 149.5 -61t63.5 -146q0 -83 -64 -143t-149 -60zM596 1292q52 0 89.5 38t37.5 91q0 51 -37.5 88
t-89.5 37q-53 0 -90 -37.5t-37 -91.5q0 -51 38 -88t89 -37z" />
    <glyph glyph-name="ae" unicode="&#xe6;" horiz-adv-x="1951" 
d="M483 -23q-72 0 -140 21.5t-123.5 62t-89.5 105.5t-34 145q0 166 122.5 256t322.5 90q140 0 313 -45v33q0 140 -80 213.5t-223 73.5q-147 0 -313 -76l-48 129q199 90 377 90q145 0 246.5 -58.5t140.5 -170.5q64 108 171 171.5t235 63.5q151 0 264 -76t170 -202t57 -283
q0 -30 -2 -55h-839q17 -162 122.5 -257t249.5 -95q192 0 334 149l99 -88q-86 -96 -190 -147.5t-247 -51.5q-127 0 -238 56.5t-182 156.5q-88 -91 -217.5 -151t-257.5 -60zM514 104q128 0 213 47t168 142q-37 90 -43 199q-156 40 -295 40t-220 -59t-81 -158
q0 -96 76.5 -153.5t181.5 -57.5zM1010 592h682q-14 154 -101.5 255t-236.5 101q-135 0 -231 -100.5t-113 -255.5z" />
    <glyph glyph-name="ccedilla" unicode="&#xe7;" horiz-adv-x="1169" 
d="M549 -317l-154 69l160 234q-194 34 -319 187t-125 355q0 148 70.5 275t195.5 202.5t276 75.5q140 0 240.5 -50t183.5 -138l-104 -111q-73 76 -148 118t-174 42q-161 0 -270 -120t-109 -294q0 -172 112.5 -291.5t277.5 -119.5q176 0 323 157l100 -94
q-84 -93 -178.5 -145.5t-222.5 -59.5z" />
    <glyph glyph-name="egrave" unicode="&#xe8;" horiz-adv-x="1212" 
d="M270 465q17 -162 123 -257t250 -95q192 0 334 149l98 -88q-86 -97 -190 -148t-246 -51q-145 0 -265 68.5t-191.5 196t-71.5 288.5q0 152 65 278.5t181.5 200.5t260.5 74q152 0 266 -76t171 -202t57 -283q0 -30 -2 -55h-840zM270 592h682q-14 154 -101.5 255t-236.5 101
q-135 0 -231 -100.5t-113 -255.5zM565 1219l-231 221l164 76l194 -297h-127z" />
    <glyph glyph-name="eacute" unicode="&#xe9;" horiz-adv-x="1212" 
d="M270 465q17 -162 123 -257t250 -95q192 0 334 149l98 -88q-86 -97 -190 -148t-246 -51q-145 0 -265 68.5t-191.5 196t-71.5 288.5q0 152 65 278.5t181.5 200.5t260.5 74q152 0 266 -76t171 -202t57 -283q0 -30 -2 -55h-840zM270 592h682q-14 154 -101.5 255t-236.5 101
q-135 0 -231 -100.5t-113 -255.5zM520 1219l195 297l164 -76l-232 -221h-127z" />
    <glyph glyph-name="ecircumflex" unicode="&#xea;" horiz-adv-x="1212" 
d="M270 465q17 -162 123 -257t250 -95q192 0 334 149l98 -88q-86 -97 -190 -148t-246 -51q-145 0 -265 68.5t-191.5 196t-71.5 288.5q0 152 65 278.5t181.5 200.5t260.5 74q152 0 266 -76t171 -202t57 -283q0 -30 -2 -55h-840zM270 592h682q-14 154 -101.5 255t-236.5 101
q-135 0 -231 -100.5t-113 -255.5zM326 1219l217 268h139l217 -268h-135l-154 137l-153 -137h-131z" />
    <glyph glyph-name="edieresis" unicode="&#xeb;" horiz-adv-x="1212" 
d="M270 465q17 -162 123 -257t250 -95q192 0 334 149l98 -88q-86 -97 -190 -148t-246 -51q-145 0 -265 68.5t-191.5 196t-71.5 288.5q0 152 65 278.5t181.5 200.5t260.5 74q152 0 266 -76t171 -202t57 -283q0 -30 -2 -55h-840zM270 592h682q-14 154 -101.5 255t-236.5 101
q-135 0 -231 -100.5t-113 -255.5zM340 1219v194h184v-194h-184zM700 1219v194h185v-194h-185z" />
    <glyph glyph-name="igrave" unicode="&#xec;" horiz-adv-x="538" 
d="M190 0v1059h158v-1059h-158zM209 1219l-232 221l164 76l195 -297h-127z" />
    <glyph glyph-name="iacute" unicode="&#xed;" horiz-adv-x="538" 
d="M190 0v1059h158v-1059h-158zM205 1219l194 297l164 -76l-231 -221h-127z" />
    <glyph glyph-name="icircumflex" unicode="&#xee;" horiz-adv-x="538" 
d="M190 0v1059h158v-1059h-158zM-18 1219l217 268h139l217 -268h-135l-154 137l-153 -137h-131z" />
    <glyph glyph-name="idieresis" unicode="&#xef;" horiz-adv-x="538" 
d="M190 0v1059h158v-1059h-158zM-4 1219v194h184v-194h-184zM356 1219v194h185v-194h-185z" />
    <glyph glyph-name="eth" unicode="&#xf0;" horiz-adv-x="1296" 
d="M639 -25q-149 0 -271 72t-189.5 193.5t-67.5 265.5q0 107 39 199.5t105 155.5t154.5 98.5t186.5 35.5q100 0 177.5 -29t154.5 -83l-269 377l-262 -130l-73 97l268 125l-103 143h189l53 -80l203 98l72 -96l-209 -96l207 -305q90 -130 135 -247t45 -255
q0 -108 -38.5 -205.5t-108 -171.5t-173 -118t-225.5 -44zM649 115q109 0 195 53t132 141t46 193q0 152 -112 260t-277 108q-164 0 -263.5 -105.5t-99.5 -268.5q0 -99 48 -186t136 -141t195 -54z" />
    <glyph glyph-name="ntilde" unicode="&#xf1;" horiz-adv-x="1261" 
d="M176 0v1059h158v-185q126 207 362 207q189 0 297.5 -116t108.5 -308v-657h-158v618q0 149 -77.5 234.5t-215.5 85.5t-227.5 -92t-89.5 -240v-606h-158zM399 1200l-96 27q31 115 76 165t119 50q49 0 145.5 -41t128.5 -41q39 0 61 21.5t46 78.5l96 -26q-31 -115 -76 -165
t-119 -50q-49 0 -145.5 40.5t-128.5 40.5q-39 0 -61 -21.5t-46 -78.5z" />
    <glyph glyph-name="ograve" unicode="&#xf2;" horiz-adv-x="1323" 
d="M659 -25q-155 0 -281.5 75t-196.5 201.5t-70 276.5q0 149 71 275.5t198.5 202t283.5 75.5q155 0 282 -75t197.5 -201.5t70.5 -276.5q0 -148 -71.5 -275t-199.5 -202.5t-284 -75.5zM664 117q169 0 279 119t110 292q0 172 -114 293t-280 121q-169 0 -278 -120.5
t-109 -293.5q0 -171 113 -291t279 -120zM598 1219l-231 221l163 76l195 -297h-127z" />
    <glyph glyph-name="oacute" unicode="&#xf3;" horiz-adv-x="1323" 
d="M659 -25q-155 0 -281.5 75t-196.5 201.5t-70 276.5q0 149 71 275.5t198.5 202t283.5 75.5q155 0 282 -75t197.5 -201.5t70.5 -276.5q0 -148 -71.5 -275t-199.5 -202.5t-284 -75.5zM664 117q169 0 279 119t110 292q0 172 -114 293t-280 121q-169 0 -278 -120.5
t-109 -293.5q0 -171 113 -291t279 -120zM600 1219l195 297l163 -76l-231 -221h-127z" />
    <glyph glyph-name="ocircumflex" unicode="&#xf4;" horiz-adv-x="1323" 
d="M659 -25q-155 0 -281.5 75t-196.5 201.5t-70 276.5q0 149 71 275.5t198.5 202t283.5 75.5q155 0 282 -75t197.5 -201.5t70.5 -276.5q0 -148 -71.5 -275t-199.5 -202.5t-284 -75.5zM664 117q169 0 279 119t110 292q0 172 -114 293t-280 121q-169 0 -278 -120.5
t-109 -293.5q0 -171 113 -291t279 -120zM375 1219l217 268h139l217 -268h-135l-154 137l-153 -137h-131z" />
    <glyph glyph-name="otilde" unicode="&#xf5;" horiz-adv-x="1323" 
d="M659 -25q-155 0 -281.5 75t-196.5 201.5t-70 276.5q0 149 71 275.5t198.5 202t283.5 75.5q155 0 282 -75t197.5 -201.5t70.5 -276.5q0 -148 -71.5 -275t-199.5 -202.5t-284 -75.5zM664 117q169 0 279 119t110 292q0 172 -114 293t-280 121q-169 0 -278 -120.5
t-109 -293.5q0 -171 113 -291t279 -120zM422 1200l-96 27q31 116 76 165.5t118 49.5q49 0 146 -41t129 -41q39 0 60.5 21.5t45.5 78.5l96 -26q-31 -116 -76 -165.5t-118 -49.5q-49 0 -146 40.5t-129 40.5q-39 0 -60.5 -21.5t-45.5 -78.5z" />
    <glyph glyph-name="odieresis" unicode="&#xf6;" horiz-adv-x="1323" 
d="M659 -25q-155 0 -281.5 75t-196.5 201.5t-70 276.5q0 149 71 275.5t198.5 202t283.5 75.5q155 0 282 -75t197.5 -201.5t70.5 -276.5q0 -148 -71.5 -275t-199.5 -202.5t-284 -75.5zM664 117q169 0 279 119t110 292q0 172 -114 293t-280 121q-169 0 -278 -120.5
t-109 -293.5q0 -171 113 -291t279 -120zM389 1219v194h184v-194h-184zM750 1219v194h184v-194h-184z" />
    <glyph glyph-name="divide" unicode="&#xf7;" horiz-adv-x="1310" 
d="M563 225v211h182v-211h-182zM182 649v152h946v-152h-946zM563 1012v211h182v-211h-182z" />
    <glyph glyph-name="oslash" unicode="&#xf8;" horiz-adv-x="1323" 
d="M659 -25q-185 0 -329 109l-92 -94h-158l162 174q-131 153 -131 364q0 149 71 275.5t198.5 202t283.5 75.5q191 0 329 -110l92 100h160q-141 -149 -164 -176q133 -152 133 -367q0 -148 -71.5 -275t-199.5 -202.5t-284 -75.5zM664 115q170 0 280.5 120t110.5 293
q0 139 -80 250l-547 -579q100 -84 236 -84zM348 279l549 579q-107 86 -238 86q-169 0 -279 -120.5t-110 -295.5q0 -134 78 -249z" />
    <glyph glyph-name="ugrave" unicode="&#xf9;" horiz-adv-x="1261" 
d="M565 -23q-189 0 -297 116t-108 308v658h157v-619q0 -149 77 -234t216 -85q137 0 227.5 92.5t90.5 239.5v606h155v-1059h-155v184q-130 -207 -363 -207zM582 1210l-232 222l164 75l195 -297h-127z" />
    <glyph glyph-name="uacute" unicode="&#xfa;" horiz-adv-x="1261" 
d="M565 -23q-189 0 -297 116t-108 308v658h157v-619q0 -149 77 -234t216 -85q137 0 227.5 92.5t90.5 239.5v606h155v-1059h-155v184q-130 -207 -363 -207zM545 1210l194 297l164 -75l-231 -222h-127z" />
    <glyph glyph-name="ucircumflex" unicode="&#xfb;" horiz-adv-x="1261" 
d="M565 -23q-189 0 -297 116t-108 308v658h157v-619q0 -149 77 -234t216 -85q137 0 227.5 92.5t90.5 239.5v606h155v-1059h-155v184q-130 -207 -363 -207zM346 1219l217 268h139l218 -268h-136l-153 137l-154 -137h-131z" />
    <glyph glyph-name="udieresis" unicode="&#xfc;" horiz-adv-x="1261" 
d="M565 -23q-189 0 -297 116t-108 308v658h157v-619q0 -149 77 -234t216 -85q137 0 227.5 92.5t90.5 239.5v606h155v-1059h-155v184q-130 -207 -363 -207zM360 1219v194h185v-194h-185zM721 1219v194h184v-194h-184z" />
    <glyph glyph-name="yacute" unicode="&#xfd;" horiz-adv-x="1210" 
d="M340 -334q-116 0 -225 53l53 125q74 -39 166 -39q72 0 121.5 44t95.5 155l-481 1055h174l385 -883l340 883h168l-445 -1094q-67 -162 -148.5 -230.5t-203.5 -68.5zM547 1210l194 297l164 -75l-231 -222h-127z" />
    <glyph glyph-name="thorn" unicode="&#xfe;" horiz-adv-x="1359" 
d="M176 -328v1823h158v-649q159 235 405 235q77 0 150.5 -23.5t137.5 -70.5t113 -112t77 -154.5t28 -192.5q0 -126 -43 -231.5t-114 -174.5t-161.5 -107t-187.5 -38q-249 0 -405 226v-531h-158zM711 119q159 0 265.5 111t106.5 300q0 183 -108.5 296.5t-263.5 113.5
q-74 0 -143 -30t-122.5 -83t-85.5 -131t-32 -168t32 -167.5t85.5 -129.5t122.5 -82t143 -30z" />
    <glyph glyph-name="ydieresis" unicode="&#xff;" horiz-adv-x="1210" 
d="M340 -334q-116 0 -225 53l53 125q74 -39 166 -39q72 0 121.5 44t95.5 155l-481 1055h174l385 -883l340 883h168l-445 -1094q-67 -162 -148.5 -230.5t-203.5 -68.5zM334 1219v194h184v-194h-184zM694 1219v194h185v-194h-185z" />
    <glyph glyph-name="dotlessi" unicode="&#x131;" horiz-adv-x="538" 
d="M190 0v1059h158v-1059h-158z" />
    <glyph glyph-name="Lslash" unicode="&#x141;" horiz-adv-x="1329" 
d="M264 0v616l-153 -45v150l153 47v666h160v-617l442 135v-151l-442 -133v-518h809v-150h-969z" />
    <glyph glyph-name="lslash" unicode="&#x142;" horiz-adv-x="661" 
d="M254 0v657l-156 -49v154l156 47v686h156v-639l155 49v-153l-155 -50v-702h-156z" />
    <glyph glyph-name="OE" unicode="&#x152;" horiz-adv-x="2316" 
d="M901 0q-166 0 -309 55t-242 150.5t-155 228t-56 283.5q0 150 56 282t155 228t242 151.5t309 55.5h1282v-148h-837v-489h745v-148h-745v-502h847v-147h-1292zM901 147h283v1139h-283q-133 0 -245 -43.5t-188 -120t-118.5 -181t-42.5 -224.5q0 -118 42.5 -222.5
t118.5 -181.5t188 -121.5t245 -44.5z" />
    <glyph glyph-name="oe" unicode="&#x153;" horiz-adv-x="2148" 
d="M653 -25q-150 0 -275 74.5t-196 201.5t-71 277q0 148 71.5 275t198 202.5t278.5 75.5t274.5 -76t188.5 -204q61 129 175.5 204.5t258.5 75.5q151 0 264.5 -76t170.5 -202t57 -283q0 -30 -2 -55h-840q17 -162 123 -257t250 -95q192 0 334 149l98 -88
q-84 -96 -188.5 -147.5t-245.5 -51.5q-148 0 -270 76.5t-187 208.5q-66 -128 -190 -206.5t-277 -78.5zM662 117q168 0 276.5 119t108.5 292q0 112 -51 207t-141 151t-198 56q-168 0 -276.5 -120.5t-108.5 -293.5q0 -171 112.5 -291t277.5 -120zM1206 592h682
q-14 154 -101.5 255t-236.5 101q-135 0 -231 -100.5t-113 -255.5z" />
    <glyph glyph-name="Scaron" unicode="&#x160;" horiz-adv-x="1310" 
d="M694 -20q-329 0 -585 229l100 119q116 -105 231 -154t260 -49q144 0 232 69t88 179q0 70 -30 116.5t-112.5 85.5t-230.5 70q-128 28 -215 62t-148.5 83.5t-89.5 116t-28 156.5q0 169 133.5 280t337.5 111q153 0 272.5 -43t231.5 -133l-94 -125q-190 156 -414 156
q-137 0 -221 -67t-84 -169q0 -71 31 -118t116.5 -86.5t241.5 -73.5q243 -53 355 -149t112 -261q0 -183 -137 -294t-353 -111zM594 1561l-217 268h135l154 -137l153 137h131l-217 -268h-139z" />
    <glyph glyph-name="scaron" unicode="&#x161;" horiz-adv-x="1019" 
d="M526 -20q-114 0 -231.5 41.5t-206.5 113.5l80 113q181 -135 367 -135q97 0 158 47t61 125q0 31 -15 56.5t-37 43t-60.5 34.5t-70.5 27.5t-82 24.5q-45 13 -72.5 21.5t-68.5 24t-67 30.5t-56 38.5t-46.5 49.5t-28 62t-11.5 77q0 135 101.5 219t259.5 84q96 0 197.5 -31
t183.5 -85l-72 -119q-159 102 -313 102q-93 0 -149 -44t-56 -114q0 -24 9 -44.5t31.5 -38t41.5 -29.5t58 -26.5t61.5 -21.5t70.5 -22q42 -12 71 -22t67.5 -26t64.5 -32t54 -39.5t44.5 -50t27.5 -61.5t11 -76q0 -147 -107 -232t-270 -85zM446 1219l-217 268h136l153 -137
l154 137h131l-217 -268h-140z" />
    <glyph glyph-name="Ydieresis" unicode="&#x178;" horiz-adv-x="1466" 
d="M651 0v567l-596 867h197l483 -717l488 717h188l-596 -865v-569h-164zM461 1554v195h184v-195h-184zM821 1554v195h185v-195h-185z" />
    <glyph glyph-name="Zcaron" unicode="&#x17d;" horiz-adv-x="1419" 
d="M137 0v109l928 1179h-897v146h1118v-109l-930 -1180h930v-145h-1149zM649 1561l-217 268h135l154 -137l153 137h132l-218 -268h-139z" />
    <glyph glyph-name="zcaron" unicode="&#x17e;" horiz-adv-x="1138" 
d="M115 0v100l702 826h-678v133h893v-101l-704 -825h704v-133h-917zM518 1219l-217 268h135l154 -137l153 137h131l-217 -268h-139z" />
    <glyph glyph-name="florin" unicode="&#x192;" horiz-adv-x="1052" 
d="M190 -10q-48 0 -106 8v135q39 -8 90 -8q131 0 160 156l90 483h-201v137h223l48 244q30 155 105.5 227t213.5 72q96 0 166 -23v-135q-86 21 -141 21q-80 0 -123 -43.5t-62 -141.5l-41 -221h295v-137h-319l-92 -500q-26 -142 -100.5 -208t-205.5 -66z" />
    <glyph glyph-name="circumflex" unicode="&#x2c6;" 
d="M225 1219l217 268h140l217 -268h-135l-154 137l-154 -137h-131z" />
    <glyph glyph-name="caron" unicode="&#x2c7;" 
d="M442 1219l-217 268h135l154 -137l154 137h131l-217 -268h-140z" />
    <glyph glyph-name="breve" unicode="&#x2d8;" 
d="M512 1214q-129 0 -211.5 73t-91.5 200h115q41 -141 188 -141t188 141h115q-9 -127 -91.5 -200t-211.5 -73z" />
    <glyph glyph-name="dotaccent" unicode="&#x2d9;" 
d="M416 1219v196h192v-196h-192z" />
    <glyph glyph-name="ring" unicode="&#x2da;" 
d="M512 1214q-86 0 -149.5 61t-63.5 146q0 83 64 143t149 60q86 0 149.5 -61t63.5 -146q0 -83 -64 -143t-149 -60zM512 1292q52 0 89.5 38t37.5 91q0 51 -37.5 88t-89.5 37q-53 0 -90 -37.5t-37 -91.5q0 -51 38 -88t89 -37z" />
    <glyph glyph-name="ogonek" unicode="&#x2db;" 
d="M737 -336q-175 -9 -268.5 52t-93.5 169q0 67 28 135h123q-12 -53 -12 -104q0 -79 54.5 -120.5t168.5 -47.5v-84z" />
    <glyph glyph-name="tilde" unicode="&#x2dc;" 
d="M272 1200l-96 27q31 115 76 165t119 50q49 0 145.5 -41t128.5 -41q39 0 61 21.5t46 78.5l96 -26q-31 -115 -76 -165t-119 -50q-49 0 -145.5 40.5t-128.5 40.5q-39 0 -61 -21.5t-46 -78.5z" />
    <glyph glyph-name="hungarumlaut" unicode="&#x2dd;" 
d="M172 1219l195 297l153 -76l-221 -221h-127zM508 1219l194 297l154 -76l-223 -221h-125z" />
    <glyph glyph-name="Omega" unicode="&#x3a9;" horiz-adv-x="1615" 
d="M160 0v135h393v156q-183 50 -288 203t-105 348q0 134 52 248.5t140.5 193t207 122.5t249.5 44q174 0 321 -75.5t235.5 -215.5t88.5 -315q0 -195 -104.5 -349t-288.5 -204v-156h393v-135h-516v387q173 28 264.5 150t91.5 301q0 204 -140.5 337.5t-348.5 133.5
q-207 0 -346.5 -134t-139.5 -337q0 -174 94.5 -302t262.5 -149v-387h-516z" />
    <glyph glyph-name="pi" unicode="&#x3c0;" 
d="M0 0v1434h1024v-1434h-1024zM166 100h694l-348 523zM100 197l351 520l-351 520v-1040zM922 197v1040l-351 -520zM512 809l348 522h-694z" />
    <glyph glyph-name="afii10023" unicode="&#x401;" horiz-adv-x="1372" 
d="M203 0v1434h1036v-148h-874v-489h782v-148h-782v-502h884v-147h-1046zM455 1561v194h184v-194h-184zM815 1561v194h184v-194h-184z" />
    <glyph glyph-name="afii10051" unicode="&#x402;" horiz-adv-x="1806" 
d="M1155 -47q-108 0 -211 41l37 139q66 -31 158 -31q59 0 114.5 19.5t104 59t77.5 110t29 162.5q0 153 -90 246.5t-239 93.5q-134 0 -240.5 -43t-208.5 -134v-616h-164v1286h-424v148h1137v-148h-549v-506q216 164 467 164q215 0 347 -128.5t132 -360.5q0 -236 -132 -369
t-345 -133z" />
    <glyph glyph-name="afii10052" unicode="&#x403;" horiz-adv-x="1206" 
d="M203 0v1434h915v-148h-753v-1286h-162zM526 1561l195 297l164 -76l-232 -221h-127z" />
    <glyph glyph-name="afii10053" unicode="&#x404;" horiz-adv-x="1513" 
d="M858 -25q-203 0 -368.5 98.5t-258 268t-92.5 375.5q0 151 54.5 287t149 236t230.5 159t291 59q94 0 174 -17t147 -51t119 -72.5t111 -94.5l-102 -111q-101 96 -207.5 147.5t-243.5 51.5q-216 0 -369.5 -145.5t-179.5 -368.5h721v-148h-723q23 -226 178 -376t373 -150
q138 0 240 51.5t215 159.5l119 -107q-122 -124 -258 -188t-320 -64z" />
    <glyph glyph-name="afii10054" unicode="&#x405;" horiz-adv-x="1310" 
d="M694 -20q-329 0 -585 229l100 119q116 -105 231 -154t260 -49q144 0 232 69t88 179q0 70 -30 116.5t-112.5 85.5t-230.5 70q-128 28 -215 62t-148.5 83.5t-89.5 116t-28 156.5q0 169 133.5 280t337.5 111q153 0 272.5 -43t231.5 -133l-94 -125q-190 156 -414 156
q-137 0 -221 -67t-84 -169q0 -71 31 -118t116.5 -86.5t241.5 -73.5q243 -53 355 -149t112 -261q0 -183 -137 -294t-353 -111z" />
    <glyph glyph-name="afii10055" unicode="&#x406;" horiz-adv-x="595" 
d="M217 0v1434h162v-1434h-162z" />
    <glyph glyph-name="afii10056" unicode="&#x407;" horiz-adv-x="595" 
d="M217 0v1434h162v-1434h-162zM27 1561v194h184v-194h-184zM387 1561v194h184v-194h-184z" />
    <glyph glyph-name="afii10057" unicode="&#x408;" horiz-adv-x="1132" 
d="M506 -20q-288 0 -443 253l117 101q70 -105 145 -155t183 -50q126 0 203 89.5t77 254.5v961h164v-959q0 -246 -131 -377q-121 -118 -315 -118z" />
    <glyph glyph-name="afii10058" unicode="&#x409;" horiz-adv-x="2365" 
d="M176 -16q-44 0 -99 11t-87 23l33 132q48 -21 127 -21q28 0 51.5 6t55.5 30.5t56.5 66.5t50.5 121t43 186t28 270t11 365v260h908v-555h362q118 0 217 -24.5t176 -74t120.5 -132t43.5 -191.5q0 -211 -143.5 -334t-388.5 -123h-549v1286h-590v-156q0 -211 -12.5 -380
t-33 -287.5t-53 -205.5t-67 -139t-80 -82.5t-87 -41t-93.5 -10.5zM1354 147h383q175 0 274.5 78.5t99.5 227.5q0 137 -101.5 208.5t-283.5 71.5h-372v-586z" />
    <glyph glyph-name="afii10059" unicode="&#x40a;" horiz-adv-x="2363" 
d="M203 0v1434h162v-594h825v594h164v-594h401q87 0 163 -15t141.5 -47t112 -79t73 -114.5t26.5 -150.5q0 -199 -135 -316.5t-369 -117.5h-577v690h-825v-690h-162zM1354 147h393q174 0 266 73.5t92 213.5q0 129 -94.5 196.5t-271.5 67.5h-385v-551z" />
    <glyph glyph-name="afii10060" unicode="&#x40b;" horiz-adv-x="1806" 
d="M524 0v1286h-426v148h1135v-148h-547v-528q219 166 467 166q216 0 347.5 -110t131.5 -314v-500h-162v467q0 137 -90 221t-241 84q-133 0 -240.5 -44.5t-212.5 -139.5v-588h-162z" />
    <glyph glyph-name="afii10061" unicode="&#x40c;" horiz-adv-x="1472" 
d="M203 0v1434h162v-856l823 856h209l-615 -627l641 -807h-202l-551 694l-305 -309v-385h-162zM639 1561l195 297l163 -76l-231 -221h-127z" />
    <glyph glyph-name="afii10062" unicode="&#x40e;" horiz-adv-x="1492" 
d="M414 -25q-125 0 -242 60l64 129q79 -43 182 -43q174 0 287 215l-631 1098h184l528 -936l457 936h176l-567 -1133q-162 -326 -438 -326zM786 1552q-115 0 -194 70.5t-98 181.5l110 23q41 -144 182 -144q142 0 183 144l110 -23q-19 -111 -98.5 -181.5t-194.5 -70.5z" />
    <glyph glyph-name="afii10145" unicode="&#x40f;" horiz-adv-x="1536" 
d="M694 -319v319h-491v1434h162v-1287h806v1287h162v-1434h-477v-319h-162z" />
    <glyph glyph-name="afii10017" unicode="&#x410;" horiz-adv-x="1617" 
d="M80 0l653 1444h152l653 -1444h-174l-168 379h-780l-170 -379h-166zM479 524h654l-326 731z" />
    <glyph glyph-name="afii10018" unicode="&#x411;" horiz-adv-x="1449" 
d="M203 0v1434h1028v-148h-866v-440h423q117 0 214.5 -25t172 -75t116.5 -131.5t42 -186.5q0 -207 -142 -317.5t-386 -110.5h-602zM365 147h428q378 0 378 289q0 132 -102 199t-285 67h-419v-555z" />
    <glyph glyph-name="afii10019" unicode="&#x412;" horiz-adv-x="1478" 
d="M203 0v1434h610q251 0 375 -127q92 -95 92 -234q0 -128 -64 -208.5t-163 -123.5q307 -92 307 -350q0 -183 -141.5 -287t-378.5 -104h-637zM362 145h482q164 0 258 69.5t94 191.5q0 118 -97.5 181.5t-283.5 63.5h-453v-506zM362 795h424q151 0 240.5 67t89.5 193
q0 108 -83 170.5t-234 62.5h-437v-493z" />
    <glyph glyph-name="afii10020" unicode="&#x413;" horiz-adv-x="1206" 
d="M203 0v1434h915v-148h-753v-1286h-162z" />
    <glyph glyph-name="afii10021" unicode="&#x414;" horiz-adv-x="1544" 
d="M20 -319v466h148q104 167 160.5 430.5t56.5 606.5v250h938v-1287h186l-24 -466h-135v319h-1164l-28 -319h-138zM350 147h811v1139h-620v-186q0 -283 -51.5 -545.5t-139.5 -407.5z" />
    <glyph glyph-name="afii10022" unicode="&#x415;" horiz-adv-x="1372" 
d="M203 0v1434h1036v-148h-874v-489h782v-148h-782v-502h884v-147h-1046z" />
    <glyph glyph-name="afii10024" unicode="&#x416;" horiz-adv-x="2230" 
d="M49 0l590 819l-553 615h201l747 -846v846h162v-846l748 846h200l-553 -615l590 -819h-201l-501 698l-283 -313v-385h-162v385l-284 313l-500 -698h-201z" />
    <glyph glyph-name="afii10025" unicode="&#x417;" horiz-adv-x="1302" 
d="M678 -25q-182 0 -325.5 57t-272.5 175l96 112q111 -105 231 -154.5t273 -49.5q137 0 235.5 76.5t98.5 199.5q0 133 -106 198.5t-281 65.5h-158v133h158q156 0 253 72.5t97 198.5q0 111 -91.5 183.5t-232.5 72.5q-243 0 -422 -162l-94 113q112 97 234 143.5t286 46.5
q213 0 348.5 -108t135.5 -275q0 -69 -22 -126.5t-60.5 -98t-82.5 -67.5t-97 -46q137 -41 219 -129t82 -223q0 -173 -140.5 -290.5t-361.5 -117.5z" />
    <glyph glyph-name="afii10026" unicode="&#x418;" horiz-adv-x="1576" 
d="M203 0v1434h162v-1190l856 1190h153v-1434h-160v1190l-854 -1190h-157z" />
    <glyph glyph-name="afii10027" unicode="&#x419;" horiz-adv-x="1576" 
d="M203 0v1434h162v-1190l856 1190h153v-1434h-160v1190l-854 -1190h-157zM799 1552q-115 0 -194.5 70.5t-98.5 181.5l110 23q41 -144 183 -144q141 0 182 144l111 -23q-19 -111 -98.5 -181.5t-194.5 -70.5z" />
    <glyph glyph-name="afii10028" unicode="&#x41a;" horiz-adv-x="1472" 
d="M203 0v1434h162v-856l823 856h209l-615 -627l641 -807h-202l-551 694l-305 -309v-385h-162z" />
    <glyph glyph-name="afii10029" unicode="&#x41b;" horiz-adv-x="1576" 
d="M176 -16q-44 0 -99 11t-87 23l33 132q48 -21 127 -21q28 0 51.5 6t55.5 30.5t56.5 66.5t50.5 121t43 186t28 270t11 365v260h928v-1434h-162v1286h-610v-156q0 -211 -12.5 -380t-33 -287.5t-53 -205.5t-67 -139t-80 -82.5t-87 -41t-93.5 -10.5z" />
    <glyph glyph-name="afii10030" unicode="&#x41c;" horiz-adv-x="1777" 
d="M203 0v1434h164l522 -783l522 783h164v-1434h-162v1161l-522 -768h-8l-523 766v-1159h-157z" />
    <glyph glyph-name="afii10031" unicode="&#x41d;" horiz-adv-x="1556" 
d="M203 0v1434h162v-637h827v637h162v-1434h-162v645h-827v-645h-162z" />
    <glyph glyph-name="afii10032" unicode="&#x41e;" horiz-adv-x="1740" 
d="M868 -25q-159 0 -297 60t-231.5 161.5t-147 236.5t-53.5 284q0 147 54 282t148.5 236.5t233 162t297.5 60.5q160 0 297.5 -60t231.5 -161t147.5 -236t53.5 -284q0 -118 -34 -229t-99 -203.5t-153.5 -162t-204 -108.5t-243.5 -39zM872 125q161 0 290 79t200.5 214
t71.5 299q0 162 -72.5 297t-202.5 215t-291 80t-290 -79t-200 -214t-71 -299q0 -162 72 -297t202 -215t291 -80z" />
    <glyph glyph-name="afii10033" unicode="&#x41f;" horiz-adv-x="1536" 
d="M203 0v1434h1130v-1434h-162v1286h-806v-1286h-162z" />
    <glyph glyph-name="afii10034" unicode="&#x420;" horiz-adv-x="1368" 
d="M203 0v1434h536q245 0 391 -123t146 -336q0 -113 -45 -203.5t-122.5 -147.5t-178.5 -87.5t-217 -30.5h-348v-506h-162zM365 653h354q178 0 285.5 87.5t107.5 232.5q0 150 -104 230.5t-281 80.5h-362v-631z" />
    <glyph glyph-name="afii10035" unicode="&#x421;" horiz-adv-x="1511" 
d="M858 -25q-203 0 -368.5 98.5t-258 268t-92.5 375.5q0 151 54.5 287t149 236t230.5 159t291 59q181 0 307.5 -58.5t247.5 -172.5l-106 -115q-100 95 -207 146t-244 51q-156 0 -283.5 -78t-199.5 -213.5t-72 -300.5q0 -164 72.5 -299.5t200 -214t282.5 -78.5
q140 0 246.5 51t216.5 156l107 -113q-120 -122 -254.5 -183t-319.5 -61z" />
    <glyph glyph-name="afii10036" unicode="&#x422;" horiz-adv-x="1327" 
d="M582 0v1286h-482v148h1127v-148h-482v-1286h-163z" />
    <glyph glyph-name="afii10037" unicode="&#x423;" horiz-adv-x="1492" 
d="M414 -25q-125 0 -242 60l64 129q79 -43 182 -43q174 0 287 215l-631 1098h184l528 -936l457 936h176l-567 -1133q-162 -326 -438 -326z" />
    <glyph glyph-name="afii10038" unicode="&#x424;" horiz-adv-x="1837" 
d="M838 -53v157q-343 0 -534 167.5t-191 451.5q0 283 191.5 449.5t533.5 166.5v142h161v-142q342 0 533.5 -166.5t191.5 -449.5q0 -284 -191 -451.5t-534 -167.5v-157h-161zM838 252v940q-266 0 -411.5 -122t-145.5 -349t145 -348t412 -121zM999 252q267 0 412 121t145 348
t-145.5 349t-411.5 122v-940z" />
    <glyph glyph-name="afii10039" unicode="&#x425;" horiz-adv-x="1484" 
d="M94 0l551 731l-530 703h190l440 -586l437 586h188l-530 -701l551 -733h-193l-459 616l-458 -616h-187z" />
    <glyph glyph-name="afii10040" unicode="&#x426;" horiz-adv-x="1566" 
d="M1372 -319v319h-1169v1434h162v-1287h819v1287h162v-1287h186l-25 -466h-135z" />
    <glyph glyph-name="afii10041" unicode="&#x427;" horiz-adv-x="1423" 
d="M1059 0v612q-95 -54 -223 -97.5t-224 -43.5q-214 0 -338 108.5t-124 313.5v541h161v-514q0 -138 82.5 -217.5t231.5 -79.5q102 0 218 39.5t216 99.5v672h162v-1434h-162z" />
    <glyph glyph-name="afii10042" unicode="&#x428;" horiz-adv-x="2258" 
d="M203 0v1434h162v-1287h684v1287h161v-1287h684v1287h162v-1434h-1853z" />
    <glyph glyph-name="afii10043" unicode="&#x429;" horiz-adv-x="2277" 
d="M2083 -319v319h-1880v1434h162v-1287h684v1287h161v-1287h684v1287h162v-1287h187l-25 -466h-135z" />
    <glyph glyph-name="afii10044" unicode="&#x42a;" horiz-adv-x="1640" 
d="M467 0v1286h-377v148h539v-555h362q118 0 217 -24.5t176 -74t120.5 -132t43.5 -191.5q0 -211 -143.5 -334t-388.5 -123h-549zM629 147h383q175 0 274.5 78.5t99.5 227.5q0 137 -101.5 208.5t-283.5 71.5h-372v-586z" />
    <glyph glyph-name="afii10045" unicode="&#x42b;" horiz-adv-x="1832" 
d="M203 0v1434h162v-555h362q118 0 217 -24.5t176 -74t120.5 -132t43.5 -191.5q0 -211 -143.5 -334t-388.5 -123h-549zM365 147h383q175 0 274.5 78.5t99.5 227.5q0 137 -101.5 208.5t-283.5 71.5h-372v-586zM1468 0v1434h162v-1434h-162z" />
    <glyph glyph-name="afii10046" unicode="&#x42c;" horiz-adv-x="1376" 
d="M203 0v1434h162v-555h362q118 0 217 -24.5t176 -74t120.5 -132t43.5 -191.5q0 -211 -143.5 -334t-388.5 -123h-549zM365 147h383q175 0 274.5 78.5t99.5 227.5q0 137 -101.5 208.5t-283.5 71.5h-372v-586z" />
    <glyph glyph-name="afii10047" unicode="&#x42d;" horiz-adv-x="1513" 
d="M653 -25q-184 0 -319.5 64t-257.5 188l119 107q113 -108 214.5 -159.5t239.5 -51.5q218 0 373 150t178 376h-723v148h721q-26 223 -179.5 368.5t-369.5 145.5q-136 0 -242.5 -51.5t-207.5 -147.5l-103 111q59 56 111 94.5t119 72.5t147 51t174 17q155 0 291 -59
t230.5 -159t149 -236t54.5 -287q0 -206 -92.5 -375.5t-258 -268t-368.5 -98.5z" />
    <glyph glyph-name="afii10048" unicode="&#x42e;" horiz-adv-x="2150" 
d="M1329 -25q-141 0 -262.5 51t-208 141t-139.5 213.5t-64 266.5h-290v-647h-162v1434h162v-639h290q16 187 104.5 337.5t238.5 238t335 87.5q199 0 354.5 -98t239.5 -266t84 -375t-85 -376.5t-241.5 -268.5t-355.5 -99zM1333 123q147 0 264.5 77.5t182.5 213.5t65 303
q0 165 -66 301t-184.5 214.5t-265.5 78.5t-264 -77.5t-181.5 -213.5t-64.5 -303q0 -165 65.5 -301t183.5 -214.5t265 -78.5z" />
    <glyph glyph-name="afii10049" unicode="&#x42f;" horiz-adv-x="1484" 
d="M86 0l449 575q-178 32 -285 142t-107 284q0 85 28 160t81 127q68 68 176 107t242 39h612v-1434h-162v549h-411l-426 -549h-197zM680 686h440v602h-440q-176 0 -275.5 -80.5t-99.5 -218.5t104.5 -220.5t270.5 -82.5z" />
    <glyph glyph-name="afii10065" unicode="&#x430;" horiz-adv-x="1185" 
d="M492 -23q-103 0 -191 36.5t-146.5 114t-58.5 183.5q0 166 123.5 256t329.5 90q166 0 323 -45v33q0 140 -81.5 213.5t-231.5 73.5q-155 0 -321 -76l-48 129q98 45 187 67.5t198 22.5q226 0 343 -117q110 -110 110 -311v-647h-156v158q-142 -181 -380 -181zM522 104
q148 0 250 80.5t102 204.5v98q-153 45 -309 45q-146 0 -227.5 -58.5t-81.5 -158.5q0 -96 77 -153.5t189 -57.5z" />
    <glyph glyph-name="afii10066" unicode="&#x431;" horiz-adv-x="1325" 
d="M674 -25q-243 0 -390 160.5t-147 435.5q0 85 2.5 146t11.5 137.5t25 131.5t45.5 114.5t70.5 100.5t102 75.5t138 52.5l590 139l31 -133l-573 -141q-159 -40 -228.5 -129.5t-81.5 -247.5q61 103 171 166.5t268 63.5q136 0 253 -70.5t186 -192t69 -264.5q0 -146 -69.5 -271
t-195 -199.5t-278.5 -74.5zM678 117q162 0 268.5 115.5t106.5 283.5q0 166 -110 282.5t-269 116.5q-162 0 -268.5 -115.5t-106.5 -283.5q0 -166 110 -282.5t269 -116.5z" />
    <glyph glyph-name="afii10067" unicode="&#x432;" horiz-adv-x="1200" 
d="M176 0v1059h512q158 0 252 -72t94 -192q0 -170 -176 -244q105 -29 169.5 -93t64.5 -169q0 -133 -105 -211t-280 -78h-531zM334 135h352q114 0 179 47.5t65 130.5q0 77 -68 120.5t-196 43.5h-332v-342zM334 604h325q98 0 156.5 44.5t58.5 125.5q0 68 -55 109t-155 41h-330
v-320z" />
    <glyph glyph-name="afii10068" unicode="&#x433;" horiz-adv-x="948" 
d="M176 0v1059h719v-139h-561v-920h-158z" />
    <glyph glyph-name="afii10069" unicode="&#x434;" horiz-adv-x="1230" 
d="M20 -264v403h115q141 259 141 735v185h754v-920h160l-25 -403h-131v264h-856l-28 -264h-130zM303 139h569v781h-444v-148q0 -192 -34 -360t-91 -273z" />
    <glyph glyph-name="afii10070" unicode="&#x435;" horiz-adv-x="1212" 
d="M639 -25q-145 0 -265 68.5t-191.5 196t-71.5 288.5q0 152 65 278.5t181.5 200.5t260.5 74q152 0 266 -76t171 -202t57 -283q0 -30 -2 -55h-840q17 -162 123 -257t250 -95q192 0 334 149l98 -88q-86 -97 -190 -148t-246 -51zM270 592h682q-14 154 -101.5 255t-236.5 101
q-135 0 -231 -100.5t-113 -255.5z" />
    <glyph glyph-name="afii10072" unicode="&#x436;" horiz-adv-x="1742" 
d="M41 0l434 606l-412 453h191l539 -615v615h157v-615l539 615h190l-411 -453l434 -606h-184l-353 494l-215 -236v-258h-157v258l-215 236l-353 -494h-184z" />
    <glyph glyph-name="afii10073" unicode="&#x437;" horiz-adv-x="1048" 
d="M512 -25q-242 0 -438 158l80 117q161 -137 354 -137q109 0 185.5 50t76.5 138q0 81 -69.5 127.5t-196.5 46.5h-142v129h144q105 0 170 49.5t65 132.5q0 72 -64.5 115t-164.5 43q-84 0 -170 -26.5t-152 -79.5l-77 110q172 133 409 133q176 0 279.5 -78.5t103.5 -203.5
q0 -92 -47.5 -152.5t-122.5 -91.5q197 -69 197 -260q0 -133 -115 -226.5t-305 -93.5z" />
    <glyph glyph-name="afii10074" unicode="&#x438;" horiz-adv-x="1292" 
d="M176 0v1059h158v-838l629 838h153v-1059h-158v838l-630 -838h-152z" />
    <glyph glyph-name="afii10075" unicode="&#x439;" horiz-adv-x="1292" 
d="M176 0v1059h158v-838l629 838h153v-1059h-158v838l-630 -838h-152zM641 1210q-113 0 -191.5 69.5t-97.5 180.5l109 23q41 -144 180 -144t180 144l109 -23q-19 -111 -97.5 -180.5t-191.5 -69.5z" />
    <glyph glyph-name="afii10076" unicode="&#x43a;" horiz-adv-x="1161" 
d="M176 0v1059h158v-610l579 610h195l-442 -459l454 -600h-186l-377 485l-223 -229v-256h-158z" />
    <glyph glyph-name="afii10077" unicode="&#x43b;" horiz-adv-x="1251" 
d="M125 -16q-61 0 -127 16l18 135q47 -14 76 -14q31 0 53 5t48.5 24.5t44.5 54.5t36 98t28.5 151.5t17 219t6.5 297.5v88h749v-1059h-157v920h-443v-25q0 -136 -5.5 -248.5t-15 -199t-25.5 -155t-33.5 -117t-42 -83t-48.5 -55.5t-55 -33t-59.5 -16t-65.5 -4z" />
    <glyph glyph-name="afii10078" unicode="&#x43c;" horiz-adv-x="1443" 
d="M176 0v1059h150l395 -557l395 557h152v-1059h-160v807l-391 -537l-387 537v-807h-154z" />
    <glyph glyph-name="afii10079" unicode="&#x43d;" horiz-adv-x="1277" 
d="M176 0v1059h158v-457h610v457h158v-1059h-158v463h-610v-463h-158z" />
    <glyph glyph-name="afii10080" unicode="&#x43e;" horiz-adv-x="1323" 
d="M659 -25q-155 0 -281.5 75t-196.5 201.5t-70 276.5q0 149 71 275.5t198.5 202t283.5 75.5q155 0 282 -75t197.5 -201.5t70.5 -276.5q0 -148 -71.5 -275t-199.5 -202.5t-284 -75.5zM664 117q169 0 279 119t110 292q0 172 -114 293t-280 121q-169 0 -278 -120.5
t-109 -293.5q0 -171 113 -291t279 -120z" />
    <glyph glyph-name="afii10081" unicode="&#x43f;" horiz-adv-x="1269" 
d="M176 0v1059h918v-1059h-158v920h-602v-920h-158z" />
    <glyph glyph-name="afii10082" unicode="&#x440;" horiz-adv-x="1359" 
d="M176 -328v1387h158v-213q159 235 405 235q77 0 150.5 -23.5t137.5 -70.5t113 -112t77 -154.5t28 -192.5q0 -126 -43 -231.5t-114 -174.5t-161.5 -107t-187.5 -38q-249 0 -405 226v-531h-158zM711 119q159 0 265.5 111t106.5 300q0 183 -108.5 296.5t-263.5 113.5
q-74 0 -143 -30t-122.5 -83t-85.5 -131t-32 -168t32 -167.5t85.5 -129.5t122.5 -82t143 -30z" />
    <glyph glyph-name="afii10083" unicode="&#x441;" horiz-adv-x="1169" 
d="M653 -25q-151 0 -276 75t-195.5 202t-70.5 276q0 148 70.5 275t195.5 202.5t276 75.5q140 0 240.5 -50t183.5 -138l-100 -107q-71 74 -148.5 115t-177.5 41q-161 0 -270 -120t-109 -294q0 -172 112.5 -291.5t277.5 -119.5q171 0 319 159l104 -96q-88 -99 -190 -152
t-242 -53z" />
    <glyph glyph-name="afii10084" unicode="&#x442;" 
d="M432 0v920h-379v139h918v-139h-379v-920h-160z" />
    <glyph glyph-name="afii10085" unicode="&#x443;" horiz-adv-x="1210" 
d="M340 -334q-116 0 -225 53l53 125q74 -39 166 -39q72 0 121.5 44t95.5 155l-481 1055h174l385 -883l340 883h168l-445 -1094q-67 -162 -148.5 -230.5t-203.5 -68.5z" />
    <glyph glyph-name="afii10086" unicode="&#x444;" horiz-adv-x="1787" 
d="M813 -328v414q-62 -52 -122.5 -80.5t-141.5 -28.5q-193 0 -311.5 149t-118.5 406q0 255 118.5 402t311.5 147q83 0 143 -29.5t121 -84.5v467h160v-467q61 55 121 84.5t143 29.5q194 0 313 -148t119 -405q0 -254 -119.5 -402.5t-312.5 -148.5q-61 0 -112.5 17t-80 36.5
t-71.5 55.5v-414h-160zM582 117q135 0 231 104v615q-96 104 -231 104q-147 0 -223 -110.5t-76 -305.5q0 -196 73.5 -301.5t225.5 -105.5zM1206 117q152 0 225.5 106t73.5 305q0 193 -76 302.5t-223 109.5q-132 0 -233 -104v-615q101 -104 233 -104z" />
    <glyph glyph-name="afii10087" unicode="&#x445;" horiz-adv-x="1175" 
d="M80 0l416 539l-400 520h180l314 -410l313 410h176l-401 -516l418 -543h-183l-327 432l-330 -432h-176z" />
    <glyph glyph-name="afii10088" unicode="&#x446;" horiz-adv-x="1286" 
d="M1090 -264v264h-914v1059h158v-920h594v920h157v-920h160l-24 -403h-131z" />
    <glyph glyph-name="afii10089" unicode="&#x447;" horiz-adv-x="1181" 
d="M848 0v436q-64 -36 -165.5 -66t-188.5 -30q-161 0 -256 82t-95 235v402h158v-379q0 -94 56 -148.5t157 -54.5q84 0 176.5 28t157.5 73v481h158v-1059h-158z" />
    <glyph glyph-name="afii10090" unicode="&#x448;" horiz-adv-x="1859" 
d="M176 0v1059h158v-920h516v920h158v-920h516v920h159v-1059h-1507z" />
    <glyph glyph-name="afii10091" unicode="&#x449;" horiz-adv-x="1884" 
d="M1688 -264v264h-1512v1059h158v-920h516v920h158v-920h516v920h159v-920h160l-24 -403h-131z" />
    <glyph glyph-name="afii10092" unicode="&#x44a;" horiz-adv-x="1286" 
d="M360 0v920h-319v139h477v-397h283q70 0 131.5 -11.5t114.5 -36.5t91 -61.5t59.5 -90t21.5 -118.5q0 -158 -109 -251t-291 -93h-459zM518 139h287q120 0 187 51.5t67 149.5q0 91 -68.5 138.5t-191.5 47.5h-281v-387z" />
    <glyph glyph-name="afii10093" unicode="&#x44b;" horiz-adv-x="1558" 
d="M176 0v1059h158v-397h282q70 0 131.5 -11.5t114.5 -36.5t91 -61.5t59.5 -90t21.5 -118.5q0 -158 -108.5 -251t-290.5 -93h-459zM334 139h287q120 0 186.5 51.5t66.5 149.5q0 91 -68.5 138.5t-191.5 47.5h-280v-387zM1225 0v1059h157v-1059h-157z" />
    <glyph glyph-name="afii10094" unicode="&#x44c;" horiz-adv-x="1101" 
d="M176 0v1059h158v-397h282q70 0 131.5 -11.5t114.5 -36.5t91 -61.5t59.5 -90t21.5 -118.5q0 -158 -108.5 -251t-290.5 -93h-459zM334 139h287q120 0 186.5 51.5t66.5 149.5q0 91 -68.5 138.5t-191.5 47.5h-280v-387z" />
    <glyph glyph-name="afii10095" unicode="&#x44d;" horiz-adv-x="1169" 
d="M516 -25q-145 0 -247 51.5t-187 153.5l104 99q71 -78 148 -122t172 -44q151 0 261.5 101.5t127.5 252.5h-483v133h481q-15 143 -123.5 243.5t-255.5 100.5q-101 0 -179.5 -41.5t-148.5 -116.5l-92 103q80 91 183.5 141.5t246.5 50.5q151 0 274.5 -76.5t192 -203.5
t68.5 -277q0 -147 -71 -273t-196.5 -201t-275.5 -75z" />
    <glyph glyph-name="afii10096" unicode="&#x44e;" horiz-adv-x="1720" 
d="M1085 -25q-216 0 -355.5 139.5t-160.5 350.5h-235v-465h-158v1059h158v-461h235q12 99 53.5 186.5t107.5 153.5t159 104.5t201 38.5q155 0 275.5 -75.5t183.5 -201t63 -276.5q0 -149 -63.5 -274.5t-185.5 -202t-278 -76.5zM1090 117q165 0 261.5 117.5t96.5 293.5
t-100.5 294t-262.5 118q-164 0 -260 -118t-96 -294q0 -175 100 -293t261 -118z" />
    <glyph glyph-name="afii10097" unicode="&#x44f;" horiz-adv-x="1196" 
d="M82 0l324 410q-125 29 -204 112t-79 207q0 149 106.5 239.5t292.5 90.5h498v-1059h-158v385h-293q-260 -342 -293 -385h-194zM535 518h327v402h-332q-118 0 -183.5 -53t-65.5 -144q0 -95 70.5 -150t183.5 -55z" />
    <glyph glyph-name="afii10071" unicode="&#x451;" horiz-adv-x="1212" 
d="M639 -25q-145 0 -265 68.5t-191.5 196t-71.5 288.5q0 152 65 278.5t181.5 200.5t260.5 74q152 0 266 -76t171 -202t57 -283q0 -30 -2 -55h-840q17 -162 123 -257t250 -95q192 0 334 149l98 -88q-86 -97 -190 -148t-246 -51zM270 592h682q-14 154 -101.5 255t-236.5 101
q-135 0 -231 -100.5t-113 -255.5zM334 1219v194h184v-194h-184zM694 1219v194h185v-194h-185z" />
    <glyph glyph-name="afii10099" unicode="&#x452;" horiz-adv-x="1261" 
d="M702 -25q-112 0 -208 41l30 134q67 -33 150 -33q121 0 200.5 88.5t79.5 232.5v158q0 147 -79.5 234.5t-217.5 87.5t-230.5 -95t-92.5 -241v-582h-158v1171h-164v127h164v197h158v-197h436v-127h-436v-321q130 211 368 211q190 0 300 -117.5t110 -308.5v-236
q0 -191 -109.5 -307.5t-300.5 -116.5z" />
    <glyph glyph-name="afii10100" unicode="&#x453;" horiz-adv-x="948" 
d="M176 0v1059h719v-139h-561v-920h-158zM418 1219l194 297l164 -76l-231 -221h-127z" />
    <glyph glyph-name="afii10101" unicode="&#x454;" horiz-adv-x="1169" 
d="M651 -25q-113 0 -214 44.5t-172.5 118.5t-113.5 175t-42 211q0 150 68 277t191.5 203.5t274.5 76.5q143 0 246.5 -50.5t183.5 -141.5l-92 -103q-70 75 -148.5 116.5t-179.5 41.5q-147 0 -255.5 -100.5t-123.5 -243.5h482v-133h-484q17 -150 128 -252t262 -102
q95 0 171.5 44t147.5 122l104 -99q-85 -102 -187 -153.5t-247 -51.5z" />
    <glyph glyph-name="afii10102" unicode="&#x455;" horiz-adv-x="1019" 
d="M526 -20q-114 0 -231.5 41.5t-206.5 113.5l80 113q181 -135 367 -135q97 0 158 47t61 125q0 31 -15 56.5t-37 43t-60.5 34.5t-70.5 27.5t-82 24.5q-45 13 -72.5 21.5t-68.5 24t-67 30.5t-56 38.5t-46.5 49.5t-28 62t-11.5 77q0 135 101.5 219t259.5 84q96 0 197.5 -31
t183.5 -85l-72 -119q-159 102 -313 102q-93 0 -149 -44t-56 -114q0 -24 9 -44.5t31.5 -38t41.5 -29.5t58 -26.5t61.5 -21.5t70.5 -22q42 -12 71 -22t67.5 -26t64.5 -32t54 -39.5t44.5 -50t27.5 -61.5t11 -76q0 -147 -107 -232t-270 -85z" />
    <glyph glyph-name="afii10103" unicode="&#x456;" horiz-adv-x="538" 
d="M190 0v1059h158v-1059h-158zM180 1290v174h180v-174h-180z" />
    <glyph glyph-name="afii10104" unicode="&#x457;" horiz-adv-x="538" 
d="M-2 1219v194h184v-194h-184zM358 1219v194h185v-194h-185zM190 0v1059h158v-1059h-158z" />
    <glyph glyph-name="afii10105" unicode="&#x458;" horiz-adv-x="538" 
d="M90 -334q-54 0 -98 10v129q37 -6 78 -6q56 0 88 35.5t32 106.5v1118h158v-1120q0 -136 -67.5 -204.5t-190.5 -68.5zM180 1290v174h180v-174h-180z" />
    <glyph glyph-name="afii10106" unicode="&#x459;" horiz-adv-x="1843" 
d="M125 -16q-61 0 -127 16l18 135q47 -14 76 -14q31 0 53 5t48.5 24.5t44.5 54.5t36 98t28.5 151.5t17 219t6.5 297.5v88h749v-397h283q70 0 131.5 -11.5t114.5 -36.5t91 -61.5t59.5 -90t21.5 -118.5q0 -158 -109 -251t-291 -93h-458v920h-443v-25q0 -136 -5.5 -248.5
t-15 -199t-25.5 -155t-33.5 -117t-42 -83t-48.5 -55.5t-55 -33t-59.5 -16t-65.5 -4zM1075 139h287q120 0 187 51.5t67 149.5q0 91 -68.5 138.5t-191.5 47.5h-281v-387z" />
    <glyph glyph-name="afii10107" unicode="&#x45a;" horiz-adv-x="1867" 
d="M176 0v1059h158v-406h610v406h158v-406h284q88 0 161 -18.5t130.5 -55t90 -98.5t32.5 -143q0 -157 -107.5 -247.5t-287.5 -90.5h-461v516h-610v-516h-158zM1102 139h289q119 0 185 50t66 147q0 89 -68 135.5t-190 46.5h-282v-379z" />
    <glyph glyph-name="afii10108" unicode="&#x45b;" horiz-adv-x="1261" 
d="M176 0v1171h-164v127h164v197h158v-197h436v-127h-436v-317q126 207 362 207q189 0 297.5 -116t108.5 -308v-637h-158v598q0 149 -77.5 234.5t-215.5 85.5t-227.5 -92t-89.5 -240v-586h-158z" />
    <glyph glyph-name="afii10109" unicode="&#x45c;" horiz-adv-x="1161" 
d="M176 0v1059h158v-610l579 610h195l-442 -459l454 -600h-186l-377 485l-223 -229v-256h-158zM524 1219l195 297l164 -76l-232 -221h-127z" />
    <glyph glyph-name="afii10110" unicode="&#x45e;" horiz-adv-x="1210" 
d="M340 -334q-116 0 -225 53l53 125q74 -39 166 -39q72 0 121.5 44t95.5 155l-481 1055h174l385 -883l340 883h168l-445 -1094q-67 -162 -148.5 -230.5t-203.5 -68.5zM629 1210q-113 0 -191.5 69.5t-97.5 180.5l109 23q41 -144 180 -144t180 144l109 -23
q-19 -111 -97.5 -180.5t-191.5 -69.5z" />
    <glyph glyph-name="afii10193" unicode="&#x45f;" horiz-adv-x="1273" 
d="M565 -264v264h-389v1059h158v-920h606v920h158v-1059h-377v-264h-156z" />
    <glyph glyph-name="afii10050" unicode="&#x490;" horiz-adv-x="1206" 
d="M203 0v1434h749v319h140l26 -467h-753v-1286h-162z" />
    <glyph glyph-name="afii10098" unicode="&#x491;" horiz-adv-x="948" 
d="M176 0v1059h563v264h131l25 -403h-561v-920h-158z" />
    <glyph glyph-name="endash" unicode="&#x2013;" horiz-adv-x="1081" 
d="M133 537v157h815v-157h-815z" />
    <glyph glyph-name="emdash" unicode="&#x2014;" horiz-adv-x="1839" 
d="M133 537v157h1573v-157h-1573z" />
    <glyph glyph-name="quoteleft" unicode="&#x2018;" horiz-adv-x="501" 
d="M147 979v184q0 123 54 188.5t172 92.5l24 -72q-72 -26 -104.5 -64.5t-32.5 -97.5v-16h76v-215h-189z" />
    <glyph glyph-name="quoteright" unicode="&#x2019;" horiz-adv-x="501" 
d="M129 969l-25 71q71 27 104.5 64.5t33.5 93.5v21h-74v215h188v-185q0 -123 -54 -188t-173 -92z" />
    <glyph glyph-name="quotesinglbase" unicode="&#x201a;" horiz-adv-x="501" 
d="M119 -250l-25 72q71 26 104 63.5t33 94.5v20h-73v215h188v-184q0 -123 -54 -188.5t-173 -92.5z" />
    <glyph glyph-name="quotedblleft" unicode="&#x201c;" horiz-adv-x="911" 
d="M147 979v184q0 123 54 188.5t172 92.5l24 -72q-72 -26 -104.5 -64.5t-32.5 -97.5v-16h76v-215h-189zM557 979v184q0 123 53.5 188.5t171.5 92.5l25 -72q-72 -26 -104.5 -64.5t-32.5 -97.5v-16h73v-215h-186z" />
    <glyph glyph-name="quotedblright" unicode="&#x201d;" horiz-adv-x="911" 
d="M129 969l-25 71q71 27 104.5 64.5t33.5 93.5v21h-74v215h188v-185q0 -123 -54 -188t-173 -92zM539 969l-25 71q71 26 104 63.5t33 94.5v21h-73v215h186v-185q0 -123 -53.5 -188t-171.5 -92z" />
    <glyph glyph-name="quotedblbase" unicode="&#x201e;" horiz-adv-x="911" 
d="M119 -250l-25 72q71 26 104 63.5t33 94.5v20h-73v215h188v-184q0 -123 -54 -188.5t-173 -92.5zM528 -250l-24 72q71 26 104 63.5t33 94.5v20h-74v215h187v-184q0 -123 -54 -188.5t-172 -92.5z" />
    <glyph glyph-name="dagger" unicode="&#x2020;" horiz-adv-x="839" 
d="M365 487l12 578l-254 -16v112l252 -16l-19 289h127l-18 -289l252 16v-112l-254 16l12 -578h-110z" />
    <glyph glyph-name="daggerdbl" unicode="&#x2021;" horiz-adv-x="880" 
d="M377 0l18 289l-252 -17v113l254 -16l-12 348l12 348l-254 -16v112l252 -16l-18 289h127l-19 -289l252 16v-112l-254 16l13 -348l-13 -348l254 16v-113l-252 17l19 -289h-127z" />
    <glyph glyph-name="bullet" unicode="&#x2022;" horiz-adv-x="978" 
d="M489 453q-111 0 -189.5 78.5t-78.5 191.5q0 109 80 187.5t188 78.5t188.5 -79t80.5 -191q0 -110 -79 -188t-190 -78z" />
    <glyph glyph-name="ellipsis" unicode="&#x2026;" horiz-adv-x="1480" 
d="M158 0v211h182v-211h-182zM649 0v211h182v-211h-182zM1141 0v211h184v-211h-184z" />
    <glyph glyph-name="perthousand" unicode="&#x2030;" horiz-adv-x="2480" 
d="M254 0l1053 1434h145l-1051 -1434h-147zM1274 -16q-141 0 -231.5 107t-90.5 259q0 98 40 181.5t115.5 134.5t170.5 51q142 0 231.5 -107.5t89.5 -259.5q0 -151 -90.5 -258.5t-234.5 -107.5zM1278 98q83 0 134.5 72t51.5 180q0 107 -55 179.5t-135 72.5q-82 0 -134.5 -73
t-52.5 -179q0 -107 55.5 -179.5t135.5 -72.5zM2046 -16q-141 0 -231.5 107t-90.5 259q0 98 40 181.5t115.5 134.5t170.5 51q142 0 232 -107.5t90 -259.5q0 -151 -91 -258.5t-235 -107.5zM2050 98q83 0 134.5 72t51.5 180q0 107 -55 179.5t-135 72.5q-82 0 -134 -73t-52 -179
q0 -107 55 -179.5t135 -72.5zM430 717q-143 0 -233.5 107t-90.5 259q0 151 92 259t236 108q141 0 231.5 -107.5t90.5 -259.5q0 -98 -40 -181t-115.5 -134t-170.5 -51zM434 831q82 0 134.5 72.5t52.5 179.5q0 106 -56 179t-135 73q-83 0 -134.5 -72.5t-51.5 -179.5t55 -179.5
t135 -72.5z" />
    <glyph glyph-name="guilsinglleft" unicode="&#x2039;" horiz-adv-x="671" 
d="M430 84l-332 438v17l332 436l121 -68l-277 -375l277 -378z" />
    <glyph glyph-name="guilsinglright" unicode="&#x203a;" horiz-adv-x="671" 
d="M240 84l-119 68l276 376l-276 377l119 70l331 -436v-17z" />
    <glyph glyph-name="fraction" unicode="&#x2044;" horiz-adv-x="878" 
d="M-139 -201l956 1753h156l-957 -1753h-155z" />
    <glyph glyph-name="Euro" unicode="&#x20ac;" horiz-adv-x="1474" 
d="M881 -25q-215 0 -370 139.5t-210 370.5h-186v129h166q-5 41 -5 103q0 67 9 119h-170v127h192q60 221 211 358t352 137q170 0 287 -73t207 -207l-123 -88q-82 115 -167.5 169t-209.5 54q-134 0 -238.5 -96t-152.5 -254h526v-127h-553q-8 -44 -8 -119q0 -37 4 -103h557
v-129h-530q46 -167 157 -265.5t261 -98.5q115 0 199.5 59t164.5 176l117 -82q-94 -142 -209.5 -220.5t-277.5 -78.5z" />
    <glyph glyph-name="afii61352" unicode="&#x2116;" horiz-adv-x="2123" 
d="M203 0v1434h168l757 -1141v1141h160v-1434h-145l-778 1167v-1167h-162zM1464 330v114h514v-114h-514zM1722 590q-121 0 -199.5 82.5t-78.5 201.5t79.5 203t200.5 84q120 0 198.5 -82.5t78.5 -201.5t-79.5 -203t-199.5 -84zM1724 694q71 0 115.5 52.5t44.5 130.5
q0 75 -46.5 127.5t-115.5 52.5q-71 0 -116 -52.5t-45 -130.5q0 -76 46.5 -128t116.5 -52z" />
    <glyph glyph-name="published" unicode="&#x2117;" horiz-adv-x="1699" 
d="M848 -25q-204 0 -374.5 100t-267.5 270.5t-97 371.5q0 149 58 285.5t157 236.5t237 159.5t291 59.5t290.5 -59t235.5 -158.5t155.5 -236t57.5 -287.5q0 -149 -58 -285.5t-157 -237t-237 -160t-291 -59.5zM848 39q189 0 344.5 92t243.5 248t88 342q0 184 -87.5 338.5
t-242 245t-342.5 90.5q-189 0 -344.5 -92t-243.5 -248t-88 -342q0 -184 87.5 -338.5t242 -245t342.5 -90.5zM598 352v760h299q135 0 215 -66t80 -184q0 -82 -43.5 -140.5t-112.5 -86t-153 -27.5h-170v-256h-115zM713 711h172q89 0 140.5 40t51.5 113q0 72 -50 109t-140 37
h-174v-299z" />
    <glyph glyph-name="trademark" unicode="&#x2122;" horiz-adv-x="1413" 
d="M256 803v545h-203v86h496v-86h-203v-545h-90zM688 803v631h96l226 -347l223 347h94v-631h-88v483l-225 -342h-13l-223 342v-483h-90z" />
    <glyph glyph-name="partialdiff" unicode="&#x2202;" 
d="M0 0v1434h1024v-1434h-1024zM166 100h694l-348 523zM100 197l351 520l-351 520v-1040zM922 197v1040l-351 -520zM512 809l348 522h-694z" />
    <glyph glyph-name="Delta" unicode="&#x2206;" horiz-adv-x="1605" 
d="M90 0l635 1442h156l635 -1442h-1426zM328 147h946l-471 1104z" />
    <glyph glyph-name="product" unicode="&#x220f;" 
d="M0 0v1434h1024v-1434h-1024zM166 100h694l-348 523zM100 197l351 520l-351 520v-1040zM922 197v1040l-351 -520zM512 809l348 522h-694z" />
    <glyph glyph-name="summation" unicode="&#x2211;" 
d="M0 0v1434h1024v-1434h-1024zM166 100h694l-348 523zM100 197l351 520l-351 520v-1040zM922 197v1040l-351 -520zM512 809l348 522h-694z" />
    <glyph glyph-name="minus" unicode="&#x2212;" horiz-adv-x="1310" 
d="M182 647v152h946v-152h-946z" />
    <glyph glyph-name="radical" unicode="&#x221a;" horiz-adv-x="1032" 
d="M483 -401l-348 708l-117 -37l-30 115l215 70l311 -641l428 1800h135q-95 -382 -268.5 -1088.5t-218.5 -890.5z" />
    <glyph glyph-name="infinity" unicode="&#x221e;" horiz-adv-x="1546" 
d="M385 412q-136 0 -218.5 88.5t-82.5 224.5t82 227.5t215 91.5q34 0 69 -8.5t61 -18t61.5 -34t53 -36.5t54 -46.5t46.5 -44t48 -47.5q17 16 55 53.5t58 56t56.5 47t65.5 42.5t69 25t81 11q136 0 219.5 -91t83.5 -228q0 -138 -80.5 -225.5t-218.5 -87.5q-106 0 -198 59
t-191 160q-6 -6 -33 -31t-35.5 -32.5t-33.5 -29.5t-36.5 -29.5t-35.5 -25t-39.5 -24.5t-39.5 -18.5t-43.5 -16t-44 -8.5t-48.5 -4zM385 547q130 0 301 176q-8 7 -41 36.5t-49 43t-48.5 38t-55.5 36.5t-53.5 22t-57.5 10q-74 0 -119 -54.5t-45 -129.5q0 -79 45.5 -128.5
t122.5 -49.5zM1165 547q77 0 121.5 51t44.5 127q0 81 -45.5 132.5t-126.5 51.5q-39 0 -81 -17t-83.5 -49.5t-69.5 -58t-63 -61.5q45 -43 68 -63t66.5 -52t84.5 -46.5t84 -14.5z" />
    <glyph glyph-name="integral" unicode="&#x222b;" 
d="M0 0v1434h1024v-1434h-1024zM166 100h694l-348 523zM100 197l351 520l-351 520v-1040zM922 197v1040l-351 -520zM512 809l348 522h-694z" />
    <glyph glyph-name="approxequal" unicode="&#x2248;" horiz-adv-x="1310" 
d="M213 379l-102 10q9 59 27 108t47.5 92.5t76.5 68t107 24.5q59 0 141 -22.5t149.5 -50t144 -50t126.5 -22.5q67 0 109 43t55 110q31 -2 102 -10q-9 -76 -37.5 -139t-86 -106.5t-134.5 -43.5q-74 0 -184.5 36.5t-214.5 73t-164 36.5q-64 0 -107.5 -46t-54.5 -112zM213 745
l-102 11q9 59 27 108t47.5 92.5t76.5 68t107 24.5q73 0 182 -36.5t213 -73t166 -36.5q67 0 109 43t55 111q31 -2 102 -10q-9 -76 -37.5 -139t-86 -106.5t-134.5 -43.5q-58 0 -141 22.5t-152 50t-146 50t-124 22.5q-64 0 -107.5 -46t-54.5 -112z" />
    <glyph glyph-name="notequal" unicode="&#x2260;" horiz-adv-x="1310" 
d="M430 154l-125 65l98 187h-221v151h301l172 326h-473v153h551q17 33 65.5 123t73.5 139l125 -63q-20 -40 -59 -112t-47 -87h235v-153h-313l-172 -326h485v-151h-565q-86 -168 -131 -252z" />
    <glyph glyph-name="lessequal" unicode="&#x2264;" horiz-adv-x="1310" 
d="M147 0v143h1016v-143h-1016zM1163 225q-934 354 -1016 385v162q82 31 1016 385v-162l-839 -303q44 -16 358.5 -131t480.5 -174v-162z" />
    <glyph glyph-name="greaterequal" unicode="&#x2265;" horiz-adv-x="1310" 
d="M147 0v143h1016v-143h-1016zM150 225v162q140 50 837 305l-837 303v162q740 -282 1013 -385v-162q-274 -103 -1013 -385z" />
    <glyph glyph-name="lozenge" unicode="&#x25ca;" horiz-adv-x="1310" 
d="M582 -72l-355 801l355 801h143l358 -801l-358 -801h-143zM655 84q45 108 275 645q-269 628 -275 643l-272 -643q180 -430 272 -645z" />
    <glyph glyph-name="cyrBreve" unicode="&#xf6d1;" 
d="M512 1210q-115 0 -194.5 70.5t-98.5 181.5l111 23q41 -144 182 -144t182 144l111 -23q-19 -111 -98.5 -181.5t-194.5 -70.5z" />
    <glyph glyph-name="cyrbreve" unicode="&#xf6d4;" 
d="M512 1210q-113 0 -191.5 69.5t-97.5 180.5l109 23q41 -144 180 -144t180 144l109 -23q-19 -111 -97.5 -180.5t-191.5 -69.5z" />
    <glyph glyph-name="apple" unicode="&#xf8ff;" 
d="M0 0v1434h1024v-1434h-1024zM166 100h694l-348 523zM100 197l351 520l-351 520v-1040zM922 197v1040l-351 -520zM512 809l348 522h-694z" />
    <glyph glyph-name="ff" unicode="&#xfb00;" horiz-adv-x="1505" 
d="M236 0v920h-146v137h146v92q0 180 92 272q82 82 227 82q100 0 174 -26v-138q-96 27 -154 27q-184 0 -184 -225v-86h336v-135h-334v-920h-157zM989 0v920h-145v137h145v92q0 182 90 272q85 82 228 82q103 0 174 -26v-138q-93 27 -152 27q-94 0 -139 -55.5t-45 -169.5v-86
h334v-135h-334v-920h-156z" />
    <glyph glyph-name="nbspace" horiz-adv-x="614" 
 />
    </font>
</defs>
</svg>
