<?xml version="1.0" standalone="no"?>
<!DOCTYPE svg PUBLIC "-//W3C//DTD SVG 1.1//EN" "http://www.w3.org/Graphics/SVG/1.1/DTD/svg11.dtd" >
<svg xmlns="http://www.w3.org/2000/svg" xmlns:xlink="http://www.w3.org/1999/xlink" version="1.1">
<metadata>
Created by FontForge 20170731 at Mon Dec 19 16:45:36 2022
 By Aleksey,,,
Copyright (c) 2019 by Daniel Hernandez &#38; Rodrigo Fuenzalida. All rights reserved.
</metadata>
<defs>
<font id="Biennale-Regular" horiz-adv-x="0" >
  <font-face 
    font-family="Biennale"
    font-weight="400"
    font-stretch="normal"
    units-per-em="2048"
    panose-1="0 0 5 0 0 0 0 0 0 0"
    ascent="1638"
    descent="-410"
    x-height="1079"
    cap-height="1423"
    bbox="-1483 -514 4520 1956"
    underline-thickness="102"
    underline-position="-307"
    unicode-range="U+0020-FB02"
  />
<missing-glyph horiz-adv-x="1290" 
d="M205 1495h880v-1495h-880v1495zM338 1423l307 -587l307 587h-614zM600 748l-313 598v-1196zM692 748l312 -598v1196zM645 659l-307 -587h614z" />
    <glyph glyph-name="fi" unicode="fi" horiz-adv-x="1044" 
d="M623 1380q-104 0 -163 -62.5t-59 -176.5v-62h498v-1079h-174v930h-324v-930h-174v930h-196v149h196v45q0 187 102 291.5t287 104.5h283v-140h-276z" />
    <glyph glyph-name="fl" unicode="fl" horiz-adv-x="1083" 
d="M938 1497v-1497h-174v1358h-141q-104 0 -163 -63t-59 -177v-47h222v-141h-222v-930h-174v930h-196v149h196v23q0 187 102 291t287 104h322z" />
    <glyph glyph-name=".notdef" horiz-adv-x="1290" 
d="M205 1495h880v-1495h-880v1495zM338 1423l307 -587l307 587h-614zM600 748l-313 598v-1196zM692 748l312 -598v1196zM645 659l-307 -587h614z" />
    <glyph glyph-name=".null" 
 />
    <glyph glyph-name="nonmarkingreturn" horiz-adv-x="682" 
 />
    <glyph glyph-name="space" unicode=" " horiz-adv-x="460" 
 />
    <glyph glyph-name="exclam" unicode="!" horiz-adv-x="501" 
d="M180 426l-30 1071h200l-28 -1071h-142zM250 -18q-50 0 -83.5 32.5t-33.5 83.5q0 52 33.5 85.5t83.5 33.5q52 0 85.5 -33.5t33.5 -85.5q0 -51 -33.5 -83.5t-85.5 -32.5z" />
    <glyph glyph-name="quotedbl" unicode="&#x22;" horiz-adv-x="659" 
d="M121 1026l-15 438h158l-14 -438h-129zM412 1026l-13 438h154l-12 -438h-129z" />
    <glyph glyph-name="numbersign" unicode="#" horiz-adv-x="1404" 
d="M1348 918h-258l-107 -394h225v-137h-264l-104 -387h-148l107 387h-367l-104 -387h-148l107 387h-228v137h265l106 394h-229v135h268l100 370h146l-101 -370h367l100 370h146l-101 -370h222v-135zM836 524l106 394h-364l-107 -394h365z" />
    <glyph glyph-name="dollar" unicode="$" horiz-adv-x="991" 
d="M911 365q0 -138 -89 -229t-244 -113v-189h-144v184q-141 12 -240 90.5t-137 213.5l152 57q28 -106 104 -164.5t189 -58.5q112 0 179 55t67 147q0 55 -21.5 97.5t-58.5 71t-84.5 52.5t-100 44.5t-104.5 42t-99.5 51.5t-84.5 67.5t-58.5 94t-21.5 127.5q0 133 87 222.5
t238 106.5v185h142v-187q121 -17 201.5 -85t111.5 -179l-154 -57q-51 188 -243 188q-105 0 -163.5 -50t-58.5 -130q0 -52 21.5 -92t58.5 -66.5t84.5 -48.5t100.5 -42t105.5 -42t100 -53.5t84.5 -71.5t58.5 -101t21.5 -138z" />
    <glyph glyph-name="percent" unicode="%" horiz-adv-x="1527" 
d="M377 784q-138 0 -230 94t-92 232q0 137 92 232.5t230 95.5q137 0 227 -95.5t90 -232.5q0 -138 -89.5 -232t-227.5 -94zM281 0l825 1423h141l-827 -1423h-139zM377 897q85 0 143 61.5t58 153.5q0 87 -58 149t-143 62q-87 0 -145 -62t-58 -149q0 -92 57.5 -153.5
t145.5 -61.5zM1153 -14q-137 0 -228 94t-91 231q0 138 91 233t228 95q138 0 229 -95t91 -233t-91 -231.5t-229 -93.5zM1153 100q86 0 143.5 61t57.5 152q0 87 -58 150t-143 63q-86 0 -144.5 -62.5t-58.5 -150.5q0 -91 58.5 -152t144.5 -61z" />
    <glyph glyph-name="ampersand" unicode="&#x26;" horiz-adv-x="1359" 
d="M1313 0h-197l-127 125q-157 -145 -409 -145q-134 0 -247 52.5t-180 148t-67 212.5q0 138 65 233t185 162q-57 73 -81 141t-24 150q0 154 113.5 257.5t298.5 103.5q183 0 298 -101t134 -268h-180q-16 89 -81 146t-173 57q-104 0 -168.5 -62t-64.5 -147q0 -37 9 -69.5
t21 -58t44 -65t58 -68.5t83 -89q4 -4 6 -6.5t5.5 -6l6.5 -6.5l340 -354q53 71 85.5 179t35.5 233l166 -68q-6 -147 -51.5 -265.5t-118.5 -197.5zM582 135q173 0 295 105l-402 397l-45 45q-81 -53 -123.5 -115.5t-42.5 -156.5q0 -118 94 -196.5t224 -78.5z" />
    <glyph glyph-name="quotesingle" unicode="'" horiz-adv-x="370" 
d="M121 1026l-15 438h158l-14 -438h-129z" />
    <glyph glyph-name="parenleft" unicode="(" horiz-adv-x="653" 
d="M522 -219q-90 64 -165.5 150.5t-137.5 198t-97.5 254t-35.5 300.5t35.5 301t97.5 255t137.5 198.5t165.5 150.5l113 -116q-171 -128 -276 -326.5t-105 -462.5q0 -263 105 -461.5t276 -324.5z" />
    <glyph glyph-name="parenright" unicode=")" horiz-adv-x="653" 
d="M129 -219l-113 117q82 60 148.5 136.5t120.5 173.5t84 219t30 257q0 264 -105.5 462.5t-277.5 326.5l113 116q90 -64 166 -150.5t138 -198.5t97 -255t35 -301t-35 -300.5t-97 -254t-138 -198t-166 -150.5z" />
    <glyph glyph-name="asterisk" unicode="*" horiz-adv-x="833" 
d="M350 811l15 238l-203 -134l-68 121l225 111l-225 113l68 120l203 -135l-17 252h135l-14 -252l203 135l67 -120l-227 -113l227 -111l-67 -121l-203 134l14 -238h-133z" />
    <glyph glyph-name="plus" unicode="+" horiz-adv-x="995" 
d="M934 715v-152h-359v-395h-155v395h-357v152h357v385h155v-385h359z" />
    <glyph glyph-name="comma" unicode="," horiz-adv-x="411" 
d="M205 219q51 0 85 -34.5t34 -88.5q0 -50 -39 -129l-88 -178h-109l96 199q-42 5 -69 35.5t-27 76.5q0 51 33.5 85t83.5 34z" />
    <glyph glyph-name="hyphen" unicode="-" horiz-adv-x="774" 
d="M123 442v144h526v-144h-526z" />
    <glyph glyph-name="period" unicode="." horiz-adv-x="421" 
d="M211 -18q-51 0 -84 32.5t-33 83.5q0 52 33 85.5t84 33.5t85 -33.5t34 -85.5q0 -51 -34 -83.5t-85 -32.5z" />
    <glyph glyph-name="slash" unicode="/" horiz-adv-x="696" 
d="M72 -102l395 1558h154l-392 -1558h-157z" />
    <glyph glyph-name="zero" unicode="0" horiz-adv-x="1415" 
d="M709 -23q-278 0 -442.5 197t-164.5 537q0 344 163.5 537.5t443.5 193.5t442 -193.5t162 -537.5q0 -339 -163.5 -536.5t-440.5 -197.5zM709 143q194 0 310 152t116 416t-116 414.5t-310 150.5q-196 0 -312 -150t-116 -415q0 -266 116 -417t312 -151z" />
    <glyph glyph-name="one" unicode="1" horiz-adv-x="743" 
d="M502 147h192v-147h-606v147h240v936h-232v146h232v194h174v-1276z" />
    <glyph glyph-name="two" unicode="2" horiz-adv-x="1114" 
d="M330 147h696v-147h-950v115l524 538q223 218 223 398q0 106 -74.5 173.5t-195.5 67.5q-112 0 -195 -61.5t-114 -177.5l-166 55q40 153 170 244.5t305 91.5q202 0 324 -106.5t122 -280.5q0 -134 -71 -253t-193 -237z" />
    <glyph glyph-name="three" unicode="3" horiz-adv-x="1148" 
d="M614 836q193 0 318 -118t125 -302q0 -190 -139 -314.5t-359 -124.5q-190 0 -327.5 89.5t-178.5 228.5l160 63q30 -102 122.5 -165.5t221.5 -63.5q144 0 232 84t88 213q0 132 -89 210.5t-217 78.5h-178v121l428 446h-704v141h901v-139l-424 -448h20z" />
    <glyph glyph-name="four" unicode="4" horiz-adv-x="1193" 
d="M1130 481v-141h-182v-340h-174v340h-735v125l737 956h172v-940h182zM776 481v713l-547 -713h547z" />
    <glyph glyph-name="five" unicode="5" horiz-adv-x="1124" 
d="M545 872q223 0 360 -123t137 -323t-137 -324.5t-364 -124.5q-183 0 -310 84t-176 240l160 64q29 -111 118 -174.5t210 -63.5q142 0 231.5 84.5t89.5 216.5t-90 217.5t-235 85.5h-361l37 692h743v-139h-593l-23 -412h203z" />
    <glyph glyph-name="six" unicode="6" horiz-adv-x="1161" 
d="M592 942q220 0 362 -132.5t142 -344.5q0 -215 -143.5 -351.5t-362.5 -136.5q-144 0 -262 62t-186 173.5t-68 250.5q0 183 129 344l473 616h205l-377 -489q39 8 88 8zM590 129q141 0 234.5 95t93.5 239q0 146 -93 240t-235 94q-143 0 -240.5 -95t-97.5 -239
q0 -142 97.5 -238t240.5 -96z" />
    <glyph glyph-name="seven" unicode="7" horiz-adv-x="989" 
d="M29 1423h917v-135l-508 -1288h-194l508 1274h-723v149z" />
    <glyph glyph-name="eight" unicode="8" horiz-adv-x="1159" 
d="M772 760q125 -40 208 -142t83 -237q0 -178 -136 -291t-347 -113t-347.5 113t-136.5 291q0 136 81.5 238.5t203.5 140.5q-100 39 -162.5 122.5t-62.5 200.5q0 155 116 257t308 102q191 0 307.5 -101.5t116.5 -259.5q0 -117 -64 -200.5t-168 -120.5zM580 1298
q-114 0 -185 -66.5t-71 -168.5q0 -103 71.5 -171.5t184.5 -68.5t184.5 68.5t71.5 171.5q0 102 -71 168.5t-185 66.5zM580 121q139 0 223 78.5t84 201.5q0 124 -85.5 205.5t-221.5 81.5q-137 0 -222.5 -81.5t-85.5 -205.5q0 -123 84.5 -201.5t223.5 -78.5z" />
    <glyph glyph-name="nine" unicode="9" horiz-adv-x="1157" 
d="M571 1446q144 0 262 -61.5t186 -173t68 -250.5q0 -183 -126 -345l-476 -616h-204l376 489q-39 -8 -88 -8q-219 0 -361 132.5t-142 344.5q0 215 144 351.5t361 136.5zM571 627q143 0 240.5 95t97.5 239q0 142 -97.5 237.5t-240.5 95.5q-142 0 -234.5 -93.5t-92.5 -239.5
t92.5 -240t234.5 -94z" />
    <glyph glyph-name="colon" unicode=":" horiz-adv-x="473" 
d="M238 700q-51 0 -85 33t-34 84q0 52 34 85.5t85 33.5t83.5 -33.5t32.5 -85.5q0 -51 -32.5 -84t-83.5 -33zM238 -18q-51 0 -85 32.5t-34 83.5q0 52 34 85.5t85 33.5t83.5 -33.5t32.5 -85.5q0 -51 -32.5 -83.5t-83.5 -32.5z" />
    <glyph glyph-name="semicolon" unicode=";" horiz-adv-x="479" 
d="M238 688q-50 0 -83.5 34t-33.5 85t33.5 85t83.5 34q52 0 85 -34t33 -85t-33 -85t-85 -34zM242 219q50 0 83 -34.5t33 -88.5q0 -55 -39 -129l-88 -178h-108l98 199q-43 5 -70.5 34.5t-27.5 77.5q0 51 34.5 85t84.5 34z" />
    <glyph glyph-name="less" unicode="&#x3c;" horiz-adv-x="849" 
d="M745 1081v-161l-514 -310l514 -311v-164l-684 416v117z" />
    <glyph glyph-name="equal" unicode="=" horiz-adv-x="1120" 
d="M133 772v150h854v-150h-854zM133 291v151h854v-151h-854z" />
    <glyph glyph-name="greater" unicode="&#x3e;" horiz-adv-x="849" 
d="M106 1081l685 -413v-117l-685 -416v164l512 309l-512 310v163z" />
    <glyph glyph-name="question" unicode="?" horiz-adv-x="921" 
d="M313 426v88q0 71 20 131t51.5 102.5t69.5 80.5t76.5 72.5t70 69.5t51.5 80t20 97q0 97 -56 150t-153 53q-94 0 -160 -58.5t-84 -150.5l-166 53q29 147 143.5 235.5t276.5 88.5q177 0 278 -94.5t101 -258.5q0 -69 -21 -128t-55 -101.5t-75 -81t-82.5 -75t-75.5 -74.5
t-55 -88.5t-21 -108.5v-82h-154zM393 -18q-51 0 -84 32.5t-33 83.5q0 52 33 85.5t84 33.5q52 0 85.5 -34t33.5 -85t-34 -83.5t-85 -32.5z" />
    <glyph glyph-name="at" unicode="@" horiz-adv-x="1613" 
d="M807 1190q159 0 294 -53.5t228 -146.5t145 -221.5t52 -276.5q0 -155 -83 -256t-206 -101q-78 0 -130 38t-69 106q-81 -156 -272 -156q-142 0 -236 101.5t-94 250.5q0 151 92.5 252.5t237.5 101.5q90 0 158.5 -40t109.5 -111v131h107v-449q0 -50 24.5 -79t69.5 -29
q77 0 122.5 62t45.5 178q0 122 -43.5 229.5t-120.5 185.5t-189 123t-243 45q-173 0 -310.5 -79t-213.5 -215t-76 -302q0 -266 164.5 -428t435.5 -162q115 0 208 37t144 103l78 -88q-67 -77 -180 -121.5t-250 -44.5q-217 0 -382 89t-254 248.5t-89 366.5q0 150 53 281
t147 226t230 149.5t295 54.5zM786 244q98 0 160 65.5t62 165.5q0 102 -62 168t-160 66q-93 0 -156 -67.5t-63 -166.5t62 -165t157 -66z" />
    <glyph glyph-name="A" unicode="A" horiz-adv-x="1280" 
d="M1090 0l-148 408h-602l-147 -408h-175l517 1423h210l517 -1423h-172zM393 551h496l-248 686z" />
    <glyph glyph-name="B" unicode="B" horiz-adv-x="1269" 
d="M909 754q128 -40 199.5 -134t71.5 -225q0 -183 -120 -289t-335 -106h-557v1423h569q188 0 290.5 -94t102.5 -252q0 -109 -60 -194.5t-161 -128.5zM956 1047q0 106 -67 169.5t-191 63.5h-358v-469h350q113 0 189.5 65t76.5 171zM705 143q142 0 221.5 70t79.5 195
q0 123 -82 191.5t-222 68.5h-362v-525h365z" />
    <glyph glyph-name="C" unicode="C" horiz-adv-x="1492" 
d="M803 -23q-203 0 -365.5 93t-255 261t-92.5 380t92.5 380.5t253.5 261.5t361 93q245 0 409 -123.5t234 -327.5l-168 -69q-119 354 -477 354q-229 0 -378 -158.5t-149 -410.5q0 -251 149.5 -409.5t381.5 -158.5q354 0 473 355l168 -70q-72 -207 -232 -329t-405 -122z" />
    <glyph glyph-name="D" unicode="D" horiz-adv-x="1470" 
d="M682 1423q150 0 278.5 -51t220.5 -142.5t144.5 -224.5t52.5 -292q0 -211 -90 -374t-248 -251t-358 -88h-514v1423h514zM678 156q231 0 377.5 151t146.5 404q0 252 -147 404.5t-377 152.5h-336v-1112h336z" />
    <glyph glyph-name="E" unicode="E" horiz-adv-x="1146" 
d="M342 154h727v-154h-901v1423h889v-153h-715v-457h645v-154h-645v-505z" />
    <glyph glyph-name="F" unicode="F" horiz-adv-x="1101" 
d="M1051 1270h-709v-463h639v-154h-639v-653h-174v1423h883v-153z" />
    <glyph glyph-name="G" unicode="G" horiz-adv-x="1576" 
d="M1499 737q0 -172 -53.5 -316t-147.5 -240.5t-222.5 -150t-276.5 -53.5q-151 0 -282.5 55t-225.5 151t-147.5 233t-53.5 295q0 212 92 380t254 261.5t363 93.5q240 0 402.5 -118t238.5 -316l-168 -70q-61 165 -181.5 251.5t-295.5 86.5q-230 0 -378.5 -159.5
t-148.5 -411.5q0 -255 151 -414.5t394 -159.5q206 0 345.5 123.5t172.5 343.5h-536v135h704z" />
    <glyph glyph-name="H" unicode="H" horiz-adv-x="1406" 
d="M1065 1423h174v-1423h-174v659h-723v-659h-174v1423h174v-608h723v608z" />
    <glyph glyph-name="I" unicode="I" horiz-adv-x="509" 
d="M168 0v1423h174v-1423h-174z" />
    <glyph glyph-name="J" unicode="J" horiz-adv-x="677" 
d="M35 0v156h96q101 0 158 62.5t57 176.5v1028h176v-1030q0 -185 -100 -289t-281 -104h-106z" />
    <glyph glyph-name="K" unicode="K" horiz-adv-x="1255" 
d="M1270 0h-211l-717 696v-696h-174v1423h174v-639l659 639h207l-684 -678z" />
    <glyph glyph-name="L" unicode="L" horiz-adv-x="1083" 
d="M342 158h715v-158h-889v1423h174v-1265z" />
    <glyph glyph-name="M" unicode="M" horiz-adv-x="1710" 
d="M1585 0h-164l-80 1171l-413 -1114h-148l-411 1112l-80 -1169h-164l96 1423h164v-2l37 2l434 -1163l432 1163l37 -2v2h164z" />
    <glyph glyph-name="N" unicode="N" horiz-adv-x="1406" 
d="M1065 1423h174v-1423h-145l-752 1118v-1118h-174v1423h145l752 -1120v1120z" />
    <glyph glyph-name="O" unicode="O" horiz-adv-x="1613" 
d="M807 -23q-151 0 -284 55.5t-228.5 152t-151 233.5t-55.5 293q0 157 55.5 294t151 233.5t228.5 152t284 55.5t284 -55.5t228 -152t150 -233.5t55 -294q0 -156 -55 -293t-150 -233.5t-228 -152t-284 -55.5zM807 143q235 0 387 159t152 409t-151.5 409.5t-387.5 159.5
q-237 0 -389 -159.5t-152 -409.5q0 -165 69.5 -294.5t193 -201.5t278.5 -72z" />
    <glyph glyph-name="P" unicode="P" horiz-adv-x="1214" 
d="M696 1423q213 0 338 -112t125 -301t-125.5 -302.5t-337.5 -113.5h-354v-594h-174v1423h528zM688 750q140 0 216.5 70.5t76.5 189.5q0 118 -76.5 189t-216.5 71h-346v-520h346z" />
    <glyph glyph-name="Q" unicode="Q" horiz-adv-x="1613" 
d="M1524 711q0 -200 -88 -364t-240 -261l287 -276l-119 -127l-338 325q-109 -31 -219 -31q-151 0 -284 55.5t-228.5 152t-151 233.5t-55.5 293q0 157 55.5 294t151 233.5t228.5 152t284 55.5t284 -55.5t228 -152t150 -233.5t55 -294zM266 711q0 -165 69.5 -294.5t193 -201.5
t278.5 -72q235 0 387 159t152 409t-151.5 409.5t-387.5 159.5q-237 0 -389 -159.5t-152 -409.5z" />
    <glyph glyph-name="R" unicode="R" horiz-adv-x="1239" 
d="M969 0l-498 635h-131v-635h-172v1423h528q211 0 337 -109t126 -284t-126.5 -285t-336.5 -110h-34l505 -635h-198zM340 1270v-506h352q139 0 217 69t78 183q0 115 -78 184.5t-217 69.5h-352z" />
    <glyph glyph-name="S" unicode="S" horiz-adv-x="1130" 
d="M559 -20q-192 0 -323 88t-177 249l166 64q31 -119 121 -183.5t225 -64.5q137 0 217 60.5t80 164.5q0 61 -25.5 108.5t-68.5 79.5t-98.5 58t-117.5 48.5t-123.5 46.5t-117 56.5t-98.5 74t-68.5 104t-25.5 141.5q0 165 120 267t326 102q178 0 294.5 -78.5t156.5 -218.5
l-166 -64q-63 209 -291 209q-126 0 -196 -55t-70 -145q0 -57 25.5 -102t68.5 -74.5t99 -54t118 -46.5t123.5 -46.5t117.5 -59.5t99 -79.5t68.5 -112t25.5 -152.5q0 -174 -132 -279.5t-353 -105.5z" />
    <glyph glyph-name="T" unicode="T" horiz-adv-x="1126" 
d="M1098 1423v-157h-449v-1266h-174v1266h-448v157h1071z" />
    <glyph glyph-name="U" unicode="U" horiz-adv-x="1374" 
d="M1049 1423h174v-895q0 -114 -34 -212.5t-98.5 -174.5t-168.5 -120t-234 -44q-131 0 -235 43.5t-168.5 119.5t-98.5 174.5t-34 213.5v895h176v-895q0 -111 38.5 -197t121.5 -138t200 -52q173 0 267 108.5t94 278.5v895z" />
    <glyph glyph-name="V" unicode="V" horiz-adv-x="1292" 
d="M1096 1423h180l-524 -1423h-211l-525 1423h181l450 -1218z" />
    <glyph glyph-name="W" unicode="W" horiz-adv-x="1789" 
d="M1583 1423h172l-340 -1423h-198l-322 1184l-322 -1184h-198l-340 1423h172l272 -1208l322 1208h188l324 -1204z" />
    <glyph glyph-name="X" unicode="X" horiz-adv-x="1280" 
d="M1276 0h-201l-440 604l-432 -604h-201l537 735l-504 690h201l413 -567l402 567h200l-503 -700z" />
    <glyph glyph-name="Y" unicode="Y" horiz-adv-x="1257" 
d="M1245 1423l-530 -839v-584h-174v588l-529 835h197l422 -690l418 690h196z" />
    <glyph glyph-name="Z" unicode="Z" horiz-adv-x="1126" 
d="M1073 158l2 -158h-1022v123l787 1147h-768v153h989v-123l-791 -1142h803z" />
    <glyph glyph-name="bracketleft" unicode="[" horiz-adv-x="608" 
d="M559 1440h-229v-1512h229v-147h-395v1806h395v-147z" />
    <glyph glyph-name="backslash" unicode="\" horiz-adv-x="698" 
d="M471 -102l-397 1558h153l400 -1558h-156z" />
    <glyph glyph-name="bracketright" unicode="]" horiz-adv-x="608" 
d="M49 1587h395v-1806h-395v147h230v1512h-230v147z" />
    <glyph glyph-name="asciicircum" unicode="^" horiz-adv-x="962" 
d="M883 770h-172l-232 399l-225 -399h-174l340 584h110z" />
    <glyph glyph-name="underscore" unicode="_" horiz-adv-x="1028" 
d="M51 -193v144h926v-144h-926z" />
    <glyph glyph-name="grave" unicode="`" horiz-adv-x="579" 
d="M498 1221l-437 254l80 127l426 -269z" />
    <glyph glyph-name="a" unicode="a" horiz-adv-x="1323" 
d="M1016 1079h162v-1079h-162v207q-63 -109 -167.5 -169.5t-238.5 -60.5q-230 0 -380 160.5t-150 403.5q0 239 150.5 395t379.5 156q135 0 239.5 -58t166.5 -164v209zM631 131q167 0 273 114.5t106 295.5q0 180 -105.5 293.5t-273.5 113.5q-162 0 -270.5 -116.5
t-108.5 -290.5q0 -177 108 -293.5t271 -116.5z" />
    <glyph glyph-name="b" unicode="b" horiz-adv-x="1323" 
d="M715 1102q151 0 272 -73.5t188.5 -201.5t67.5 -286q0 -243 -151 -403.5t-381 -160.5q-130 0 -234 58t-170 162v-197h-162v1497h174v-596q65 95 167.5 148t228.5 53zM692 131q163 0 270 116.5t107 293.5q0 173 -108 290t-269 117q-169 0 -275 -113.5t-106 -293.5
q0 -181 106.5 -295.5t274.5 -114.5z" />
    <glyph glyph-name="c" unicode="c" horiz-adv-x="1175" 
d="M633 -23q-239 0 -397 159.5t-158 402.5q0 240 157.5 400.5t395.5 160.5q186 0 316.5 -96.5t174.5 -239.5l-155 -62q-34 113 -122 177.5t-210 64.5q-164 0 -272.5 -113.5t-108.5 -291.5q0 -179 108.5 -292.5t274.5 -113.5q124 0 213 64.5t123 177.5l155 -64
q-44 -141 -176 -237.5t-319 -96.5z" />
    <glyph glyph-name="d" unicode="d" horiz-adv-x="1323" 
d="M1004 1497h174v-1497h-162v199q-64 -105 -169.5 -163.5t-236.5 -58.5q-230 0 -380 160.5t-150 403.5q0 158 67.5 286t188 201.5t270.5 73.5q128 0 230.5 -53.5t167.5 -151.5v600zM631 131q167 0 273 114.5t106 295.5q0 180 -105.5 293.5t-273.5 113.5
q-162 0 -270.5 -116.5t-108.5 -290.5q0 -177 108 -293.5t271 -116.5z" />
    <glyph glyph-name="e" unicode="e" horiz-adv-x="1216" 
d="M246 475q23 -150 130 -243t257 -93q129 0 208 48.5t120 144.5l151 -92q-138 -265 -485 -265q-163 0 -290.5 73.5t-197 202t-69.5 288.5q0 154 72 284t197 205.5t275 75.5q119 0 220.5 -44.5t169 -119t105.5 -172.5t38 -205q0 -48 -4 -88h-897zM248 627h721
q-20 150 -115.5 237.5t-232.5 87.5q-140 0 -244.5 -87.5t-128.5 -237.5z" />
    <glyph glyph-name="f" unicode="f" horiz-adv-x="706" 
d="M623 1380q-104 0 -163 -62.5t-59 -176.5v-62h283v-149h-283v-930h-174v930h-196v149h196v45q0 187 102 291.5t287 104.5h72v-140h-65z" />
    <glyph glyph-name="g" unicode="g" horiz-adv-x="1320" 
d="M1016 1079h162v-938q0 -243 -148 -386.5t-407 -143.5q-202 0 -332.5 86t-184.5 242l150 57q39 -117 134.5 -177.5t234.5 -60.5q181 0 286 99t105 270v106q-63 -106 -167 -165.5t-237 -59.5q-230 0 -381 157t-151 390q0 151 68.5 276t190.5 198t273 73q133 0 237 -59
t167 -164v200zM629 145q165 0 271 113.5t106 288.5t-104.5 288t-268.5 113q-162 0 -270.5 -115t-108.5 -286q0 -172 107 -287t268 -115z" />
    <glyph glyph-name="h" unicode="h" horiz-adv-x="1251" 
d="M682 1102q205 0 321.5 -120t116.5 -323v-659h-174v629q0 151 -82 235t-227 82q-135 0 -225.5 -83t-92.5 -195v-668h-174v1497h174v-561q57 75 151 120.5t212 45.5z" />
    <glyph glyph-name="i" unicode="i" horiz-adv-x="462" 
d="M231 1278q-59 0 -98 37.5t-39 95.5q0 60 39 98.5t98 38.5t98.5 -38.5t39.5 -98.5q0 -58 -39.5 -95.5t-98.5 -37.5zM145 0v1079h174v-1079h-174z" />
    <glyph glyph-name="j" unicode="j" horiz-adv-x="466" 
d="M238 1278q-59 0 -98.5 37.5t-39.5 95.5t39.5 97.5t98.5 39.5q58 0 97.5 -39t39.5 -98q0 -58 -39 -95.5t-98 -37.5zM-96 -373l-2 152h22q101 0 162 65.5t61 173.5v1061h175v-1056q0 -181 -105 -288.5t-274 -107.5h-39z" />
    <glyph glyph-name="k" unicode="k" horiz-adv-x="1040" 
d="M1049 0h-197l-533 539v-539h-174v1497h174v-870l510 452h203l-534 -497z" />
    <glyph glyph-name="l" unicode="l" horiz-adv-x="462" 
d="M145 0v1497h174v-1497h-174z" />
    <glyph glyph-name="m" unicode="m" horiz-adv-x="1972" 
d="M1417 1102q198 0 311 -121t113 -315v-666h-174v635q0 139 -78 225.5t-211 85.5q-129 0 -212.5 -82.5t-86.5 -183.5v-680h-174v635q0 140 -78 226t-211 85q-128 0 -211.5 -82.5t-85.5 -183.5v-680h-174v1079h164v-159q53 80 146 131t211 51q275 0 368 -219q44 95 144 157
t239 62z" />
    <glyph glyph-name="n" unicode="n" horiz-adv-x="1251" 
d="M682 1102q205 0 321.5 -120t116.5 -323v-659h-174v629q0 151 -82 235t-227 82q-135 0 -225.5 -83t-92.5 -195v-668h-174v1079h164v-157q55 81 152 130.5t221 49.5z" />
    <glyph glyph-name="o" unicode="o" horiz-adv-x="1280" 
d="M639 -23q-161 0 -289.5 73t-200 201.5t-71.5 287.5q0 244 158 403.5t403 159.5t403 -159.5t158 -403.5q0 -159 -71.5 -287.5t-200 -201.5t-289.5 -73zM641 133q170 0 277.5 114t107.5 292q0 179 -107 293t-278 114t-279 -114t-108 -293q0 -178 108 -292t279 -114z" />
    <glyph glyph-name="p" unicode="p" horiz-adv-x="1323" 
d="M715 1102q229 0 378.5 -160.5t149.5 -402.5q0 -159 -68.5 -287.5t-190.5 -201.5t-273 -73q-125 0 -226 52t-166 147v-543h-174v1446h162v-198q66 104 171.5 162.5t236.5 58.5zM692 131q161 0 269 116.5t108 291.5q0 177 -107 293t-270 116q-167 0 -274 -114.5
t-107 -294.5t106 -294t275 -114z" />
    <glyph glyph-name="q" unicode="q" horiz-adv-x="1323" 
d="M1016 1079h162v-1446h-174v545q-66 -95 -167 -148t-227 -53q-150 0 -271.5 73t-190 201.5t-68.5 287.5q0 243 148.5 403t377.5 160q133 0 239 -58.5t171 -164.5v200zM631 131q168 0 273.5 114t105.5 294t-106 294.5t-273 114.5q-163 0 -271 -116t-108 -293
q0 -175 108 -291.5t271 -116.5z" />
    <glyph glyph-name="r" unicode="r" horiz-adv-x="686" 
d="M309 922q56 80 145.5 130t198.5 50v-162q-145 -1 -239.5 -86t-94.5 -203v-651h-174v1079h164v-157z" />
    <glyph glyph-name="s" unicode="s" horiz-adv-x="976" 
d="M492 -23q-169 0 -286 67.5t-159 195.5l166 65q26 -84 99.5 -130t185.5 -46q102 0 162.5 42t60.5 116q0 52 -34 90t-89 61t-121 43t-132.5 44.5t-121.5 56.5t-89 88t-34 131q0 139 106.5 220t285.5 81q148 0 249 -58t136 -165l-166 -66q-51 141 -222 141q-93 0 -144.5 -38
t-51.5 -105q0 -43 27 -75t71 -51t100 -37.5t114.5 -34t114.5 -41.5t100 -58.5t71 -87t27 -125.5q0 -152 -116 -238t-310 -86z" />
    <glyph glyph-name="t" unicode="t" horiz-adv-x="753" 
d="M580 0q-173 0 -266 96.5t-93 265.5v568h-196v149h112q96 0 96 99v178h168v-277h320v-149h-326v-549q0 -109 55.5 -168t159.5 -59h127v-154h-157z" />
    <glyph glyph-name="u" unicode="u" horiz-adv-x="1230" 
d="M913 1079h174v-1079h-165v154q-57 -79 -151.5 -128t-209.5 -49q-203 0 -316.5 120t-113.5 317v665h174v-645q0 -137 82 -219.5t219 -81.5q132 0 218.5 80.5t88.5 187.5v678z" />
    <glyph glyph-name="v" unicode="v" horiz-adv-x="1110" 
d="M911 1079h183l-441 -1079h-196l-441 1079h183l356 -907z" />
    <glyph glyph-name="w" unicode="w" horiz-adv-x="1591" 
d="M1382 1079h183l-295 -1079h-205l-268 883l-265 -883h-206l-295 1079h180l227 -905l262 905h195l262 -901z" />
    <glyph glyph-name="x" unicode="x" horiz-adv-x="1064" 
d="M1059 0h-195l-338 434l-340 -434h-186l432 557l-405 522h194l320 -411l315 411h188l-407 -534z" />
    <glyph glyph-name="y" unicode="y" horiz-adv-x="1112" 
d="M913 1079h183l-590 -1446h-172l153 367h-47l-422 1079h183l348 -932z" />
    <glyph glyph-name="z" unicode="z" horiz-adv-x="956" 
d="M266 143h643v-143h-858v127l623 809h-594v143h807v-133z" />
    <glyph glyph-name="braceleft" unicode="{" horiz-adv-x="628" 
d="M530 -219q-141 0 -224 87.5t-83 254.5v317q0 89 -47 128.5t-115 39.5h-34v152h34q68 0 115 39.5t47 128.5v317q0 167 83 254.5t224 87.5h45v-147h-24q-77 0 -119.5 -52.5t-42.5 -144.5v-313q0 -58 -15 -103t-41.5 -72.5t-50.5 -43t-55 -27.5q31 -12 55 -27.5t50.5 -43
t41.5 -72.5t15 -103v-313q0 -91 43 -144t119 -53h24v-147h-45z" />
    <glyph glyph-name="bar" unicode="|" horiz-adv-x="462" 
d="M164 -178v1644h135v-1644h-135z" />
    <glyph glyph-name="braceright" unicode="}" horiz-adv-x="628" 
d="M53 -219v147h25q76 0 119 53t43 144v313q0 47 10.5 86t26 64t38.5 45t42.5 31t43.5 20q-24 9 -43.5 20t-42.5 31t-38.5 45t-26 64t-10.5 86v313q0 92 -42.5 144.5t-119.5 52.5h-25v147h45q141 0 224.5 -87.5t83.5 -254.5v-317q0 -89 46.5 -128.5t114.5 -39.5h35v-152h-35
q-68 0 -114.5 -39.5t-46.5 -128.5v-317q0 -167 -83.5 -254.5t-224.5 -87.5h-45z" />
    <glyph glyph-name="asciitilde" unicode="~" horiz-adv-x="1073" 
d="M725 496q-55 0 -105.5 17.5t-83 38.5t-77.5 38.5t-90 17.5q-54 0 -99.5 -21t-68.5 -59l-88 95q35 62 97 96.5t140 34.5q55 0 105.5 -17.5t83 -38t78 -38t90.5 -17.5q53 0 98.5 21t66.5 59l91 -96q-36 -61 -98.5 -96t-139.5 -35z" />
    <glyph glyph-name="uni00A0" unicode="&#xa0;" horiz-adv-x="460" 
 />
    <glyph glyph-name="exclamdown" unicode="&#xa1;" horiz-adv-x="477" 
d="M240 858q-51 0 -85 34t-34 85t34 85t85 34t83.5 -34t32.5 -85t-32.5 -85t-83.5 -34zM137 -367l31 1016h141l31 -1016h-203z" />
    <glyph glyph-name="cent" unicode="&#xa2;" horiz-adv-x="1083" 
d="M1014 479q-35 -109 -132 -191.5t-237 -101.5v-186h-143v186q-183 25 -298.5 161t-115.5 329q0 192 115 329t299 162v187h143v-187q139 -19 235 -101.5t130 -193.5l-152 -59q-29 96 -103.5 150.5t-179.5 54.5q-139 0 -230 -95.5t-91 -246.5q0 -150 92 -245t232 -95
q105 0 180.5 54.5t103.5 150.5z" />
    <glyph glyph-name="sterling" unicode="&#xa3;" horiz-adv-x="1120" 
d="M403 594v-440h621v-154h-797v594h-159v154h159v210q0 115 50 210t146 152.5t220 57.5q169 0 273 -80t141 -215l-152 -59q-61 201 -254 201q-121 0 -184.5 -76.5t-63.5 -190.5v-210h441v-154h-441z" />
    <glyph glyph-name="currency" unicode="&#xa4;" horiz-adv-x="1165" 
d="M1028 676q0 -144 -82 -260l113 -113l-103 -100l-110 112q-119 -82 -264 -82q-144 0 -263 82l-112 -112l-101 100l113 113q-82 116 -82 260q0 151 82 262l-113 113l101 102l112 -113q116 82 263 82q149 0 262 -80l112 111l103 -102l-113 -111q82 -119 82 -264zM582 375
q125 0 208.5 85t83.5 216q0 132 -84 217.5t-208 85.5t-207.5 -85.5t-83.5 -217.5q0 -131 83.5 -216t207.5 -85z" />
    <glyph glyph-name="yen" unicode="&#xa5;" horiz-adv-x="1179" 
d="M1130 1352l-434 -748h244v-119h-264v-159h264v-117h-264v-209h-174v209h-264v117h264v159h-264v119h245l-434 748h189l354 -641l350 641h188z" />
    <glyph glyph-name="brokenbar" unicode="&#xa6;" horiz-adv-x="462" 
d="M164 813v653h135v-653h-135zM164 -178v653h135v-653h-135z" />
    <glyph glyph-name="section" unicode="&#xa7;" horiz-adv-x="1026" 
d="M778 328q123 -84 123 -232q0 -154 -110 -239.5t-287 -85.5q-169 0 -276.5 64t-147.5 188l143 57q57 -184 279 -184q101 0 167 49.5t66 134.5q0 59 -35 102t-90.5 68.5t-123 47t-134.5 47t-122.5 59t-90.5 91.5t-35 136q0 92 49.5 159t139.5 103q-146 85 -146 240
q0 141 104 221t279 80q292 0 365 -222l-143 -55q-30 76 -82.5 112t-139.5 36q-102 0 -159.5 -44t-57.5 -120q0 -45 21.5 -79t57.5 -56t83 -40t99 -33.5t103.5 -33t98.5 -43t83 -58.5t57.5 -84t21.5 -116q0 -188 -160 -270zM270 645q0 -38 16 -69t36.5 -50.5t63 -40t70 -30.5
t85 -28.5t82.5 -27.5q71 17 110 64.5t39 120.5q0 40 -17 73t-40.5 54.5t-65.5 42t-75.5 32.5t-87.5 29q-9 3 -13 4q-99 -7 -151 -53.5t-52 -120.5z" />
    <glyph glyph-name="dieresis" unicode="&#xa8;" horiz-adv-x="741" 
d="M193 1282q-54 0 -93 38t-39 95q0 55 40 91t96 36q53 0 91 -37.5t38 -93.5q0 -55 -39 -92t-94 -37zM598 1282q-54 0 -92.5 38t-38.5 95q0 55 39 91t94 36t93 -37.5t38 -93.5q0 -55 -38.5 -92t-94.5 -37z" />
    <glyph glyph-name="copyright" unicode="&#xa9;" horiz-adv-x="1568" 
d="M786 -25q-202 0 -360.5 89.5t-246 249.5t-87.5 362q0 197 87 357t246.5 252.5t360.5 92.5q200 0 358.5 -92.5t245.5 -252.5t87 -357q0 -151 -51 -281.5t-141 -222.5t-219 -144.5t-280 -52.5zM786 90q120 0 225.5 43t181.5 119t119.5 186t43.5 238q0 163 -74.5 298
t-205.5 212.5t-290 77.5q-162 0 -293.5 -78t-205.5 -212.5t-74 -297.5q0 -259 162 -422.5t411 -163.5zM793 283q-167 0 -278.5 113t-111.5 282q0 168 111 280.5t279 112.5q130 0 221.5 -67.5t122.5 -169.5l-125 -46q-22 74 -79 115t-138 41q-112 0 -182 -73.5t-70 -192.5
t70 -192.5t182 -73.5q83 0 140 40t79 113l127 -45q-31 -101 -123.5 -169t-224.5 -68z" />
    <glyph glyph-name="ordfeminine" unicode="&#xaa;" horiz-adv-x="806" 
d="M594 1673h98v-594h-98v115q-35 -62 -95.5 -96.5t-140.5 -34.5q-121 0 -205.5 88.5t-84.5 222.5q0 136 84 224t206 88q162 0 236 -125v112zM379 1180q85 0 136.5 55t51.5 141q0 84 -51.5 139.5t-136.5 55.5q-78 0 -132 -56t-54 -139q0 -84 53.5 -140t132.5 -56z" />
    <glyph glyph-name="guillemotleft" unicode="&#xab;" horiz-adv-x="931" 
d="M301 168l-227 344l227 342h166l-225 -342l225 -344h-166zM653 168l-225 344l225 342h168l-227 -342l227 -344h-168z" />
    <glyph glyph-name="logicalnot" unicode="&#xac;" horiz-adv-x="1107" 
d="M115 762h852v-494h-164v342h-688v152z" />
    <glyph glyph-name="registered" unicode="&#xae;" horiz-adv-x="1024" 
d="M514 1487q178 0 299 -123t121 -301q0 -177 -121.5 -299.5t-298.5 -122.5q-181 0 -303.5 122t-122.5 300t122.5 301t303.5 123zM514 717q145 0 243.5 99.5t98.5 246.5q0 145 -98.5 244.5t-243.5 99.5t-245.5 -99t-100.5 -245q0 -147 100.5 -246.5t245.5 -99.5zM688 1176
q0 -58 -37.5 -92.5t-99.5 -36.5l145 -197h-82l-141 197h-24v-197h-72v453h168q64 0 103.5 -34.5t39.5 -92.5zM449 1243v-137h88q37 0 57 19t20 51q0 31 -19.5 49t-57.5 18h-88z" />
    <glyph glyph-name="macron" unicode="&#xaf;" horiz-adv-x="638" 
d="M61 1343v142h598v-142h-598z" />
    <glyph glyph-name="degree" unicode="&#xb0;" horiz-adv-x="753" 
d="M377 846q-129 0 -214 83t-85 210t85.5 210t213.5 83q129 0 213 -83t84 -210t-84 -210t-213 -83zM377 958q76 0 127 51t51 130q0 77 -52 129.5t-126 52.5q-75 0 -127.5 -52.5t-52.5 -129.5t52 -129t128 -52z" />
    <glyph glyph-name="plusminus" unicode="&#xb1;" horiz-adv-x="1077" 
d="M616 848h351v-152h-351v-377h-155v377h-350v152h350v366h155v-366zM111 68v151h856v-151h-856z" />
    <glyph glyph-name="uni00B2" unicode="&#xb2;" horiz-adv-x="696" 
d="M272 809h314v-98h-480v75l244 254q105 105 105 187q0 46 -31 76t-80 30q-48 0 -83.5 -28t-47.5 -82l-111 37q17 78 83.5 126t160.5 48q104 0 165.5 -54.5t61.5 -144.5q0 -119 -131 -250z" />
    <glyph glyph-name="uni00B3" unicode="&#xb3;" horiz-adv-x="663" 
d="M362 1133q91 0 152 -59.5t61 -151.5q0 -96 -70 -160t-179 -64q-96 0 -163.5 44.5t-88.5 113.5l106 43q14 -45 52.5 -72.5t91.5 -27.5q60 0 97.5 37t37.5 92q0 58 -37.5 92.5t-93.5 34.5h-92v78l192 196h-322v94h447v-92z" />
    <glyph glyph-name="acute" unicode="&#xb4;" horiz-adv-x="532" 
d="M133 1221l-72 112l426 269l80 -127z" />
    <glyph glyph-name="paragraph" unicode="&#xb6;" horiz-adv-x="1255" 
d="M1075 1423v-1628h-98v1479h-98v-1479h-101v1479h-98v-680h-162q-212 0 -337.5 113.5t-125.5 302.5t125 301t338 112h557z" />
    <glyph glyph-name="periodcentered" unicode="&#xb7;" horiz-adv-x="460" 
d="M229 545q-51 0 -83.5 34t-32.5 85t32.5 84.5t83.5 33.5t85 -33.5t34 -84.5t-34 -85t-85 -34z" />
    <glyph glyph-name="cedilla" unicode="&#xb8;" horiz-adv-x="512" 
d="M285 -492q-74 0 -132 27t-92 68l64 75q53 -67 139 -67q57 0 92 31t35 77q0 48 -37 81.5t-94 33.5h-35l-12 16l72 173h112l-57 -132q79 -3 129.5 -55.5t50.5 -128.5q0 -87 -64 -143t-171 -56z" />
    <glyph glyph-name="uni00B9" unicode="&#xb9;" horiz-adv-x="567" 
d="M373 815h112v-104h-376v104h143v404h-139v104h139v100h121v-608z" />
    <glyph glyph-name="ordmasculine" unicode="&#xba;" horiz-adv-x="761" 
d="M379 1063q-136 0 -223.5 89.5t-87.5 221.5q0 135 87.5 225.5t223.5 90.5q138 0 225.5 -90.5t87.5 -225.5q0 -134 -87.5 -222.5t-225.5 -88.5zM381 1178q86 0 136 54.5t50 141.5q0 88 -50 144.5t-136 56.5t-138.5 -56.5t-52.5 -144.5q0 -86 52 -141t139 -55z" />
    <glyph glyph-name="guillemotright" unicode="&#xbb;" horiz-adv-x="931" 
d="M113 168l225 344l-225 342h166l225 -342l-225 -344h-166zM465 168l225 344l-225 342h168l225 -342l-225 -344h-168z" />
    <glyph glyph-name="onequarter" unicode="&#xbc;" horiz-adv-x="1288" 
d="M457 711h-377v104h143v404h-139v104h139v100h121v-608h113v-104zM997 1423h138l-773 -1423h-135zM1217 248v-88h-82v-160h-115v160h-342v86l342 467h115v-465h82zM1020 248v327l-240 -327h240z" />
    <glyph glyph-name="onehalf" unicode="&#xbd;" horiz-adv-x="1357" 
d="M80 711v104h143v404h-139v104h139v100h121v-608h113v-104h-377zM991 1423h135l-772 -1423h-135zM975 98h313v-98h-479v76l244 254q104 104 104 186q0 46 -30.5 76.5t-79.5 30.5q-48 0 -84 -28.5t-48 -82.5l-110 37q17 78 83.5 126t160.5 48q104 0 165.5 -54.5
t61.5 -144.5q0 -119 -131 -250z" />
    <glyph glyph-name="threequarters" unicode="&#xbe;" horiz-adv-x="1310" 
d="M557 922q0 -96 -70.5 -160t-179.5 -64q-95 0 -163 45t-87 113l107 43q14 -45 51 -72.5t90 -27.5q61 0 98 36.5t37 92.5q0 58 -37 92.5t-92 34.5h-94v78l193 196h-320v94h445v-92l-189 -198q93 -2 152 -60.5t59 -150.5zM1030 1423h137l-772 -1423h-135zM1225 248v-88h-82
v-160h-115v160h-342v86l342 467h115v-465h82zM1028 248v327l-240 -327h240z" />
    <glyph glyph-name="questiondown" unicode="&#xbf;" horiz-adv-x="917" 
d="M524 858q-51 0 -83.5 34t-32.5 85t32.5 85t83.5 34t85 -34t34 -85t-34 -85t-85 -34zM446 -387q-178 0 -279 90.5t-101 247.5q0 67 21.5 124.5t55.5 98t75.5 77.5t82.5 72.5t75 72t55.5 86t21.5 106.5v61h151v-67q0 -69 -19.5 -127t-51 -98.5t-69.5 -76.5t-76 -68
t-69.5 -64.5t-51 -74.5t-19.5 -91q0 -96 55.5 -148.5t153.5 -52.5q92 0 158.5 58.5t84.5 150.5l164 -53q-28 -146 -142.5 -235t-275.5 -89z" />
    <glyph glyph-name="Agrave" unicode="&#xc0;" horiz-adv-x="1280" 
d="M918 1688l-41 -127l-517 178l46 143zM1090 0l-148 408h-602l-147 -408h-175l517 1423h210l517 -1423h-172zM393 551h496l-248 686z" />
    <glyph glyph-name="Aacute" unicode="&#xc1;" horiz-adv-x="1280" 
d="M938 1739l-516 -178l-41 127l512 194zM1090 0l-148 408h-602l-147 -408h-175l517 1423h210l517 -1423h-172zM393 551h496l-248 686z" />
    <glyph glyph-name="Acircumflex" unicode="&#xc2;" horiz-adv-x="1280" 
d="M639 1753l-178 -180h-162l270 293h144l266 -293h-162zM1090 0l-148 408h-602l-147 -408h-175l517 1423h210l517 -1423h-172zM393 551h496l-248 686z" />
    <glyph glyph-name="Atilde" unicode="&#xc3;" horiz-adv-x="1280" 
d="M522 1690q-44 0 -71.5 -27t-36.5 -72l-125 51q17 77 74 135t147 58q43 0 81 -16.5t61 -35.5t54 -35.5t62 -16.5q45 0 73 27t38 71l125 -51q-20 -80 -76 -136.5t-146 -56.5q-45 0 -83 16.5t-60.5 36t-53.5 36t-63 16.5zM1090 0l-148 408h-602l-147 -408h-175l517 1423h210
l517 -1423h-172zM393 551h496l-248 686z" />
    <glyph glyph-name="Adieresis" unicode="&#xc4;" horiz-adv-x="1280" 
d="M428 1587q-55 0 -93 37.5t-38 95.5q0 56 38.5 92.5t96.5 36.5q54 0 91.5 -37.5t37.5 -93.5t-38.5 -93.5t-94.5 -37.5zM846 1587q-55 0 -93 37.5t-38 95.5q0 56 38.5 92.5t94.5 36.5t94.5 -37.5t38.5 -93.5t-39.5 -93.5t-95.5 -37.5zM1090 0l-148 408h-602l-147 -408h-175
l517 1423h210l517 -1423h-172zM393 551h496l-248 686z" />
    <glyph glyph-name="Aring" unicode="&#xc5;" horiz-adv-x="1280" 
d="M639 1468q-92 0 -153.5 59t-61.5 148t61.5 148t153.5 59q94 0 154.5 -59t60.5 -148t-60.5 -148t-154.5 -59zM639 1780q-46 0 -76.5 -30.5t-30.5 -74.5t30.5 -74t76.5 -30t76 30t30 74q0 45 -30.5 75t-75.5 30zM1090 0l-148 408h-602l-147 -408h-175l517 1423h210
l517 -1423h-172zM393 551h496l-248 686z" />
    <glyph glyph-name="AE" unicode="&#xc6;" horiz-adv-x="1894" 
d="M1092 154h725v-154h-902v401h-534l-221 -401h-187l779 1423h1052v-153h-712v-457h643v-154h-643v-505zM465 551h450v719h-53z" />
    <glyph glyph-name="Ccedilla" unicode="&#xc7;" horiz-adv-x="1495" 
d="M801 143q351 0 473 355l168 -70q-68 -195 -216 -315t-370 -133l-39 -89q79 -3 129.5 -55.5t50.5 -128.5q0 -86 -64.5 -142.5t-170.5 -56.5q-144 0 -223 95l63 75q53 -67 139 -67q57 0 92 31t35 77q0 48 -37 81.5t-94 33.5h-35l-12 16l53 130q-187 14 -335.5 109.5
t-233 258t-84.5 363.5q0 212 93 380.5t254.5 261.5t361.5 93q245 0 408 -123.5t235 -327.5l-168 -69q-122 354 -479 354q-228 0 -377.5 -159t-149.5 -410q0 -250 150.5 -409t382.5 -159z" />
    <glyph glyph-name="Egrave" unicode="&#xc8;" horiz-adv-x="1146" 
d="M891 1688l-41 -127l-516 178l45 143zM342 154h727v-154h-901v1423h889v-153h-715v-457h645v-154h-645v-505z" />
    <glyph glyph-name="Eacute" unicode="&#xc9;" horiz-adv-x="1146" 
d="M911 1739l-518 -178l-39 127l510 194zM342 154h727v-154h-901v1423h889v-153h-715v-457h645v-154h-645v-505z" />
    <glyph glyph-name="Ecircumflex" unicode="&#xca;" horiz-adv-x="1146" 
d="M610 1753l-178 -180h-162l273 293h141l268 -293h-161zM342 154h727v-154h-901v1423h889v-153h-715v-457h645v-154h-645v-505z" />
    <glyph glyph-name="Edieresis" unicode="&#xcb;" horiz-adv-x="1146" 
d="M401 1587q-55 0 -94 38t-39 95q0 56 39.5 92.5t95.5 36.5q55 0 93.5 -37.5t38.5 -93.5t-39.5 -93.5t-94.5 -37.5zM817 1587q-54 0 -92.5 38t-38.5 95q0 56 39 92.5t94 36.5q56 0 94.5 -37.5t38.5 -93.5q0 -57 -39 -94t-96 -37zM342 154h727v-154h-901v1423h889v-153h-715
v-457h645v-154h-645v-505z" />
    <glyph glyph-name="Igrave" unicode="&#xcc;" horiz-adv-x="509" 
d="M494 1561l-517 178l46 143l512 -194zM168 0v1423h174v-1423h-174z" />
    <glyph glyph-name="Iacute" unicode="&#xcd;" horiz-adv-x="509" 
d="M39 1561l-41 127l512 194l45 -143zM168 0v1423h174v-1423h-174z" />
    <glyph glyph-name="Icircumflex" unicode="&#xce;" horiz-adv-x="509" 
d="M328 1866l268 -293h-162l-178 178l-178 -178h-164l272 293h142zM168 0v1423h174v-1423h-174z" />
    <glyph glyph-name="Idieresis" unicode="&#xcf;" horiz-adv-x="509" 
d="M45 1587q-55 0 -94 38t-39 95q0 56 39.5 92.5t95.5 36.5q55 0 93 -37.5t38 -93.5t-38.5 -93.5t-94.5 -37.5zM463 1587q-55 0 -94 38t-39 95q0 56 39.5 92.5t95.5 36.5q55 0 93 -37.5t38 -93.5t-38.5 -93.5t-94.5 -37.5zM168 0v1423h174v-1423h-174z" />
    <glyph glyph-name="Eth" unicode="&#xd0;" horiz-adv-x="1486" 
d="M698 1423q150 0 278.5 -51t221 -142.5t145 -224.5t52.5 -292t-52.5 -292.5t-144.5 -225.5t-221 -143.5t-279 -51.5h-514v674h-147v127h147v622h514zM694 156q230 0 377.5 151.5t147.5 403.5q0 251 -148 404t-377 153h-336v-467h322v-127h-322v-518h336z" />
    <glyph glyph-name="Ntilde" unicode="&#xd1;" horiz-adv-x="1406" 
d="M573 1690q-89 0 -110 -99l-123 51q18 77 74 135t147 58q43 0 80.5 -16.5t60.5 -35.5t54 -35.5t63 -16.5q44 0 73 27.5t38 70.5l123 -51q-20 -80 -75 -136.5t-147 -56.5q-44 0 -82 16.5t-60.5 36t-53 36t-62.5 16.5zM1065 1423h174v-1423h-145l-752 1118v-1118h-174v1423
h145l752 -1120v1120z" />
    <glyph glyph-name="Ograve" unicode="&#xd2;" horiz-adv-x="1613" 
d="M1044 1561l-516 178l45 143l512 -194zM807 -23q-151 0 -284 55.5t-228.5 152t-151 233.5t-55.5 293q0 157 55.5 294t151 233.5t228.5 152t284 55.5t284 -55.5t228 -152t150 -233.5t55 -294q0 -156 -55 -293t-150 -233.5t-228 -152t-284 -55.5zM807 143q235 0 387 159
t152 409t-151.5 409.5t-387.5 159.5q-237 0 -389 -159.5t-152 -409.5q0 -165 69.5 -294.5t193 -201.5t278.5 -72z" />
    <glyph glyph-name="Oacute" unicode="&#xd3;" horiz-adv-x="1613" 
d="M590 1561l-41 127l512 194l45 -143zM807 -23q-151 0 -284 55.5t-228.5 152t-151 233.5t-55.5 293q0 157 55.5 294t151 233.5t228.5 152t284 55.5t284 -55.5t228 -152t150 -233.5t55 -294q0 -156 -55 -293t-150 -233.5t-228 -152t-284 -55.5zM807 143q235 0 387 159
t152 409t-151.5 409.5t-387.5 159.5q-237 0 -389 -159.5t-152 -409.5q0 -165 69.5 -294.5t193 -201.5t278.5 -72z" />
    <glyph glyph-name="Ocircumflex" unicode="&#xd4;" horiz-adv-x="1613" 
d="M807 1753l-178 -180h-162l270 293h144l266 -293h-162zM807 1446q151 0 284 -55.5t228 -152t150 -233.5t55 -294q0 -156 -55 -293t-150 -233.5t-228 -152t-284 -55.5t-284 55.5t-228.5 152t-151 233.5t-55.5 293q0 157 55.5 294t151 233.5t228.5 152t284 55.5zM807 143
q235 0 387 159t152 409t-151.5 409.5t-387.5 159.5q-237 0 -389 -159.5t-152 -409.5q0 -165 69.5 -294.5t193 -201.5t278.5 -72z" />
    <glyph glyph-name="Otilde" unicode="&#xd5;" horiz-adv-x="1613" 
d="M950 1585q-45 0 -83 16.5t-60.5 36t-53.5 36t-63 16.5q-44 0 -71.5 -27t-36.5 -72l-125 51q17 77 74 135t147 58q43 0 81 -16.5t61 -35.5t54 -35.5t62 -16.5q45 0 73 27t38 71l124 -51q-20 -80 -75.5 -136.5t-145.5 -56.5zM807 -23q-151 0 -284 55.5t-228.5 152
t-151 233.5t-55.5 293q0 157 55.5 294t151 233.5t228.5 152t284 55.5t284 -55.5t228 -152t150 -233.5t55 -294q0 -156 -55 -293t-150 -233.5t-228 -152t-284 -55.5zM807 143q235 0 387 159t152 409t-151.5 409.5t-387.5 159.5q-237 0 -389 -159.5t-152 -409.5
q0 -165 69.5 -294.5t193 -201.5t278.5 -72z" />
    <glyph glyph-name="Odieresis" unicode="&#xd6;" horiz-adv-x="1613" 
d="M596 1587q-55 0 -93 37.5t-38 95.5q0 56 38.5 92.5t96.5 36.5q54 0 91.5 -37.5t37.5 -93.5t-38.5 -93.5t-94.5 -37.5zM1014 1587q-55 0 -93 37.5t-38 95.5q0 56 38.5 92.5t94.5 36.5t94.5 -37.5t38.5 -93.5t-39.5 -93.5t-95.5 -37.5zM807 -23q-151 0 -284 55.5
t-228.5 152t-151 233.5t-55.5 293q0 157 55.5 294t151 233.5t228.5 152t284 55.5t284 -55.5t228 -152t150 -233.5t55 -294q0 -156 -55 -293t-150 -233.5t-228 -152t-284 -55.5zM807 143q235 0 387 159t152 409t-151.5 409.5t-387.5 159.5q-237 0 -389 -159.5t-152 -409.5
q0 -165 69.5 -294.5t193 -201.5t278.5 -72z" />
    <glyph glyph-name="multiply" unicode="&#xd7;" horiz-adv-x="1009" 
d="M907 926l-291 -291l291 -291l-110 -111l-291 291l-293 -291l-111 111l291 291l-291 291l111 110l291 -291l291 291z" />
    <glyph glyph-name="Oslash" unicode="&#xd8;" horiz-adv-x="1619" 
d="M1358 1198q170 -204 170 -487q0 -156 -55 -293t-150 -233.5t-228 -152t-284 -55.5q-252 0 -444 146l-144 -156l-104 101l143 155q-170 204 -170 488q0 157 55 294t150.5 233.5t228.5 152t285 55.5q251 0 442 -148l144 156l104 -100zM270 711q0 -210 111 -359l758 822
q-137 106 -328 106q-238 0 -389.5 -159.5t-151.5 -409.5zM811 143q235 0 387 159t152 409q0 211 -109 360l-758 -823q140 -105 328 -105z" />
    <glyph glyph-name="Ugrave" unicode="&#xd9;" horiz-adv-x="1374" 
d="M967 1688l-41 -127l-516 178l45 143zM1049 1423h174v-895q0 -114 -34 -212.5t-98.5 -174.5t-168.5 -120t-234 -44q-131 0 -235 43.5t-168.5 119.5t-98.5 174.5t-34 213.5v895h176v-895q0 -111 38.5 -197t121.5 -138t200 -52q173 0 267 108.5t94 278.5v895z" />
    <glyph glyph-name="Uacute" unicode="&#xda;" horiz-adv-x="1374" 
d="M987 1739l-516 -178l-41 127l512 194zM1049 1423h174v-895q0 -114 -34 -212.5t-98.5 -174.5t-168.5 -120t-234 -44q-131 0 -235 43.5t-168.5 119.5t-98.5 174.5t-34 213.5v895h176v-895q0 -111 38.5 -197t121.5 -138t200 -52q173 0 267 108.5t94 278.5v895z" />
    <glyph glyph-name="Ucircumflex" unicode="&#xdb;" horiz-adv-x="1374" 
d="M688 1753l-178 -180h-162l270 293h144l266 -293h-162zM1049 1423h174v-895q0 -114 -34 -212.5t-98.5 -174.5t-168.5 -120t-234 -44q-131 0 -235 43.5t-168.5 119.5t-98.5 174.5t-34 213.5v895h176v-895q0 -111 38.5 -197t121.5 -138t200 -52q173 0 267 108.5t94 278.5
v895z" />
    <glyph glyph-name="Udieresis" unicode="&#xdc;" horiz-adv-x="1374" 
d="M477 1587q-55 0 -93 37.5t-38 95.5q0 56 38.5 92.5t96.5 36.5q55 0 92 -37.5t37 -93.5t-38.5 -93.5t-94.5 -37.5zM895 1587q-55 0 -93 37.5t-38 95.5q0 56 38.5 92.5t94.5 36.5t94.5 -37.5t38.5 -93.5t-39.5 -93.5t-95.5 -37.5zM1049 1423h174v-895q0 -114 -34 -212.5
t-98.5 -174.5t-168.5 -120t-234 -44q-131 0 -235 43.5t-168.5 119.5t-98.5 174.5t-34 213.5v895h176v-895q0 -111 38.5 -197t121.5 -138t200 -52q173 0 267 108.5t94 278.5v895z" />
    <glyph glyph-name="Yacute" unicode="&#xdd;" horiz-adv-x="1257" 
d="M930 1739l-516 -178l-41 127l512 194zM1245 1423l-530 -839v-584h-174v588l-529 835h197l422 -690l418 690h196z" />
    <glyph glyph-name="Thorn" unicode="&#xde;" horiz-adv-x="1239" 
d="M696 1139q213 0 338 -113t125 -303q0 -189 -125.5 -301.5t-337.5 -112.5h-354v-309h-174v1423h174v-284h354zM688 465q140 0 216.5 70t76.5 188q0 119 -76.5 189.5t-216.5 70.5h-346v-518h346z" />
    <glyph glyph-name="germandbls" unicode="&#xdf;" horiz-adv-x="1253" 
d="M885 803q129 -37 210 -149.5t81 -262.5q0 -191 -123.5 -302.5t-317.5 -111.5q-136 0 -224.5 61t-129.5 165l45 125q31 -94 103 -149.5t184 -55.5q129 0 207.5 79.5t78.5 207.5q0 137 -89.5 224t-256.5 87v143q135 0 208 77t73 181q0 113 -78 181.5t-207 68.5
q-153 0 -241.5 -93t-88.5 -255v-1024h-174v1014q0 234 137.5 370t376.5 136q208 0 329.5 -107t121.5 -274q0 -113 -60.5 -205.5t-164.5 -130.5z" />
    <glyph glyph-name="agrave" unicode="&#xe0;" horiz-adv-x="1323" 
d="M887 1333l-72 -112l-436 254l80 127zM1016 1079h162v-1079h-162v207q-63 -109 -167.5 -169.5t-238.5 -60.5q-230 0 -380 160.5t-150 403.5q0 239 150.5 395t379.5 156q135 0 239.5 -58t166.5 -164v209zM631 131q167 0 273 114.5t106 295.5q0 180 -105.5 293.5
t-273.5 113.5q-162 0 -270.5 -116.5t-108.5 -290.5q0 -177 108 -293.5t271 -116.5z" />
    <glyph glyph-name="aacute" unicode="&#xe1;" horiz-adv-x="1323" 
d="M915 1475l-436 -254l-71 112l428 269zM1016 1079h162v-1079h-162v207q-63 -109 -167.5 -169.5t-238.5 -60.5q-230 0 -380 160.5t-150 403.5q0 239 150.5 395t379.5 156q135 0 239.5 -58t166.5 -164v209zM631 131q167 0 273 114.5t106 295.5q0 180 -105.5 293.5
t-273.5 113.5q-162 0 -270.5 -116.5t-108.5 -290.5q0 -177 108 -293.5t271 -116.5z" />
    <glyph glyph-name="acircumflex" unicode="&#xe2;" horiz-adv-x="1323" 
d="M655 1468l-182 -219h-160l271 326h147l266 -326h-159zM1016 1079h162v-1079h-162v207q-63 -109 -167.5 -169.5t-238.5 -60.5q-230 0 -380 160.5t-150 403.5q0 239 150.5 395t379.5 156q135 0 239.5 -58t166.5 -164v209zM631 131q167 0 273 114.5t106 295.5
q0 180 -105.5 293.5t-273.5 113.5q-162 0 -270.5 -116.5t-108.5 -290.5q0 -177 108 -293.5t271 -116.5z" />
    <glyph glyph-name="atilde" unicode="&#xe3;" horiz-adv-x="1323" 
d="M539 1393q-43 0 -71.5 -27.5t-37.5 -71.5l-123 52q16 79 68 135.5t141 56.5q41 0 77.5 -16t59 -36t54 -36t63.5 -16q43 0 71.5 27.5t37.5 70.5l122 -51q-18 -81 -68.5 -137t-139.5 -56q-43 0 -80.5 16.5t-60 36t-53 36t-60.5 16.5zM1016 1079h162v-1079h-162v207
q-63 -109 -167.5 -169.5t-238.5 -60.5q-230 0 -380 160.5t-150 403.5q0 239 150.5 395t379.5 156q135 0 239.5 -58t166.5 -164v209zM631 131q167 0 273 114.5t106 295.5q0 180 -105.5 293.5t-273.5 113.5q-162 0 -270.5 -116.5t-108.5 -290.5q0 -177 108 -293.5t271 -116.5z
" />
    <glyph glyph-name="adieresis" unicode="&#xe4;" horiz-adv-x="1323" 
d="M451 1282q-54 0 -93 38t-39 95q0 55 40 91t96 36q53 0 91 -37.5t38 -93.5q0 -55 -38.5 -92t-94.5 -37zM856 1282q-54 0 -92.5 38t-38.5 95q0 55 39 91t94 36t93 -37.5t38 -93.5q0 -55 -38.5 -92t-94.5 -37zM1016 1079h162v-1079h-162v207q-63 -109 -167.5 -169.5
t-238.5 -60.5q-230 0 -380 160.5t-150 403.5q0 239 150.5 395t379.5 156q135 0 239.5 -58t166.5 -164v209zM631 131q167 0 273 114.5t106 295.5q0 180 -105.5 293.5t-273.5 113.5q-162 0 -270.5 -116.5t-108.5 -290.5q0 -177 108 -293.5t271 -116.5z" />
    <glyph glyph-name="aring" unicode="&#xe5;" horiz-adv-x="1323" 
d="M655 1190q-94 0 -154.5 58t-60.5 149q0 89 60.5 148t154.5 59t154.5 -59t60.5 -148q0 -91 -60.5 -149t-154.5 -58zM655 1501q-46 0 -76 -30t-30 -74q0 -45 30.5 -75t75.5 -30q46 0 76.5 30.5t30.5 74.5t-30.5 74t-76.5 30zM1016 1079h162v-1079h-162v207
q-63 -109 -167.5 -169.5t-238.5 -60.5q-230 0 -380 160.5t-150 403.5q0 239 150.5 395t379.5 156q135 0 239.5 -58t166.5 -164v209zM631 131q167 0 273 114.5t106 295.5q0 180 -105.5 293.5t-273.5 113.5q-162 0 -270.5 -116.5t-108.5 -290.5q0 -177 108 -293.5t271 -116.5z
" />
    <glyph glyph-name="ae" unicode="&#xe6;" horiz-adv-x="2172" 
d="M1200 492q15 -167 120.5 -270t260.5 -103q270 0 356 219l144 -62q-55 -139 -173 -219t-298 -80q-152 0 -261 62.5t-171 175.5v-215h-162v207q-63 -109 -167.5 -169.5t-238.5 -60.5q-230 0 -380 160.5t-150 403.5q0 158 68.5 286t190 201.5t271.5 73.5q134 0 238.5 -60
t167.5 -168v205h162v-225q61 117 168 182.5t249 65.5q150 0 266 -74t176 -196t60 -269q0 -39 -4 -71h-893zM1200 600h739q-11 166 -109.5 268.5t-252.5 102.5t-257 -102t-120 -269zM631 131q167 0 273 114.5t106 295.5q0 180 -105.5 293.5t-273.5 113.5
q-162 0 -270.5 -116.5t-108.5 -290.5q0 -177 108 -293.5t271 -116.5z" />
    <glyph glyph-name="ccedilla" unicode="&#xe7;" horiz-adv-x="1175" 
d="M1128 311q-40 -128 -155.5 -221t-280.5 -110l-37 -89q79 -3 129 -55.5t50 -128.5q0 -86 -64.5 -142.5t-169.5 -56.5q-144 0 -223 95l63 75q53 -67 140 -67q57 0 91 31t34 77q0 48 -36.5 81.5t-93.5 33.5h-34l-15 16l56 130q-221 19 -362.5 175t-141.5 384
q0 240 157.5 400.5t395.5 160.5q186 0 316.5 -96.5t174.5 -239.5l-155 -62q-34 113 -122 177.5t-210 64.5q-164 0 -272.5 -113.5t-108.5 -291.5q0 -179 108.5 -292.5t274.5 -113.5q124 0 213 64.5t123 177.5z" />
    <glyph glyph-name="egrave" unicode="&#xe8;" horiz-adv-x="1214" 
d="M852 1331l-70 -112l-436 254l80 126zM246 475q23 -150 130 -243t257 -93q129 0 208 48.5t120 144.5l151 -92q-138 -265 -485 -265q-163 0 -290.5 73.5t-197 202t-69.5 288.5q0 154 72 284t197 205.5t275 75.5q119 0 220.5 -44.5t169 -119t105.5 -172.5t38 -205
q0 -48 -4 -88h-897zM248 627h721q-20 150 -115.5 237.5t-232.5 87.5q-140 0 -244.5 -87.5t-128.5 -237.5z" />
    <glyph glyph-name="eacute" unicode="&#xe9;" horiz-adv-x="1214" 
d="M881 1473l-435 -254l-71 112l426 268zM246 475q23 -150 130 -243t257 -93q129 0 208 48.5t120 144.5l151 -92q-138 -265 -485 -265q-163 0 -290.5 73.5t-197 202t-69.5 288.5q0 154 72 284t197 205.5t275 75.5q119 0 220.5 -44.5t169 -119t105.5 -172.5t38 -205
q0 -48 -4 -88h-897zM248 627h721q-20 150 -115.5 237.5t-232.5 87.5q-140 0 -244.5 -87.5t-128.5 -237.5z" />
    <glyph glyph-name="ecircumflex" unicode="&#xea;" horiz-adv-x="1214" 
d="M623 1466l-185 -219h-157l268 326h149l265 -326h-158zM246 475q23 -150 130 -243t257 -93q129 0 208 48.5t120 144.5l151 -92q-138 -265 -485 -265q-163 0 -290.5 73.5t-197 202t-69.5 288.5q0 154 72 284t197 205.5t275 75.5q119 0 220.5 -44.5t169 -119t105.5 -172.5
t38 -205q0 -48 -4 -88h-897zM248 627h721q-20 150 -115.5 237.5t-232.5 87.5q-140 0 -244.5 -87.5t-128.5 -237.5z" />
    <glyph glyph-name="edieresis" unicode="&#xeb;" horiz-adv-x="1214" 
d="M418 1280q-55 0 -93 37.5t-38 95.5q0 55 38.5 91t94.5 36q54 0 91.5 -37t37.5 -94q0 -55 -38 -92t-93 -37zM821 1280q-54 0 -92.5 38t-38.5 95q0 55 39 91t94 36q56 0 94.5 -37.5t38.5 -93.5q0 -55 -39.5 -92t-95.5 -37zM246 475q23 -150 130 -243t257 -93
q129 0 208 48.5t120 144.5l151 -92q-138 -265 -485 -265q-163 0 -290.5 73.5t-197 202t-69.5 288.5q0 154 72 284t197 205.5t275 75.5q119 0 220.5 -44.5t169 -119t105.5 -172.5t38 -205q0 -48 -4 -88h-897zM248 627h721q-20 150 -115.5 237.5t-232.5 87.5
q-140 0 -244.5 -87.5t-128.5 -237.5z" />
    <glyph glyph-name="igrave" unicode="&#xec;" horiz-adv-x="462" 
d="M391 1219l-434 254l80 129l426 -269zM145 0v1079h174v-1079h-174z" />
    <glyph glyph-name="iacute" unicode="&#xed;" horiz-adv-x="462" 
d="M55 1219l-69 114l426 269l80 -129zM145 0v1079h174v-1079h-174z" />
    <glyph glyph-name="icircumflex" unicode="&#xee;" horiz-adv-x="462" 
d="M307 1575l266 -326h-159l-183 217l-182 -217h-160l271 326h147zM145 0v1079h174v-1079h-174z" />
    <glyph glyph-name="idieresis" unicode="&#xef;" horiz-adv-x="462" 
d="M27 1282q-54 0 -92.5 37.5t-38.5 93.5t39.5 92.5t95.5 36.5q53 0 91 -38t38 -93t-38.5 -92t-94.5 -37zM432 1282q-54 0 -92.5 37.5t-38.5 93.5t39 92.5t94 36.5q54 0 92.5 -38t38.5 -93t-38.5 -92t-94.5 -37zM145 0v1079h174v-1079h-174z" />
    <glyph glyph-name="eth" unicode="&#xf0;" horiz-adv-x="1286" 
d="M690 1468q237 -132 373.5 -367t136.5 -521q0 -282 -155 -442.5t-406 -160.5q-161 0 -290 72.5t-200 197t-71 275.5q0 152 71.5 277t199.5 197.5t286 72.5q212 0 338 -137q-55 137 -158.5 244t-243.5 176l-227 -228l-88 90l188 189q-165 53 -350 53l70 143q212 0 403 -73
l166 166l90 -90zM641 133q171 0 277 108.5t106 286.5q0 164 -107 273.5t-276 109.5q-170 0 -278.5 -111t-108.5 -278q0 -166 108.5 -277.5t278.5 -111.5z" />
    <glyph glyph-name="ntilde" unicode="&#xf1;" horiz-adv-x="1251" 
d="M526 1391q-43 0 -71 -27t-37 -72l-123 51q18 79 70 136t139 57q41 0 78 -16t59.5 -36t53.5 -36t63 -16q42 0 70.5 27.5t37.5 70.5l125 -51q-20 -82 -71.5 -137.5t-139.5 -55.5q-43 0 -80.5 16.5t-60 36t-53 36t-60.5 16.5zM682 1102q205 0 321.5 -120t116.5 -323v-659
h-174v629q0 151 -82 235t-227 82q-135 0 -225.5 -83t-92.5 -195v-668h-174v1079h164v-157q55 81 152 130.5t221 49.5z" />
    <glyph glyph-name="ograve" unicode="&#xf2;" horiz-adv-x="1280" 
d="M803 1219l-434 254l77 126l428 -268zM639 -23q-161 0 -289.5 73t-200 201.5t-71.5 287.5q0 244 158 403.5t403 159.5t403 -159.5t158 -403.5q0 -159 -71.5 -287.5t-200 -201.5t-289.5 -73zM641 133q170 0 277.5 114t107.5 292q0 179 -107 293t-278 114t-279 -114
t-108 -293q0 -178 108 -292t279 -114z" />
    <glyph glyph-name="oacute" unicode="&#xf3;" horiz-adv-x="1280" 
d="M467 1219l-70 112l426 268l80 -126zM639 -23q-161 0 -289.5 73t-200 201.5t-71.5 287.5q0 244 158 403.5t403 159.5t403 -159.5t158 -403.5q0 -159 -71.5 -287.5t-200 -201.5t-289.5 -73zM641 133q170 0 277.5 114t107.5 292q0 179 -107 293t-278 114t-279 -114
t-108 -293q0 -178 108 -292t279 -114z" />
    <glyph glyph-name="ocircumflex" unicode="&#xf4;" horiz-adv-x="1280" 
d="M643 1466l-182 -219h-160l270 326h148l266 -326h-160zM639 1102q245 0 403 -159.5t158 -403.5q0 -159 -71.5 -287.5t-200 -201.5t-289.5 -73t-289.5 73t-200 201.5t-71.5 287.5q0 244 158 403.5t403 159.5zM641 133q170 0 277.5 114t107.5 292q0 179 -107 293t-278 114
t-279 -114t-108 -293q0 -178 108 -292t279 -114z" />
    <glyph glyph-name="otilde" unicode="&#xf5;" horiz-adv-x="1280" 
d="M780 1286q-43 0 -80.5 16.5t-60 36t-53 36t-60.5 16.5q-43 0 -71 -27t-37 -72l-123 51q18 79 70 136t139 57q41 0 77.5 -16t59 -36t54 -36t63.5 -16q42 0 70.5 27.5t37.5 70.5l125 -51q-20 -82 -71.5 -137.5t-139.5 -55.5zM639 -23q-161 0 -289.5 73t-200 201.5
t-71.5 287.5q0 244 158 403.5t403 159.5t403 -159.5t158 -403.5q0 -159 -71.5 -287.5t-200 -201.5t-289.5 -73zM641 133q170 0 277.5 114t107.5 292q0 179 -107 293t-278 114t-279 -114t-108 -293q0 -178 108 -292t279 -114z" />
    <glyph glyph-name="odieresis" unicode="&#xf6;" horiz-adv-x="1280" 
d="M438 1280q-54 0 -92.5 38t-38.5 95q0 55 39.5 91t95.5 36q53 0 91 -37.5t38 -93.5q0 -55 -38.5 -92t-94.5 -37zM844 1280q-54 0 -92.5 38t-38.5 95q0 55 39 91t94 36t93 -37.5t38 -93.5q0 -55 -38.5 -92t-94.5 -37zM639 -23q-161 0 -289.5 73t-200 201.5t-71.5 287.5
q0 244 158 403.5t403 159.5t403 -159.5t158 -403.5q0 -159 -71.5 -287.5t-200 -201.5t-289.5 -73zM641 133q170 0 277.5 114t107.5 292q0 179 -107 293t-278 114t-279 -114t-108 -293q0 -178 108 -292t279 -114z" />
    <glyph glyph-name="divide" unicode="&#xf7;" horiz-adv-x="1087" 
d="M549 897q-51 0 -84 33t-33 84q0 52 33 85.5t84 33.5t85 -33.5t34 -85.5q0 -51 -34 -84t-85 -33zM117 555v152h854v-152h-854zM551 109q-50 0 -83.5 33.5t-33.5 82.5q0 52 33.5 86.5t83.5 34.5q52 0 85.5 -34t33.5 -87q0 -50 -33.5 -83t-85.5 -33z" />
    <glyph glyph-name="oslash" unicode="&#xf8;" horiz-adv-x="1316" 
d="M1260 981l-136 -119q95 -140 95 -323q0 -159 -71.5 -287.5t-200.5 -201.5t-290 -73q-228 0 -381 140l-133 -117l-86 96l133 117q-94 143 -94 326q0 244 157.5 403.5t403.5 159.5q228 0 385 -144l134 117zM270 539q0 -118 52 -211l596 522q-104 96 -261 96
q-170 0 -278.5 -114t-108.5 -293zM1042 539q0 120 -47 209l-594 -523q107 -92 256 -92q170 0 277.5 114t107.5 292z" />
    <glyph glyph-name="ugrave" unicode="&#xf9;" horiz-adv-x="1230" 
d="M825 1333l-71 -112l-437 254l80 127zM913 1079h174v-1079h-165v154q-57 -79 -151.5 -128t-209.5 -49q-203 0 -316.5 120t-113.5 317v665h174v-645q0 -137 82 -219.5t219 -81.5q132 0 218.5 80.5t88.5 187.5v678z" />
    <glyph glyph-name="uacute" unicode="&#xfa;" horiz-adv-x="1230" 
d="M854 1475l-436 -254l-72 112l428 269zM913 1079h174v-1079h-165v154q-57 -79 -151.5 -128t-209.5 -49q-203 0 -316.5 120t-113.5 317v665h174v-645q0 -137 82 -219.5t219 -81.5q132 0 218.5 80.5t88.5 187.5v678z" />
    <glyph glyph-name="ucircumflex" unicode="&#xfb;" horiz-adv-x="1230" 
d="M594 1468l-182 -219h-160l268 326h150l264 -326h-158zM913 1079h174v-1079h-165v154q-57 -79 -151.5 -128t-209.5 -49q-203 0 -316.5 120t-113.5 317v665h174v-645q0 -137 82 -219.5t219 -81.5q132 0 218.5 80.5t88.5 187.5v678z" />
    <glyph glyph-name="udieresis" unicode="&#xfc;" horiz-adv-x="1230" 
d="M389 1282q-54 0 -92.5 38t-38.5 95q0 55 39 91t94 36t93 -37.5t38 -93.5q0 -55 -39 -92t-94 -37zM795 1282q-55 0 -93 37.5t-38 95.5q0 55 38.5 91t94.5 36q55 0 93 -37.5t38 -93.5q0 -55 -39 -92t-94 -37zM913 1079h174v-1079h-165v154q-57 -79 -151.5 -128t-209.5 -49
q-203 0 -316.5 120t-113.5 317v665h174v-645q0 -137 82 -219.5t219 -81.5q132 0 218.5 80.5t88.5 187.5v678z" />
    <glyph glyph-name="yacute" unicode="&#xfd;" horiz-adv-x="1112" 
d="M815 1475l-434 -254l-72 112l426 269zM913 1079h183l-590 -1446h-172l153 367h-47l-422 1079h183l348 -932z" />
    <glyph glyph-name="thorn" unicode="&#xfe;" horiz-adv-x="1323" 
d="M715 1102q229 0 378.5 -160.5t149.5 -402.5q0 -159 -68.5 -287.5t-190.5 -201.5t-273 -73q-125 0 -226 52t-166 147v-543h-174v1864h174v-598q65 96 167.5 149.5t228.5 53.5zM692 133q161 0 268 116t107 290q0 177 -106.5 292t-268.5 115q-167 0 -273 -113.5t-106 -293.5
t105 -293t274 -113z" />
    <glyph glyph-name="ydieresis" unicode="&#xff;" horiz-adv-x="1112" 
d="M352 1282q-55 0 -93 37.5t-38 95.5q0 55 38.5 91t94.5 36q54 0 91.5 -37t37.5 -94q0 -55 -38 -92t-93 -37zM756 1282q-54 0 -92.5 38t-38.5 95q0 55 39 91t94 36q56 0 94.5 -37.5t38.5 -93.5q0 -55 -39.5 -92t-95.5 -37zM913 1079h183l-590 -1446h-172l153 367h-47
l-422 1079h183l348 -932z" />
    <glyph glyph-name="Amacron" unicode="&#x100;" horiz-adv-x="1280" 
d="M952 1792v-143h-628v143h628zM1090 0l-148 408h-602l-147 -408h-175l517 1423h210l517 -1423h-172zM393 551h496l-248 686z" />
    <glyph glyph-name="amacron" unicode="&#x101;" horiz-adv-x="1323" 
d="M954 1485v-142h-598v142h598zM1016 1079h162v-1079h-162v207q-63 -109 -167.5 -169.5t-238.5 -60.5q-230 0 -380 160.5t-150 403.5q0 239 150.5 395t379.5 156q135 0 239.5 -58t166.5 -164v209zM631 131q167 0 273 114.5t106 295.5q0 180 -105.5 293.5t-273.5 113.5
q-162 0 -270.5 -116.5t-108.5 -290.5q0 -177 108 -293.5t271 -116.5z" />
    <glyph glyph-name="Abreve" unicode="&#x102;" horiz-adv-x="1280" 
d="M639 1573q-138 0 -221.5 84t-83.5 209h145q0 -67 43 -113.5t117 -46.5q73 0 116.5 46.5t43.5 113.5h143q0 -125 -83 -209t-220 -84zM1090 0l-148 408h-602l-147 -408h-175l517 1423h210l517 -1423h-172zM393 551h496l-248 686z" />
    <glyph glyph-name="abreve" unicode="&#x103;" horiz-adv-x="1323" 
d="M655 1249q-142 0 -227.5 90t-85.5 236h139q0 -88 48.5 -140.5t125.5 -52.5t125.5 52.5t48.5 140.5h140q0 -146 -86 -236t-228 -90zM1016 1079h162v-1079h-162v207q-63 -109 -167.5 -169.5t-238.5 -60.5q-230 0 -380 160.5t-150 403.5q0 239 150.5 395t379.5 156
q135 0 239.5 -58t166.5 -164v209zM631 131q167 0 273 114.5t106 295.5q0 180 -105.5 293.5t-273.5 113.5q-162 0 -270.5 -116.5t-108.5 -290.5q0 -177 108 -293.5t271 -116.5z" />
    <glyph glyph-name="Aogonek" unicode="&#x104;" horiz-adv-x="1280" 
d="M1270 -311l67 -84q-62 -72 -186 -72q-92 0 -147.5 52t-55.5 136q0 66 40 129t128 138l14 12h-40l-148 408h-602l-147 -408h-175l517 1423h210l517 -1423l-70 -70q-62 -62 -86.5 -103t-24.5 -81q0 -44 26.5 -71t68.5 -27q59 0 94 41zM393 551h496l-248 686z" />
    <glyph glyph-name="aogonek" unicode="&#x105;" horiz-adv-x="1323" 
d="M1186 -311l67 -84q-62 -72 -186 -72q-93 0 -149 52t-56 136q0 65 40.5 128t129.5 139l15 12h-31v207q-63 -109 -167.5 -169.5t-238.5 -60.5q-230 0 -380 160.5t-150 403.5q0 239 150.5 395t379.5 156q135 0 239.5 -58t166.5 -164v209h162v-1079l-72 -70
q-61 -63 -85 -103.5t-24 -80.5q0 -44 26.5 -71t68.5 -27q59 0 94 41zM631 131q167 0 273 114.5t106 295.5q0 180 -105.5 293.5t-273.5 113.5q-162 0 -270.5 -116.5t-108.5 -290.5q0 -177 108 -293.5t271 -116.5z" />
    <glyph glyph-name="Cacute" unicode="&#x106;" horiz-adv-x="1492" 
d="M569 1561l-41 127l512 194l45 -143zM803 -23q-203 0 -365.5 93t-255 261t-92.5 380t92.5 380.5t253.5 261.5t361 93q245 0 409 -123.5t234 -327.5l-168 -69q-119 354 -477 354q-229 0 -378 -158.5t-149 -410.5q0 -251 149.5 -409.5t381.5 -158.5q354 0 473 355l168 -70
q-72 -207 -232 -329t-405 -122z" />
    <glyph glyph-name="cacute" unicode="&#x107;" horiz-adv-x="1175" 
d="M457 1221l-70 112l426 269l80 -127zM633 -23q-239 0 -397 159.5t-158 402.5q0 240 157.5 400.5t395.5 160.5q186 0 316.5 -96.5t174.5 -239.5l-155 -62q-34 113 -122 177.5t-210 64.5q-164 0 -272.5 -113.5t-108.5 -291.5q0 -179 108.5 -292.5t274.5 -113.5
q124 0 213 64.5t123 177.5l155 -64q-44 -141 -176 -237.5t-319 -96.5z" />
    <glyph glyph-name="Cdotaccent" unicode="&#x10a;" horiz-adv-x="1492" 
d="M784 1587q-55 0 -93 37.5t-38 95.5q0 56 38.5 92.5t96.5 36.5q55 0 92.5 -37.5t37.5 -93.5q0 -57 -38.5 -94t-95.5 -37zM803 -23q-203 0 -365.5 93t-255 261t-92.5 380t92.5 380.5t253.5 261.5t361 93q245 0 409 -123.5t234 -327.5l-168 -69q-119 354 -477 354
q-229 0 -378 -158.5t-149 -410.5q0 -251 149.5 -409.5t381.5 -158.5q354 0 473 355l168 -70q-72 -207 -232 -329t-405 -122z" />
    <glyph glyph-name="cdotaccent" unicode="&#x10b;" horiz-adv-x="1175" 
d="M633 1280q-59 0 -98 37.5t-39 95.5t39 96.5t98 38.5t99 -38.5t40 -96.5t-40 -95.5t-99 -37.5zM633 -23q-239 0 -397 159.5t-158 402.5q0 240 157.5 400.5t395.5 160.5q186 0 316.5 -96.5t174.5 -239.5l-155 -62q-34 113 -122 177.5t-210 64.5q-164 0 -272.5 -113.5
t-108.5 -291.5q0 -179 108.5 -292.5t274.5 -113.5q124 0 213 64.5t123 177.5l155 -64q-44 -141 -176 -237.5t-319 -96.5z" />
    <glyph glyph-name="Ccaron" unicode="&#x10c;" horiz-adv-x="1492" 
d="M858 1573h-141l-273 293h164l178 -178l179 178h161zM799 143q354 0 473 355l168 -70q-72 -207 -232 -329t-405 -122q-203 0 -365.5 93t-255 261t-92.5 380t92.5 380.5t253.5 261.5t361 93q245 0 409 -123.5t234 -327.5l-168 -69q-119 354 -477 354q-229 0 -378 -158.5
t-149 -410.5q0 -251 149.5 -409.5t381.5 -158.5z" />
    <glyph glyph-name="ccaron" unicode="&#x10d;" horiz-adv-x="1175" 
d="M709 1249h-148l-270 326h160l182 -217l182 217h160zM973 375l155 -64q-44 -141 -176 -237.5t-319 -96.5q-239 0 -397 159.5t-158 402.5q0 240 157.5 400.5t395.5 160.5q186 0 316.5 -96.5t174.5 -239.5l-155 -62q-34 113 -122 177.5t-210 64.5q-164 0 -272.5 -113.5
t-108.5 -291.5q0 -179 108.5 -292.5t274.5 -113.5q124 0 213 64.5t123 177.5z" />
    <glyph glyph-name="Dcaron" unicode="&#x10e;" horiz-adv-x="1470" 
d="M766 1573h-141l-273 293h162l178 -183l180 183h162zM682 1423q150 0 278.5 -51t220.5 -142.5t144.5 -224.5t52.5 -292q0 -211 -90 -374t-248 -251t-358 -88h-514v1423h514zM678 156q231 0 377.5 151t146.5 404q0 252 -147 404.5t-377 152.5h-336v-1112h336z" />
    <glyph glyph-name="dcaron" unicode="&#x10f;" horiz-adv-x="1431" 
d="M1004 897v600h174v-1497h-162v199q-64 -105 -169.5 -163.5t-236.5 -58.5q-230 0 -380 160.5t-150 403.5q0 158 67.5 286t188 201.5t270.5 73.5q128 0 230.5 -53.5t167.5 -151.5zM1364 1497h127l-53 -461h-115zM631 131q167 0 273 114.5t106 295.5q0 180 -105.5 293.5
t-273.5 113.5q-162 0 -270.5 -116.5t-108.5 -290.5q0 -177 108 -293.5t271 -116.5z" />
    <glyph glyph-name="Dcroat" unicode="&#x110;" horiz-adv-x="1486" 
d="M698 1423q150 0 278.5 -51t221 -142.5t145 -224.5t52.5 -292t-52.5 -292.5t-144.5 -225.5t-221 -143.5t-279 -51.5h-514v674h-147v127h147v622h514zM694 156q230 0 377.5 151.5t147.5 403.5q0 251 -148 404t-377 153h-336v-467h322v-127h-322v-518h336z" />
    <glyph glyph-name="dcroat" unicode="&#x111;" horiz-adv-x="1323" 
d="M1327 1339v-125h-149v-1214h-162v199q-64 -105 -169.5 -163.5t-236.5 -58.5q-230 0 -380 160.5t-150 403.5q0 158 67.5 286t188 201.5t270.5 73.5q128 0 230.5 -53.5t167.5 -151.5v317h-322v125h322v158h174v-158h149zM631 131q167 0 273 114.5t106 295.5
q0 180 -105.5 293.5t-273.5 113.5q-162 0 -270.5 -116.5t-108.5 -290.5q0 -177 108 -293.5t271 -116.5z" />
    <glyph glyph-name="Emacron" unicode="&#x112;" horiz-adv-x="1146" 
d="M926 1792v-143h-629v143h629zM342 154h727v-154h-901v1423h889v-153h-715v-457h645v-154h-645v-505z" />
    <glyph glyph-name="emacron" unicode="&#x113;" horiz-adv-x="1214" 
d="M920 1483v-142h-598v142h598zM246 475q23 -150 130 -243t257 -93q129 0 208 48.5t120 144.5l151 -92q-138 -265 -485 -265q-163 0 -290.5 73.5t-197 202t-69.5 288.5q0 154 72 284t197 205.5t275 75.5q119 0 220.5 -44.5t169 -119t105.5 -172.5t38 -205q0 -48 -4 -88
h-897zM248 627h721q-20 150 -115.5 237.5t-232.5 87.5q-140 0 -244.5 -87.5t-128.5 -237.5z" />
    <glyph glyph-name="Edotaccent" unicode="&#x116;" horiz-adv-x="1146" 
d="M610 1587q-55 0 -93 37.5t-38 95.5q0 56 38.5 92.5t94.5 36.5t93.5 -37t37.5 -94t-38 -94t-95 -37zM342 154h727v-154h-901v1423h889v-153h-715v-457h645v-154h-645v-505z" />
    <glyph glyph-name="edotaccent" unicode="&#x117;" horiz-adv-x="1214" 
d="M623 1278q-59 0 -99.5 37.5t-40.5 95.5t40.5 96.5t99.5 38.5q58 0 97.5 -38.5t39.5 -96.5t-39.5 -95.5t-97.5 -37.5zM246 475q23 -150 130 -243t257 -93q129 0 208 48.5t120 144.5l151 -92q-138 -265 -485 -265q-163 0 -290.5 73.5t-197 202t-69.5 288.5q0 154 72 284
t197 205.5t275 75.5q119 0 220.5 -44.5t169 -119t105.5 -172.5t38 -205q0 -48 -4 -88h-897zM248 627h721q-20 150 -115.5 237.5t-232.5 87.5q-140 0 -244.5 -87.5t-128.5 -237.5z" />
    <glyph glyph-name="Eogonek" unicode="&#x118;" horiz-adv-x="1146" 
d="M1077 -311l68 -84q-62 -72 -189 -72q-92 0 -147 52t-55 136q0 65 40 128t128 139l14 12h-768v1423h889v-153h-715v-457h645v-154h-645v-505h727v-154l-72 -70q-61 -62 -84.5 -103t-23.5 -81q0 -44 26 -71t66 -27q61 0 96 41z" />
    <glyph glyph-name="eogonek" unicode="&#x119;" horiz-adv-x="1214" 
d="M246 475q23 -150 130 -243t257 -93q129 0 208 48.5t120 144.5l151 -92q-93 -175 -274 -234l-60 -59q-62 -62 -86 -103t-24 -82q0 -43 26.5 -69.5t67.5 -26.5q64 0 94 41l68 -84q-64 -74 -187 -74q-91 0 -146.5 53t-55.5 136q0 116 137 239q-14 -2 -45 -2
q-163 0 -290.5 73.5t-197 202t-69.5 288.5q0 154 72 284t197 205.5t275 75.5q119 0 220.5 -44.5t169 -119t105.5 -172.5t38 -205q0 -48 -4 -88h-897zM248 627h721q-20 150 -115.5 237.5t-232.5 87.5q-140 0 -244.5 -87.5t-128.5 -237.5z" />
    <glyph glyph-name="Ecaron" unicode="&#x11a;" horiz-adv-x="1146" 
d="M684 1573h-141l-273 293h162l178 -180l181 180h161zM342 154h727v-154h-901v1423h889v-153h-715v-457h645v-154h-645v-505z" />
    <glyph glyph-name="ecaron" unicode="&#x11b;" horiz-adv-x="1214" 
d="M698 1247h-149l-268 326h157l185 -217l182 217h158zM246 475q23 -150 130 -243t257 -93q129 0 208 48.5t120 144.5l151 -92q-138 -265 -485 -265q-163 0 -290.5 73.5t-197 202t-69.5 288.5q0 154 72 284t197 205.5t275 75.5q119 0 220.5 -44.5t169 -119t105.5 -172.5
t38 -205q0 -48 -4 -88h-897zM248 627h721q-20 150 -115.5 237.5t-232.5 87.5q-140 0 -244.5 -87.5t-128.5 -237.5z" />
    <glyph glyph-name="Gbreve" unicode="&#x11e;" horiz-adv-x="1576" 
d="M795 1573q-138 0 -222 84t-84 209h146q0 -67 43.5 -113.5t116.5 -46.5q74 0 116.5 46t42.5 114h146q0 -125 -83.5 -209t-221.5 -84zM1499 737q0 -172 -53.5 -316t-147.5 -240.5t-222.5 -150t-276.5 -53.5q-151 0 -282.5 55t-225.5 151t-147.5 233t-53.5 295q0 212 92 380
t254 261.5t363 93.5q240 0 402.5 -118t238.5 -316l-168 -70q-61 165 -181.5 251.5t-295.5 86.5q-230 0 -378.5 -159.5t-148.5 -411.5q0 -255 151 -414.5t394 -159.5q206 0 345.5 123.5t172.5 343.5h-536v135h704z" />
    <glyph glyph-name="gbreve" unicode="&#x11f;" horiz-adv-x="1320" 
d="M653 1249q-142 0 -227.5 90t-85.5 236h139q0 -88 48.5 -140.5t125.5 -52.5t125.5 52.5t48.5 140.5h140q0 -146 -86 -236t-228 -90zM1016 1079h162v-938q0 -243 -148 -386.5t-407 -143.5q-202 0 -332.5 86t-184.5 242l150 57q39 -117 134.5 -177.5t234.5 -60.5
q181 0 286 99t105 270v106q-63 -106 -167 -165.5t-237 -59.5q-230 0 -381 157t-151 390q0 151 68.5 276t190.5 198t273 73q133 0 237 -59t167 -164v200zM629 145q165 0 271 113.5t106 288.5t-104.5 288t-268.5 113q-162 0 -270.5 -115t-108.5 -286q0 -172 107 -287t268 -115
z" />
    <glyph glyph-name="Gdotaccent" unicode="&#x120;" horiz-adv-x="1576" 
d="M795 1587q-55 0 -93 37.5t-38 95.5q0 56 38.5 92.5t94.5 36.5t93.5 -37t37.5 -94q0 -56 -38.5 -93.5t-94.5 -37.5zM1499 737q0 -172 -53.5 -316t-147.5 -240.5t-222.5 -150t-276.5 -53.5q-151 0 -282.5 55t-225.5 151t-147.5 233t-53.5 295q0 212 92 380t254 261.5
t363 93.5q240 0 402.5 -118t238.5 -316l-168 -70q-61 165 -181.5 251.5t-295.5 86.5q-230 0 -378.5 -159.5t-148.5 -411.5q0 -255 151 -414.5t394 -159.5q206 0 345.5 123.5t172.5 343.5h-536v135h704z" />
    <glyph glyph-name="gdotaccent" unicode="&#x121;" horiz-adv-x="1320" 
d="M653 1280q-59 0 -98 37.5t-39 95.5t39 96.5t98 38.5t98.5 -38.5t39.5 -96.5t-39.5 -95.5t-98.5 -37.5zM1016 1079h162v-938q0 -243 -148 -386.5t-407 -143.5q-202 0 -332.5 86t-184.5 242l150 57q39 -117 134.5 -177.5t234.5 -60.5q181 0 286 99t105 270v106
q-63 -106 -167 -165.5t-237 -59.5q-230 0 -381 157t-151 390q0 151 68.5 276t190.5 198t273 73q133 0 237 -59t167 -164v200zM629 145q165 0 271 113.5t106 288.5t-104.5 288t-268.5 113q-162 0 -270.5 -115t-108.5 -286q0 -172 107 -287t268 -115z" />
    <glyph glyph-name="uni0122" unicode="&#x122;" horiz-adv-x="1576" 
d="M1499 737q0 -172 -53.5 -316t-147.5 -240.5t-222.5 -150t-276.5 -53.5q-151 0 -282.5 55t-225.5 151t-147.5 233t-53.5 295q0 212 92 380t254 261.5t363 93.5q240 0 402.5 -118t238.5 -316l-168 -70q-61 165 -181.5 251.5t-295.5 86.5q-230 0 -378.5 -159.5
t-148.5 -411.5q0 -255 151 -414.5t394 -159.5q206 0 345.5 123.5t172.5 343.5h-536v135h704zM795 -100q46 0 77 -31t31 -80q0 -63 -59 -158l-76 -135l-86 33l76 137l5 10l3 7q-38 9 -61 38.5t-23 71.5q0 46 33 76.5t80 30.5z" />
    <glyph glyph-name="uni0123" unicode="&#x123;" horiz-adv-x="1320" 
d="M643 1229q-48 0 -79.5 31t-31.5 81q0 64 60 156l76 135l86 -33l-76 -137q-1 -1 -2.5 -4l-3 -6t-2.5 -6q37 -8 60.5 -38t23.5 -71q0 -47 -31.5 -77.5t-79.5 -30.5zM1016 1079h162v-938q0 -243 -148 -386.5t-407 -143.5q-202 0 -332.5 86t-184.5 242l150 57
q39 -117 134.5 -177.5t234.5 -60.5q181 0 286 99t105 270v106q-63 -106 -167 -165.5t-237 -59.5q-230 0 -381 157t-151 390q0 151 68.5 276t190.5 198t273 73q133 0 237 -59t167 -164v200zM629 145q165 0 271 113.5t106 288.5t-104.5 288t-268.5 113q-162 0 -270.5 -115
t-108.5 -286q0 -172 107 -287t268 -115z" />
    <glyph glyph-name="Hbar" unicode="&#x126;" horiz-adv-x="1449" 
d="M1393 1202v-141h-131v-1061h-177v659h-720v-659h-177v1061h-131v141h131v221h177v-221h720v221h177v-221h131zM1085 815v246h-720v-246h720z" />
    <glyph glyph-name="hbar" unicode="&#x127;" horiz-adv-x="1251" 
d="M682 1102q205 0 321.5 -120t116.5 -323v-659h-174v629q0 151 -82 235t-227 82q-135 0 -225.5 -83t-92.5 -195v-668h-174v1214h-149v125h149v158h174v-158h322v-125h-322v-278q57 75 151 120.5t212 45.5z" />
    <glyph glyph-name="Itilde" unicode="&#x128;" horiz-adv-x="509" 
d="M373 1585q-40 0 -74 16.5t-54.5 36t-48 36t-55.5 16.5q-40 0 -64 -27t-32 -72l-111 51q16 77 66.5 135t130.5 58q38 0 71.5 -16.5t53.5 -35.5t48 -35.5t56 -16.5q40 0 65.5 27.5t33.5 70.5l110 -51q-17 -80 -66 -136.5t-130 -56.5zM168 0v1423h174v-1423h-174z" />
    <glyph glyph-name="itilde" unicode="&#x129;" horiz-adv-x="462" 
d="M342 1288q-35 0 -66 16.5t-49.5 36t-43.5 36t-50 16.5q-35 0 -58.5 -28t-29.5 -71l-102 52q14 78 57.5 135t114.5 57q34 0 64 -16t48.5 -36t44.5 -36t52 -16q36 0 59 27t31 71l102 -51q-16 -81 -58.5 -137t-115.5 -56zM145 0v1079h174v-1079h-174z" />
    <glyph glyph-name="Imacron" unicode="&#x12a;" horiz-adv-x="509" 
d="M18 1649v143h482v-143h-482zM168 0v1423h174v-1423h-174z" />
    <glyph glyph-name="imacron" unicode="&#x12b;" horiz-adv-x="462" 
d="M-8 1341v142h479v-142h-479zM145 0v1079h174v-1079h-174z" />
    <glyph glyph-name="Iogonek" unicode="&#x12e;" horiz-adv-x="509" 
d="M350 -311l68 -84q-62 -72 -187 -72q-93 0 -148.5 52t-55.5 136q0 65 40.5 128t129.5 139l14 12h-43v1423h174v-1423l-72 -70q-61 -62 -84.5 -103t-23.5 -81q0 -44 26 -71t68 -27q59 0 94 41z" />
    <glyph glyph-name="iogonek" unicode="&#x12f;" horiz-adv-x="466" 
d="M231 1278q-59 0 -98 37.5t-39 95.5q0 60 39 98.5t98 38.5t98.5 -38.5t39.5 -98.5q0 -58 -39.5 -95.5t-98.5 -37.5zM324 -311l67 -84q-62 -72 -186 -72q-92 0 -147.5 52t-55.5 136q0 66 40 129t128 138l14 12h-39v1079h174v-1079h-4l-69 -70q-62 -62 -86.5 -103t-24.5 -81
q0 -44 26 -71t68 -27q60 0 95 41z" />
    <glyph glyph-name="Idotaccent" unicode="&#x130;" horiz-adv-x="509" 
d="M254 1587q-55 0 -93 37.5t-38 95.5q0 56 38.5 92.5t96.5 36.5q54 0 91.5 -37.5t37.5 -93.5q0 -57 -38 -94t-95 -37zM168 0v1423h174v-1423h-174z" />
    <glyph glyph-name="dotlessi" unicode="&#x131;" horiz-adv-x="462" 
d="M145 0v1079h174v-1079h-174z" />
    <glyph glyph-name="IJ" unicode="&#x132;" horiz-adv-x="1196" 
d="M168 0v1423h174v-1423h-174zM553 0v156h96q102 0 158.5 62t56.5 177v1028h176v-1030q0 -185 -100 -289t-281 -104h-106z" />
    <glyph glyph-name="ij" unicode="&#x133;" horiz-adv-x="1028" 
d="M231 1278q-59 0 -98 37.5t-39 95.5q0 60 39 98.5t98 38.5t98.5 -38.5t39.5 -98.5q0 -58 -39.5 -95.5t-98.5 -37.5zM799 1278q-59 0 -98 37.5t-39 95.5q0 59 39 98t98 39t99 -39.5t40 -97.5t-40 -95.5t-99 -37.5zM145 0v1079h174v-1079h-174zM465 -373v152h20
q101 0 162.5 66t61.5 173v1061h174v-1056q0 -181 -105 -288.5t-274 -107.5h-39z" />
    <glyph glyph-name="uni0136" unicode="&#x136;" horiz-adv-x="1255" 
d="M524 745l746 -745h-211l-717 696v-696h-174v1423h174v-639l659 639h207zM680 -100q46 0 77 -31t31 -80q0 -63 -59 -158l-76 -135l-86 33l76 137l5 10l3 7q-38 9 -61 38.5t-23 71.5q0 46 33 76.5t80 30.5z" />
    <glyph glyph-name="uni0137" unicode="&#x137;" horiz-adv-x="1040" 
d="M498 582l551 -582h-197l-533 539v-539h-174v1497h174v-870l510 452h203zM571 -100q46 0 77.5 -31t31.5 -80q0 -63 -59 -158l-76 -135l-86 33l76 137l5 10l3 7q-38 9 -61 38.5t-23 71.5q0 46 32.5 76.5t79.5 30.5z" />
    <glyph glyph-name="kgreenlandic" unicode="&#x138;" horiz-adv-x="1042" 
d="M1049 0h-197l-533 504v-504h-174v1079h174v-485l510 485h205l-540 -526z" />
    <glyph glyph-name="Lacute" unicode="&#x139;" horiz-adv-x="1083" 
d="M510 1882l45 -143l-516 -178l-41 127zM342 158h715v-158h-889v1423h174v-1265z" />
    <glyph glyph-name="lacute" unicode="&#x13a;" horiz-adv-x="462" 
d="M14 1634l-41 127l512 195l45 -144zM145 0v1497h174v-1497h-174z" />
    <glyph glyph-name="uni013B" unicode="&#x13b;" horiz-adv-x="1083" 
d="M342 158h715v-158h-889v1423h174v-1265zM614 -100q46 0 77.5 -31t31.5 -80q0 -66 -57 -158l-78 -135l-86 33l76 137q3 5 8 19q-36 8 -60 37t-24 71q0 46 32.5 76.5t79.5 30.5z" />
    <glyph glyph-name="uni013C" unicode="&#x13c;" horiz-adv-x="462" 
d="M319 1497v-1497h-174v1497h174zM231 -100q47 0 79 -31t32 -80q0 -63 -59 -158l-78 -135l-86 33l76 137q3 5 8 19q-36 8 -60 37t-24 71q0 46 32.5 76.5t79.5 30.5z" />
    <glyph glyph-name="Lcaron" unicode="&#x13d;" horiz-adv-x="1091" 
d="M901 1444l-53 -461h-117l41 461h129zM342 158h715v-158h-889v1423h174v-1265z" />
    <glyph glyph-name="lcaron" unicode="&#x13e;" horiz-adv-x="571" 
d="M145 0v1497h174v-1497h-174zM465 1036l41 461h127l-53 -461h-115z" />
    <glyph glyph-name="Ldot" unicode="&#x13f;" horiz-adv-x="1099" 
d="M342 158h715v-158h-889v1423h174v-1265zM795 690q-51 0 -84 33t-33 84q0 52 33 85.5t84 33.5t84.5 -33.5t33.5 -85.5q0 -51 -33.5 -84t-84.5 -33z" />
    <glyph glyph-name="ldot" unicode="&#x140;" horiz-adv-x="634" 
d="M145 0v1497h174v-1497h-174zM555 643q-51 0 -85 33.5t-34 83.5q0 52 34 86.5t85 34.5t85 -34.5t34 -86.5q0 -50 -34 -83.5t-85 -33.5z" />
    <glyph glyph-name="Lslash" unicode="&#x141;" horiz-adv-x="1169" 
d="M426 158h715v-158h-889v633l-174 -70l-39 113l213 86v661h174v-592l201 80l39 -114l-240 -95v-544z" />
    <glyph glyph-name="lslash" unicode="&#x142;" horiz-adv-x="653" 
d="M641 854l-227 -129v-725h-174v625l-156 -88l-66 112l222 125v723h174v-625l161 93z" />
    <glyph glyph-name="Nacute" unicode="&#x143;" horiz-adv-x="1406" 
d="M987 1739l-516 -178l-39 127l510 194zM1065 1423h174v-1423h-145l-752 1118v-1118h-174v1423h145l752 -1120v1120z" />
    <glyph glyph-name="nacute" unicode="&#x144;" horiz-adv-x="1251" 
d="M903 1473l-436 -254l-70 112l426 268zM682 1102q205 0 321.5 -120t116.5 -323v-659h-174v629q0 151 -82 235t-227 82q-135 0 -225.5 -83t-92.5 -195v-668h-174v1079h164v-157q55 81 152 130.5t221 49.5z" />
    <glyph glyph-name="uni0145" unicode="&#x145;" horiz-adv-x="1406" 
d="M1065 1423h174v-1423h-145l-752 1118v-1118h-174v1423h145l752 -1120v1120zM717 -100q46 0 77 -31t31 -80q0 -63 -59 -158l-76 -135l-86 33l76 137l5 10l3 7q-38 9 -61 38.5t-23 71.5q0 46 33 76.5t80 30.5z" />
    <glyph glyph-name="uni0146" unicode="&#x146;" horiz-adv-x="1251" 
d="M682 1102q205 0 321.5 -120t116.5 -323v-659h-174v629q0 151 -82 235t-227 82q-135 0 -225.5 -83t-92.5 -195v-668h-174v1079h164v-157q55 81 152 130.5t221 49.5zM629 -100q47 0 78.5 -31t31.5 -80q0 -63 -59 -158l-78 -135l-86 33l76 137q3 5 8 19q-36 8 -60 37t-24 71
q0 46 33 76.5t80 30.5z" />
    <glyph glyph-name="Ncaron" unicode="&#x147;" horiz-adv-x="1406" 
d="M762 1573h-141l-273 293h162l178 -180l180 180h162zM1065 1423h174v-1423h-145l-752 1118v-1118h-174v1423h145l752 -1120v1120z" />
    <glyph glyph-name="ncaron" unicode="&#x148;" horiz-adv-x="1251" 
d="M721 1247h-150l-270 326h160l182 -217l184 217h158zM682 1102q205 0 321.5 -120t116.5 -323v-659h-174v629q0 151 -82 235t-227 82q-135 0 -225.5 -83t-92.5 -195v-668h-174v1079h164v-157q55 81 152 130.5t221 49.5z" />
    <glyph glyph-name="napostrophe" unicode="&#x149;" horiz-adv-x="1435" 
d="M45 1061l41 463h129l-53 -463h-117zM866 1102q205 0 322 -120t117 -323v-659h-175v629q0 151 -82 235t-227 82q-135 0 -225 -83t-92 -195v-668h-174v1079h164v-157q55 81 151.5 130.5t220.5 49.5z" />
    <glyph glyph-name="Eng" unicode="&#x14a;" horiz-adv-x="1406" 
d="M1065 1423h174v-1441q0 -186 -99 -291t-272 -105h-37v156h41q102 0 160 63.5t58 178.5v22l-748 1112v-1118h-174v1423h145l752 -1120v1120z" />
    <glyph glyph-name="eng" unicode="&#x14b;" horiz-adv-x="1251" 
d="M682 1102q205 0 321.5 -120t116.5 -323v-645q0 -175 -105 -281t-272 -106h-30l-2 152h22q96 0 154.5 64t58.5 169v617q0 151 -82 235t-227 82q-135 0 -225.5 -83t-92.5 -195v-668h-174v1079h164v-157q55 81 152 130.5t221 49.5z" />
    <glyph glyph-name="Omacron" unicode="&#x14c;" horiz-adv-x="1613" 
d="M492 1649v143h628v-143h-628zM807 -23q-151 0 -284 55.5t-228.5 152t-151 233.5t-55.5 293q0 157 55.5 294t151 233.5t228.5 152t284 55.5t284 -55.5t228 -152t150 -233.5t55 -294q0 -156 -55 -293t-150 -233.5t-228 -152t-284 -55.5zM807 143q235 0 387 159t152 409
t-151.5 409.5t-387.5 159.5q-237 0 -389 -159.5t-152 -409.5q0 -165 69.5 -294.5t193 -201.5t278.5 -72z" />
    <glyph glyph-name="omacron" unicode="&#x14d;" horiz-adv-x="1280" 
d="M344 1341v142h598v-142h-598zM639 -23q-161 0 -289.5 73t-200 201.5t-71.5 287.5q0 244 158 403.5t403 159.5t403 -159.5t158 -403.5q0 -159 -71.5 -287.5t-200 -201.5t-289.5 -73zM641 133q170 0 277.5 114t107.5 292q0 179 -107 293t-278 114t-279 -114t-108 -293
q0 -178 108 -292t279 -114z" />
    <glyph glyph-name="Ohungarumlaut" unicode="&#x150;" horiz-adv-x="1613" 
d="M573 1520l-108 77l233 353l123 -90zM979 1520l-111 77l234 353l123 -90zM807 -23q-151 0 -284 55.5t-228.5 152t-151 233.5t-55.5 293q0 157 55.5 294t151 233.5t228.5 152t284 55.5t284 -55.5t228 -152t150 -233.5t55 -294q0 -156 -55 -293t-150 -233.5t-228 -152
t-284 -55.5zM807 143q235 0 387 159t152 409t-151.5 409.5t-387.5 159.5q-237 0 -389 -159.5t-152 -409.5q0 -165 69.5 -294.5t193 -201.5t278.5 -72z" />
    <glyph glyph-name="ohungarumlaut" unicode="&#x151;" horiz-adv-x="1280" 
d="M428 1219l-109 77l234 324l123 -88zM819 1219l-110 77l233 324l123 -88zM639 -23q-161 0 -289.5 73t-200 201.5t-71.5 287.5q0 244 158 403.5t403 159.5t403 -159.5t158 -403.5q0 -159 -71.5 -287.5t-200 -201.5t-289.5 -73zM641 133q170 0 277.5 114t107.5 292
q0 179 -107 293t-278 114t-279 -114t-108 -293q0 -178 108 -292t279 -114z" />
    <glyph glyph-name="OE" unicode="&#x152;" horiz-adv-x="2324" 
d="M1522 154h725v-154h-901v242q-91 -125 -230 -195t-309 -70q-151 0 -284 55.5t-228.5 152t-151 233.5t-55.5 293q0 157 55.5 294t151 233.5t228.5 152t284 55.5q171 0 309.5 -69.5t229.5 -194.5v241h888v-153h-712v-457h643v-154h-643v-505zM807 143q235 0 387 159
t152 409t-151.5 409.5t-387.5 159.5q-237 0 -389 -159.5t-152 -409.5q0 -165 69.5 -294.5t193 -201.5t278.5 -72z" />
    <glyph glyph-name="oe" unicode="&#x153;" horiz-adv-x="2166" 
d="M1196 475q23 -150 131 -243t256 -93q249 0 328 193l153 -92q-138 -265 -485 -265q-154 0 -275.5 65t-193.5 181q-75 -114 -197.5 -179t-273.5 -65q-161 0 -289.5 73t-200 201.5t-71.5 287.5q0 244 158 403.5t403 159.5q153 0 276.5 -66t196.5 -182q73 116 192.5 183
t260.5 67q158 0 281.5 -76t188 -198.5t64.5 -266.5q0 -48 -4 -88h-899zM1571 952q-139 0 -243 -87.5t-130 -237.5h723q-20 150 -116 237.5t-234 87.5zM641 133q157 0 262.5 99t120.5 257q-2 16 -2 50q0 33 2 49q-15 160 -120 259t-263 99q-171 0 -279 -114t-108 -293
q0 -178 108 -292t279 -114z" />
    <glyph glyph-name="Racute" unicode="&#x154;" horiz-adv-x="1239" 
d="M905 1739l-516 -178l-39 127l510 194zM969 0l-498 635h-131v-635h-172v1423h528q211 0 337 -109t126 -284t-126.5 -285t-336.5 -110h-34l505 -635h-198zM340 1270v-506h352q139 0 217 69t78 183q0 115 -78 184.5t-217 69.5h-352z" />
    <glyph glyph-name="racute" unicode="&#x155;" horiz-adv-x="686" 
d="M643 1473l-434 -254l-72 112l428 268zM309 922q56 80 145.5 130t198.5 50v-162q-145 -1 -239.5 -86t-94.5 -203v-651h-174v1079h164v-157z" />
    <glyph glyph-name="uni0156" unicode="&#x156;" horiz-adv-x="1239" 
d="M662 635l505 -635h-198l-498 635h-131v-635h-172v1423h528q211 0 337 -109t126 -284t-126.5 -285t-336.5 -110h-34zM340 1270v-506h352q139 0 217 69t78 183q0 115 -78 184.5t-217 69.5h-352zM614 -100q47 0 79 -31t32 -80q0 -63 -59 -158l-78 -135l-86 33l76 137
q3 5 8 19q-36 8 -60 37t-24 71q0 46 32.5 76.5t79.5 30.5z" />
    <glyph glyph-name="uni0157" unicode="&#x157;" horiz-adv-x="686" 
d="M309 922q56 80 145.5 130t198.5 50v-162q-145 -1 -239.5 -86t-94.5 -203v-651h-174v1079h164v-157zM236 -100q46 0 77 -31t31 -80q0 -63 -59 -158l-76 -135l-86 33l76 137l5 10l3 7q-38 9 -61 38.5t-23 71.5q0 46 33 76.5t80 30.5z" />
    <glyph glyph-name="Rcaron" unicode="&#x158;" horiz-adv-x="1239" 
d="M680 1573h-141l-273 293h162l178 -180l180 180h162zM969 0l-498 635h-131v-635h-172v1423h528q211 0 337 -109t126 -284t-126.5 -285t-336.5 -110h-34l505 -635h-198zM340 1270v-506h352q139 0 217 69t78 183q0 115 -78 184.5t-217 69.5h-352z" />
    <glyph glyph-name="rcaron" unicode="&#x159;" horiz-adv-x="686" 
d="M461 1247h-150l-268 326h158l184 -217l182 217h158zM309 922q56 80 145.5 130t198.5 50v-162q-145 -1 -239.5 -86t-94.5 -203v-651h-174v1079h164v-157z" />
    <glyph glyph-name="Sacute" unicode="&#x15a;" horiz-adv-x="1130" 
d="M354 1561l-41 127l512 194l45 -143zM559 -20q-192 0 -323 88t-177 249l166 64q31 -119 121 -183.5t225 -64.5q137 0 217 60.5t80 164.5q0 61 -25.5 108.5t-68.5 79.5t-98.5 58t-117.5 48.5t-123.5 46.5t-117 56.5t-98.5 74t-68.5 104t-25.5 141.5q0 165 120 267t326 102
q178 0 294.5 -78.5t156.5 -218.5l-166 -64q-63 209 -291 209q-126 0 -196 -55t-70 -145q0 -57 25.5 -102t68.5 -74.5t99 -54t118 -46.5t123.5 -46.5t117.5 -59.5t99 -79.5t68.5 -112t25.5 -152.5q0 -174 -132 -279.5t-353 -105.5z" />
    <glyph glyph-name="sacute" unicode="&#x15b;" horiz-adv-x="976" 
d="M324 1219l-72 114l428 269l80 -129zM492 -23q-169 0 -286 67.5t-159 195.5l166 65q26 -84 99.5 -130t185.5 -46q102 0 162.5 42t60.5 116q0 52 -34 90t-89 61t-121 43t-132.5 44.5t-121.5 56.5t-89 88t-34 131q0 139 106.5 220t285.5 81q148 0 249 -58t136 -165l-166 -66
q-51 141 -222 141q-93 0 -144.5 -38t-51.5 -105q0 -43 27 -75t71 -51t100 -37.5t114.5 -34t114.5 -41.5t100 -58.5t71 -87t27 -125.5q0 -152 -116 -238t-310 -86z" />
    <glyph glyph-name="Scedilla" unicode="&#x15e;" horiz-adv-x="1130" 
d="M1044 365q0 -152 -101 -252t-277 -125l-41 -97q79 -3 129.5 -55.5t50.5 -128.5q0 -86 -65 -142.5t-171 -56.5q-74 0 -131.5 27t-91.5 68l64 75q53 -67 139 -67q57 0 92 31t35 77q0 48 -37 81.5t-94 33.5h-35l-12 16l53 130q-189 2 -317.5 89.5t-174.5 247.5l166 64
q31 -119 121 -183.5t225 -64.5q137 0 217 60.5t80 164.5q0 61 -25.5 108.5t-68.5 79.5t-98.5 58t-117.5 48.5t-123.5 46.5t-117 56.5t-98.5 74t-68.5 104t-25.5 141.5q0 165 120 267t326 102q178 0 294.5 -78.5t156.5 -218.5l-166 -64q-63 209 -291 209q-126 0 -196 -55
t-70 -145q0 -57 25.5 -102t68.5 -74.5t99 -54t118 -46.5t123.5 -46.5t117.5 -59.5t99 -79.5t68.5 -112t25.5 -152.5z" />
    <glyph glyph-name="scedilla" unicode="&#x15f;" horiz-adv-x="976" 
d="M918 301q0 -139 -99.5 -224t-269.5 -97l-39 -89q79 -3 129.5 -55.5t50.5 -128.5q0 -86 -64.5 -142.5t-170.5 -56.5q-145 0 -224 95l64 75q53 -67 139 -67q57 0 92 31t35 77q0 48 -37 81.5t-94 33.5h-35l-12 16l53 130q-148 11 -249 77t-140 183l166 65q26 -84 99.5 -130
t185.5 -46q102 0 162.5 42t60.5 116q0 52 -34 90t-89 61t-121 43t-132.5 44.5t-121.5 56.5t-89 88t-34 131q0 139 106.5 220t285.5 81q148 0 249 -58t136 -165l-166 -66q-51 141 -222 141q-93 0 -144.5 -38t-51.5 -105q0 -43 27 -75t71 -51t100 -37.5t114.5 -34t114.5 -41.5
t100 -58.5t71 -87t27 -125.5z" />
    <glyph glyph-name="Scaron" unicode="&#x160;" horiz-adv-x="1130" 
d="M664 1573h-142l-272 293h162l178 -180l180 180h162zM299 1092q0 -57 25.5 -102t68.5 -74.5t99 -54t118 -46.5t123.5 -46.5t117.5 -59.5t99 -79.5t68.5 -112t25.5 -152.5q0 -174 -132 -279.5t-353 -105.5q-192 0 -323 88t-177 249l166 64q31 -119 121 -183.5t225 -64.5
q137 0 217 60.5t80 164.5q0 61 -25.5 108.5t-68.5 79.5t-98.5 58t-117.5 48.5t-123.5 46.5t-117 56.5t-98.5 74t-68.5 104t-25.5 141.5q0 165 120 267t326 102q178 0 294.5 -78.5t156.5 -218.5l-166 -64q-63 209 -291 209q-126 0 -196 -55t-70 -145z" />
    <glyph glyph-name="scaron" unicode="&#x161;" horiz-adv-x="976" 
d="M575 1249h-149l-268 326h159l183 -219l182 219h158zM293 811q0 -43 27 -75t71 -51t100 -37.5t114.5 -34t114.5 -41.5t100 -58.5t71 -87t27 -125.5q0 -152 -116 -238t-310 -86q-169 0 -286 67.5t-159 195.5l166 65q26 -84 99.5 -130t185.5 -46q102 0 162.5 42t60.5 116
q0 52 -34 90t-89 61t-121 43t-132.5 44.5t-121.5 56.5t-89 88t-34 131q0 139 106.5 220t285.5 81q148 0 249 -58t136 -165l-166 -66q-51 141 -222 141q-93 0 -144.5 -38t-51.5 -105z" />
    <glyph glyph-name="uni0162" unicode="&#x162;" horiz-adv-x="1126" 
d="M649 0h-26l-52 -115q79 -3 130 -55.5t51 -128.5q0 -87 -65 -144t-171 -57q-142 0 -223 97l63 75q54 -69 140 -69q57 0 92 32t35 78q0 48 -37 81.5t-94 33.5h-35l-13 16l66 156h-35v1266h-448v157h1071v-157h-449v-1266z" />
    <glyph glyph-name="uni0163" unicode="&#x163;" horiz-adv-x="753" 
d="M580 0q-31 0 -45 2l-41 -94q79 -3 129.5 -55.5t50.5 -128.5q0 -86 -64.5 -142.5t-169.5 -56.5q-146 0 -225 94l64 76q56 -68 139 -68q57 0 92 32t35 79t-37 79.5t-94 32.5h-35l-12 17l65 156q-104 37 -157.5 124t-53.5 215v568h-196v149h112q96 0 96 99v178h168v-277h320
v-149h-326v-549q0 -109 55.5 -168t159.5 -59h127v-154h-157z" />
    <glyph glyph-name="Tcaron" unicode="&#x164;" horiz-adv-x="1126" 
d="M637 1573h-141l-273 293h162l178 -180l180 180h162zM1098 1423v-157h-449v-1266h-174v1266h-448v157h1071z" />
    <glyph glyph-name="tcaron" unicode="&#x165;" horiz-adv-x="753" 
d="M600 1139l41 463h127l-51 -463h-117zM580 0q-173 0 -266 96.5t-93 265.5v568h-196v149h112q96 0 96 99v178h168v-277h320v-149h-326v-549q0 -109 55.5 -168t159.5 -59h127v-154h-157z" />
    <glyph glyph-name="Tbar" unicode="&#x166;" horiz-adv-x="1144" 
d="M1108 1266h-449v-535h236v-125h-236v-606h-174v606h-235v125h235v535h-448v157h1071v-157z" />
    <glyph glyph-name="tbar" unicode="&#x167;" horiz-adv-x="770" 
d="M623 154h125v-154h-156q-173 0 -266 96.5t-93 265.5v148h-163v125h163v295h-196v149h113q96 0 96 99v178h168v-277h319v-149h-325v-295h280v-125h-280v-129q0 -109 55.5 -168t159.5 -59z" />
    <glyph glyph-name="Utilde" unicode="&#x168;" horiz-adv-x="1374" 
d="M571 1690q-44 0 -71.5 -27t-36.5 -72l-125 51q17 77 74 135t147 58q43 0 81 -16.5t61 -35.5t54 -35.5t62 -16.5q45 0 73 27t38 71l125 -51q-20 -80 -76 -136.5t-146 -56.5q-45 0 -83 16.5t-60.5 36t-53.5 36t-63 16.5zM1049 1423h174v-895q0 -114 -34 -212.5
t-98.5 -174.5t-168.5 -120t-234 -44q-131 0 -235 43.5t-168.5 119.5t-98.5 174.5t-34 213.5v895h176v-895q0 -111 38.5 -197t121.5 -138t200 -52q173 0 267 108.5t94 278.5v895z" />
    <glyph glyph-name="utilde" unicode="&#x169;" horiz-adv-x="1230" 
d="M475 1393q-43 0 -70.5 -27.5t-35.5 -71.5l-125 52q18 79 70 135.5t139 56.5q42 0 79 -16t59.5 -36t54 -36t63.5 -16q42 0 70.5 27.5t37.5 70.5l123 -51q-21 -82 -71 -137.5t-138 -55.5q-43 0 -80.5 16.5t-60 36t-53.5 36t-62 16.5zM913 1079h174v-1079h-165v154
q-57 -79 -151.5 -128t-209.5 -49q-203 0 -316.5 120t-113.5 317v665h174v-645q0 -137 82 -219.5t219 -81.5q132 0 218.5 80.5t88.5 187.5v678z" />
    <glyph glyph-name="Umacron" unicode="&#x16a;" horiz-adv-x="1374" 
d="M1001 1792v-143h-628v143h628zM1049 1423h174v-895q0 -114 -34 -212.5t-98.5 -174.5t-168.5 -120t-234 -44q-131 0 -235 43.5t-168.5 119.5t-98.5 174.5t-34 213.5v895h176v-895q0 -111 38.5 -197t121.5 -138t200 -52q173 0 267 108.5t94 278.5v895z" />
    <glyph glyph-name="umacron" unicode="&#x16b;" horiz-adv-x="1230" 
d="M891 1485v-142h-598v142h598zM913 1079h174v-1079h-165v154q-57 -79 -151.5 -128t-209.5 -49q-203 0 -316.5 120t-113.5 317v665h174v-645q0 -137 82 -219.5t219 -81.5q132 0 218.5 80.5t88.5 187.5v678z" />
    <glyph glyph-name="Uring" unicode="&#x16e;" horiz-adv-x="1374" 
d="M688 1468q-94 0 -154.5 59t-60.5 148t60.5 148t154.5 59t154.5 -59t60.5 -148t-60.5 -148t-154.5 -59zM688 1780q-46 0 -76 -30t-30 -75q0 -44 30 -74t76 -30t76.5 30t30.5 74t-30.5 74.5t-76.5 30.5zM1049 1423h174v-895q0 -114 -34 -212.5t-98.5 -174.5t-168.5 -120
t-234 -44q-131 0 -235 43.5t-168.5 119.5t-98.5 174.5t-34 213.5v895h176v-895q0 -111 38.5 -197t121.5 -138t200 -52q173 0 267 108.5t94 278.5v895z" />
    <glyph glyph-name="uring" unicode="&#x16f;" horiz-adv-x="1230" 
d="M594 1190q-94 0 -154.5 58t-60.5 149q0 89 60.5 148t154.5 59t154.5 -59t60.5 -148q0 -91 -60.5 -149t-154.5 -58zM594 1501q-46 0 -77.5 -30t-31.5 -74t31.5 -74.5t77.5 -30.5t76 30t30 75q0 44 -30 74t-76 30zM913 1079h174v-1079h-165v154q-57 -79 -151.5 -128
t-209.5 -49q-203 0 -316.5 120t-113.5 317v665h174v-645q0 -137 82 -219.5t219 -81.5q132 0 218.5 80.5t88.5 187.5v678z" />
    <glyph glyph-name="Uhungarumlaut" unicode="&#x170;" horiz-adv-x="1374" 
d="M702 1860l-247 -340l-109 77l234 353zM1106 1860l-246 -340l-110 77l233 353zM1049 1423h174v-895q0 -114 -34 -212.5t-98.5 -174.5t-168.5 -120t-234 -44q-131 0 -235 43.5t-168.5 119.5t-98.5 174.5t-34 213.5v895h176v-895q0 -111 38.5 -197t121.5 -138t200 -52
q173 0 267 108.5t94 278.5v895z" />
    <glyph glyph-name="uhungarumlaut" unicode="&#x171;" horiz-adv-x="1230" 
d="M627 1534l-248 -313l-109 77l232 324zM1016 1534l-248 -313l-109 77l234 324zM913 1079h174v-1079h-165v154q-57 -79 -151.5 -128t-209.5 -49q-203 0 -316.5 120t-113.5 317v665h174v-645q0 -137 82 -219.5t219 -81.5q132 0 218.5 80.5t88.5 187.5v678z" />
    <glyph glyph-name="Uogonek" unicode="&#x172;" horiz-adv-x="1374" 
d="M1049 1423h174v-895q0 -172 -75 -306t-218 -197l-72 -70q-61 -62 -84.5 -103t-23.5 -81q0 -44 26.5 -71.5t67.5 -27.5q59 0 94 41l68 -84q-62 -71 -187 -71q-93 0 -149 52t-56 136q0 109 134 234q-27 -3 -60 -3q-131 0 -235 43.5t-168.5 119.5t-98.5 174.5t-34 213.5v895
h176v-895q0 -111 38.5 -197t121.5 -138t200 -52q173 0 267 108.5t94 278.5v895z" />
    <glyph glyph-name="uogonek" unicode="&#x173;" horiz-adv-x="1230" 
d="M1096 -311l67 -84q-62 -72 -188 -72q-92 0 -147.5 52t-55.5 136q0 65 40 128t128 139l14 12h-32v154q-57 -79 -151.5 -128t-209.5 -49q-203 0 -316.5 120t-113.5 317v665h174v-645q0 -137 82 -219.5t219 -81.5q132 0 218.5 80.5t88.5 187.5v678h174v-1079l-71 -70
q-61 -63 -85 -103.5t-24 -80.5q0 -44 26 -71t66 -27q62 0 97 41z" />
    <glyph glyph-name="Wcircumflex" unicode="&#x174;" horiz-adv-x="1789" 
d="M895 1753l-178 -180h-162l272 293h142l268 -293h-162zM1583 1423h172l-340 -1423h-198l-322 1184l-322 -1184h-198l-340 1423h172l272 -1208l322 1208h188l324 -1204z" />
    <glyph glyph-name="wcircumflex" unicode="&#x175;" horiz-adv-x="1585" 
d="M793 1468l-183 -219h-159l268 326h149l267 -326h-160zM1382 1079h183l-295 -1079h-205l-268 883l-265 -883h-206l-295 1079h180l227 -905l262 905h195l262 -901z" />
    <glyph glyph-name="Ycircumflex" unicode="&#x176;" horiz-adv-x="1257" 
d="M631 1753l-178 -180h-164l272 293h144l266 -293h-162zM1245 1423l-530 -839v-584h-174v588l-529 835h197l422 -690l418 690h196z" />
    <glyph glyph-name="ycircumflex" unicode="&#x177;" horiz-adv-x="1112" 
d="M557 1468l-184 -219h-158l268 326h150l264 -326h-158zM913 1079h183l-590 -1446h-172l153 367h-47l-422 1079h183l348 -932z" />
    <glyph glyph-name="Ydieresis" unicode="&#x178;" horiz-adv-x="1257" 
d="M420 1587q-55 0 -93 37.5t-38 95.5q0 56 38.5 92.5t96.5 36.5q54 0 91.5 -37.5t37.5 -93.5t-38.5 -93.5t-94.5 -37.5zM838 1587q-55 0 -94 38t-39 95q0 56 39.5 92.5t95.5 36.5t94.5 -37.5t38.5 -93.5t-39.5 -93.5t-95.5 -37.5zM1245 1423l-530 -839v-584h-174v588
l-529 835h197l422 -690l418 690h196z" />
    <glyph glyph-name="Zacute" unicode="&#x179;" horiz-adv-x="1126" 
d="M862 1739l-518 -178l-39 127l510 194zM1073 158l2 -158h-1022v123l787 1147h-768v153h989v-123l-791 -1142h803z" />
    <glyph glyph-name="zacute" unicode="&#x17a;" horiz-adv-x="956" 
d="M737 1473l-436 -254l-72 112l428 268zM266 143h643v-143h-858v127l623 809h-594v143h807v-133z" />
    <glyph glyph-name="Zdotaccent" unicode="&#x17b;" horiz-adv-x="1126" 
d="M561 1587q-55 0 -93 37.5t-38 95.5q0 56 38.5 92.5t94.5 36.5t93.5 -37t37.5 -94t-38 -94t-95 -37zM1073 158l2 -158h-1022v123l787 1147h-768v153h989v-123l-791 -1142h803z" />
    <glyph glyph-name="zdotaccent" unicode="&#x17c;" horiz-adv-x="956" 
d="M477 1278q-59 0 -98 37.5t-39 95.5t39 96.5t98 38.5t98 -38.5t39 -96.5t-39 -95.5t-98 -37.5zM266 143h643v-143h-858v127l623 809h-594v143h807v-133z" />
    <glyph glyph-name="Zcaron" unicode="&#x17d;" horiz-adv-x="1126" 
d="M635 1573h-141l-273 293h162l178 -180l180 180h162zM1073 158l2 -158h-1022v123l787 1147h-768v153h989v-123l-791 -1142h803z" />
    <glyph glyph-name="zcaron" unicode="&#x17e;" horiz-adv-x="956" 
d="M553 1247h-150l-268 326h160l182 -217l182 217h160zM266 143h643v-143h-858v127l623 809h-594v143h807v-133z" />
    <glyph glyph-name="uni01EA" unicode="&#x1ea;" horiz-adv-x="1613" 
d="M1024 8l-70 -67q-61 -62 -84.5 -103.5t-23.5 -81.5q0 -43 26.5 -69.5t67.5 -26.5q60 0 94 39l68 -82q-64 -74 -187 -74q-93 0 -148.5 52.5t-55.5 136.5q0 116 147 248q-24 -3 -51 -3q-151 0 -284 55.5t-228.5 152t-151 233.5t-55.5 293q0 157 55.5 294t151 233.5
t228.5 152t284 55.5t284 -55.5t228 -152t150 -233.5t55 -294q0 -255 -138 -445t-362 -258zM266 711q0 -165 69.5 -294.5t193 -201.5t278.5 -72q235 0 387 159t152 409t-151.5 409.5t-387.5 159.5q-237 0 -389 -159.5t-152 -409.5z" />
    <glyph glyph-name="uni01EB" unicode="&#x1eb;" horiz-adv-x="1280" 
d="M825 6l-69 -69q-62 -62 -86.5 -104t-24.5 -83q0 -43 26.5 -69.5t67.5 -26.5q60 0 95 41l67 -84q-64 -74 -186 -74q-91 0 -147 53t-56 136q0 63 36 122.5t114 128.5h-23q-161 0 -289.5 73t-200 201.5t-71.5 287.5q0 244 158 403.5t403 159.5t403 -159.5t158 -403.5
q0 -191 -102.5 -335t-272.5 -198zM254 539q0 -178 108 -292t279 -114q170 0 277.5 114t107.5 292q0 179 -107 293t-278 114t-279 -114t-108 -293z" />
    <glyph glyph-name="AEacute" unicode="&#x1fc;" horiz-adv-x="1894" 
d="M1530 1739l-516 -178l-41 127l512 194zM1092 154h725v-154h-902v401h-534l-221 -401h-187l779 1423h1052v-153h-712v-457h643v-154h-643v-505zM465 551h450v719h-53z" />
    <glyph glyph-name="aeacute" unicode="&#x1fd;" horiz-adv-x="2172" 
d="M1358 1475l-436 -254l-70 112l426 269zM1200 492q15 -167 120.5 -270t260.5 -103q270 0 356 219l144 -62q-55 -139 -173 -219t-298 -80q-152 0 -261 62.5t-171 175.5v-215h-162v207q-63 -109 -167.5 -169.5t-238.5 -60.5q-230 0 -380 160.5t-150 403.5q0 158 68.5 286
t190 201.5t271.5 73.5q134 0 238.5 -60t167.5 -168v205h162v-225q61 117 168 182.5t249 65.5q150 0 266 -74t176 -196t60 -269q0 -39 -4 -71h-893zM1200 600h739q-11 166 -109.5 268.5t-252.5 102.5t-257 -102t-120 -269zM631 131q167 0 273 114.5t106 295.5
q0 180 -105.5 293.5t-273.5 113.5q-162 0 -270.5 -116.5t-108.5 -290.5q0 -177 108 -293.5t271 -116.5z" />
    <glyph glyph-name="Oslashacute" unicode="&#x1fe;" horiz-adv-x="1619" 
d="M1110 1739l-516 -178l-41 127l512 194zM1358 1198q170 -204 170 -487q0 -156 -55 -293t-150 -233.5t-228 -152t-284 -55.5q-252 0 -444 146l-144 -156l-104 101l143 155q-170 204 -170 488q0 157 55 294t150.5 233.5t228.5 152t285 55.5q251 0 442 -148l144 156l104 -100
zM270 711q0 -210 111 -359l758 822q-137 106 -328 106q-238 0 -389.5 -159.5t-151.5 -409.5zM811 143q235 0 387 159t152 409q0 211 -109 360l-758 -823q140 -105 328 -105z" />
    <glyph glyph-name="oslashacute" unicode="&#x1ff;" horiz-adv-x="1316" 
d="M920 1473l-435 -254l-71 112l426 268zM1260 981l-136 -119q95 -140 95 -323q0 -159 -71.5 -287.5t-200.5 -201.5t-290 -73q-228 0 -381 140l-133 -117l-86 96l133 117q-94 143 -94 326q0 244 157.5 403.5t403.5 159.5q228 0 385 -144l134 117zM270 539q0 -118 52 -211
l596 522q-104 96 -261 96q-170 0 -278.5 -114t-108.5 -293zM1042 539q0 120 -47 209l-594 -523q107 -92 256 -92q170 0 277.5 114t107.5 292z" />
    <glyph glyph-name="uni0218" unicode="&#x218;" horiz-adv-x="1130" 
d="M299 1092q0 -57 25.5 -102t68.5 -74.5t99 -54t118 -46.5t123.5 -46.5t117.5 -59.5t99 -79.5t68.5 -112t25.5 -152.5q0 -174 -132 -279.5t-353 -105.5q-192 0 -323 88t-177 249l166 64q31 -119 121 -183.5t225 -64.5q137 0 217 60.5t80 164.5q0 61 -25.5 108.5t-68.5 79.5
t-98.5 58t-117.5 48.5t-123.5 46.5t-117 56.5t-98.5 74t-68.5 104t-25.5 141.5q0 165 120 267t326 102q178 0 294.5 -78.5t156.5 -218.5l-166 -64q-63 209 -291 209q-126 0 -196 -55t-70 -145zM598 -100q46 0 77.5 -31t31.5 -80q0 -61 -60 -158l-76 -135l-86 33l76 137l5 10
l3 7q-38 9 -61 38.5t-23 71.5q0 46 33 76.5t80 30.5z" />
    <glyph glyph-name="uni0219" unicode="&#x219;" horiz-adv-x="976" 
d="M293 811q0 -43 27 -75t71 -51t100 -37.5t114.5 -34t114.5 -41.5t100 -58.5t71 -87t27 -125.5q0 -152 -116 -238t-310 -86q-169 0 -286 67.5t-159 195.5l166 65q26 -84 99.5 -130t185.5 -46q102 0 162.5 42t60.5 116q0 52 -34 90t-89 61t-121 43t-132.5 44.5t-121.5 56.5
t-89 88t-34 131q0 139 106.5 220t285.5 81q148 0 249 -58t136 -165l-166 -66q-51 141 -222 141q-93 0 -144.5 -38t-51.5 -105zM518 -100q48 0 79.5 -31t31.5 -80q0 -61 -60 -158l-77 -135l-84 33l73 137q3 5 8 19q-36 8 -59.5 37t-23.5 71q0 46 32.5 76.5t79.5 30.5z" />
    <glyph glyph-name="uni021A" unicode="&#x21a;" horiz-adv-x="1126" 
d="M1098 1423v-157h-449v-1266h-174v1266h-448v157h1071zM565 -100q46 0 77.5 -31t31.5 -80q0 -65 -58 -158l-77 -135l-86 33l75 137q5 8 9 19q-36 8 -60 37t-24 71q0 46 32.5 76.5t79.5 30.5z" />
    <glyph glyph-name="uni021B" unicode="&#x21b;" horiz-adv-x="753" 
d="M610 154h127v-154h-157q-173 0 -266 96.5t-93 265.5v568h-196v149h112q96 0 96 99v178h168v-277h320v-149h-326v-549q0 -109 55.5 -168t159.5 -59zM498 -84q46 0 77 -31t31 -80q0 -65 -57 -157l-78 -135l-86 32l76 138q4 6 8 18q-36 8 -60 37.5t-24 71.5q0 45 32.5 75.5
t80.5 30.5z" />
    <glyph glyph-name="uni0237" unicode="&#x237;" horiz-adv-x="466" 
d="M-96 -373l-2 152h22q101 0 162 65.5t61 173.5v1061h175v-1056q0 -181 -105 -288.5t-274 -107.5h-39z" />
    <glyph glyph-name="circumflex" unicode="&#x2c6;" horiz-adv-x="692" 
d="M743 1249h-157l-183 219l-182 -219h-160l269 326h149z" />
    <glyph glyph-name="caron" unicode="&#x2c7;" horiz-adv-x="759" 
d="M586 1575h157l-264 -326h-149l-269 326h160l182 -217z" />
    <glyph glyph-name="breve" unicode="&#x2d8;" horiz-adv-x="677" 
d="M375 1249q-142 0 -228 90t-86 236h140q0 -88 48.5 -140.5t125.5 -52.5t125.5 52.5t48.5 140.5h139q0 -146 -85.5 -236t-227.5 -90z" />
    <glyph glyph-name="dotaccent" unicode="&#x2d9;" horiz-adv-x="305" 
d="M199 1280q-59 0 -98.5 37.5t-39.5 95.5t39.5 96.5t98.5 38.5t99 -38.5t40 -96.5t-40 -95.5t-99 -37.5z" />
    <glyph glyph-name="ring" unicode="&#x2da;" horiz-adv-x="458" 
d="M276 1190q-93 0 -154 58.5t-61 148.5q0 89 61.5 148t153.5 59q94 0 155 -59t61 -148q0 -91 -61 -149t-155 -58zM276 1292q46 0 76.5 30.5t30.5 74.5t-30.5 74t-76.5 30t-76 -30t-30 -74q0 -45 30 -75t76 -30z" />
    <glyph glyph-name="ogonek" unicode="&#x2db;" horiz-adv-x="512" 
d="M264 -465q-92 0 -147.5 52.5t-55.5 136.5q0 65 40 127.5t128 138.5l80 65l68 -53l-72 -70q-61 -61 -84.5 -102t-23.5 -82q0 -44 25.5 -71t66.5 -27q61 0 96 41l66 -84q-62 -72 -187 -72z" />
    <glyph glyph-name="tilde" unicode="&#x2dc;" horiz-adv-x="835" 
d="M549 1288q-43 0 -81 16.5t-60.5 36t-53 36t-61.5 16.5q-43 0 -71.5 -27.5t-37.5 -71.5l-123 52q18 79 70 135.5t139 56.5q41 0 78 -16t59.5 -36t53.5 -36t63 -16q43 0 72 27.5t37 70.5l125 -51q-21 -82 -71 -137.5t-138 -55.5z" />
    <glyph glyph-name="hungarumlaut" unicode="&#x2dd;" horiz-adv-x="681" 
d="M156 1221l-109 77l234 324l122 -88zM545 1221l-109 77l234 324l123 -88z" />
    <glyph glyph-name="gravecomb" unicode="&#x300;" 
d="M-131 1221l-436 254l80 127l426 -269z" />
    <glyph glyph-name="acutecomb" unicode="&#x301;" 
d="M-496 1221l-71 112l426 269l80 -127z" />
    <glyph glyph-name="uni0302" unicode="&#x302;" 
d="M-61 1249h-158l-182 219l-183 -219h-159l268 326h149z" />
    <glyph glyph-name="tildecomb" unicode="&#x303;" 
d="M-270 1288q-43 0 -81 16.5t-60.5 36t-53 36t-61.5 16.5q-43 0 -71.5 -27.5t-37.5 -71.5l-123 52q18 79 70 135.5t139 56.5q41 0 78 -16t59.5 -36t53.5 -36t63 -16q43 0 72 27.5t37 70.5l125 -51q-21 -82 -71 -137.5t-138 -55.5z" />
    <glyph glyph-name="uni0304" unicode="&#x304;" 
d="M-659 1343v142h598v-142h-598z" />
    <glyph glyph-name="uni0306" unicode="&#x306;" 
d="M-358 1249q-142 0 -228 90t-86 236h140q0 -88 48.5 -140.5t125.5 -52.5t125.5 52.5t48.5 140.5h139q0 -146 -85.5 -236t-227.5 -90z" />
    <glyph glyph-name="uni0307" unicode="&#x307;" 
d="M-201 1280q-59 0 -98 37.5t-39 95.5t39 96.5t98 38.5t99.5 -38.5t40.5 -96.5t-40.5 -95.5t-99.5 -37.5z" />
    <glyph glyph-name="uni0308" unicode="&#x308;" 
d="M-600 1282q-54 0 -92.5 38t-38.5 95q0 55 39.5 91t95.5 36q53 0 91 -37.5t38 -93.5q0 -55 -39 -92t-94 -37zM-195 1282q-54 0 -92.5 38t-38.5 95q0 55 39 91t94 36t93.5 -37.5t38.5 -93.5q0 -55 -39 -92t-95 -37z" />
    <glyph glyph-name="uni030A" unicode="&#x30a;" 
d="M-276 1190q-93 0 -154.5 58.5t-61.5 148.5q0 89 62 148t154 59q94 0 154.5 -59t60.5 -148q0 -91 -60.5 -149t-154.5 -58zM-276 1292q46 0 76 30t30 75q0 44 -30 74t-76 30t-76.5 -30t-30.5 -74t30.5 -74.5t76.5 -30.5z" />
    <glyph glyph-name="uni030B" unicode="&#x30b;" 
d="M-700 1221l-109 77l234 324l122 -88zM-309 1221l-109 77l232 324l125 -88z" />
    <glyph glyph-name="uni030C" unicode="&#x30c;" 
d="M-219 1575h158l-265 -326h-149l-268 326h159l183 -217z" />
    <glyph glyph-name="uni0326" unicode="&#x326;" 
d="M-170 -100q46 0 77.5 -31t31.5 -80q0 -65 -58 -158l-78 -135l-86 33l76 137q3 5 8 19q-36 8 -60 37t-24 71q0 46 33 76.5t80 30.5z" />
    <glyph glyph-name="uni0327" unicode="&#x327;" 
d="M-297 -492q-74 0 -131.5 27t-91.5 68l63 75q53 -67 140 -67q57 0 92 31t35 77q0 48 -37 81.5t-95 33.5h-34l-13 16l72 173h113l-58 -132q79 -3 130 -55.5t51 -128.5q0 -86 -64.5 -142.5t-171.5 -56.5z" />
    <glyph glyph-name="uni0328" unicode="&#x328;" 
d="M-248 -465q-92 0 -147.5 52.5t-55.5 136.5q0 65 40 127.5t128 138.5l80 65l68 -53l-72 -70q-61 -61 -84.5 -102t-23.5 -82q0 -44 25.5 -71t66.5 -27q61 0 96 41l66 -84q-62 -72 -187 -72z" />
    <glyph glyph-name="uni0335" unicode="&#x335;" 
d="M-707 494v124h646v-124h-646z" />
    <glyph glyph-name="uni0336" unicode="&#x336;" 
d="M-1397 567v140h1336v-140h-1336z" />
    <glyph glyph-name="uni0337" unicode="&#x337;" 
d="M-641 356l-66 113l555 315l66 -112z" />
    <glyph glyph-name="uni0338" unicode="&#x338;" 
d="M-1178 -8l-86 96l1119 981l84 -94z" />
    <glyph glyph-name="Wgrave" unicode="&#x1e80;" horiz-adv-x="1789" 
d="M1174 1688l-39 -127l-519 178l48 143zM1583 1423h172l-340 -1423h-198l-322 1184l-322 -1184h-198l-340 1423h172l272 -1208l322 1208h188l324 -1204z" />
    <glyph glyph-name="wgrave" unicode="&#x1e81;" horiz-adv-x="1585" 
d="M1024 1333l-72 -112l-436 254l80 127zM1382 1079h183l-295 -1079h-205l-268 883l-265 -883h-206l-295 1079h180l227 -905l262 905h195l262 -901z" />
    <glyph glyph-name="Wacute" unicode="&#x1e82;" horiz-adv-x="1789" 
d="M1194 1739l-516 -178l-41 127l512 194zM1583 1423h172l-340 -1423h-198l-322 1184l-322 -1184h-198l-340 1423h172l272 -1208l322 1208h188l324 -1204z" />
    <glyph glyph-name="wacute" unicode="&#x1e83;" horiz-adv-x="1585" 
d="M1053 1475l-437 -254l-71 112l428 269zM1382 1079h183l-295 -1079h-205l-268 883l-265 -883h-206l-295 1079h180l227 -905l262 905h195l262 -901z" />
    <glyph glyph-name="Wdieresis" unicode="&#x1e84;" horiz-adv-x="1789" 
d="M686 1587q-55 0 -94 38t-39 95q0 56 39.5 92.5t95.5 36.5q55 0 93 -37.5t38 -93.5t-39 -93.5t-94 -37.5zM1102 1587q-54 0 -92.5 38t-38.5 95q0 56 39 92.5t94 36.5q56 0 94.5 -37.5t38.5 -93.5q0 -57 -39 -94t-96 -37zM1583 1423h172l-340 -1423h-198l-322 1184
l-322 -1184h-198l-340 1423h172l272 -1208l322 1208h188l324 -1204z" />
    <glyph glyph-name="wdieresis" unicode="&#x1e85;" horiz-adv-x="1585" 
d="M588 1282q-54 0 -92.5 38t-38.5 95q0 55 39.5 91t95.5 36q53 0 91 -37.5t38 -93.5q0 -55 -39 -92t-94 -37zM993 1282q-54 0 -92.5 38t-38.5 95q0 55 39 91t94 36t93 -37.5t38 -93.5q0 -55 -38.5 -92t-94.5 -37zM1382 1079h183l-295 -1079h-205l-268 883l-265 -883h-206
l-295 1079h180l227 -905l262 905h195l262 -901z" />
    <glyph glyph-name="uni1E9E" unicode="&#x1e9e;" horiz-adv-x="1308" 
d="M864 774q166 -22 263.5 -127t97.5 -266q0 -181 -118.5 -290t-309.5 -109q-133 0 -223.5 56t-129.5 157l66 120q31 -89 101.5 -138.5t168.5 -49.5q121 0 195 72.5t74 193.5q0 125 -82 199t-226 74h-61v100l309 364q-95 160 -317 160q-158 0 -251 -90.5t-93 -247.5v-952
h-176v950q0 227 143 360.5t375 133.5q377 0 501 -311z" />
    <glyph glyph-name="Ygrave" unicode="&#x1ef2;" horiz-adv-x="1257" 
d="M909 1688l-41 -127l-516 178l45 143zM1245 1423l-530 -839v-584h-174v588l-529 835h197l422 -690l418 690h196z" />
    <glyph glyph-name="ygrave" unicode="&#x1ef3;" horiz-adv-x="1112" 
d="M786 1333l-69 -112l-436 254l79 127zM913 1079h183l-590 -1446h-172l153 367h-47l-422 1079h183l348 -932z" />
    <glyph glyph-name="uni1EF8" unicode="&#x1ef8;" horiz-adv-x="1257" 
d="M514 1690q-44 0 -71.5 -27t-36.5 -72l-125 51q17 77 74 135t147 58q43 0 81 -16.5t60.5 -35.5t53.5 -35.5t63 -16.5q45 0 72.5 27t37.5 71l125 -51q-20 -80 -75.5 -136.5t-145.5 -56.5q-45 0 -83 16.5t-60.5 36t-53.5 36t-63 16.5zM1245 1423l-530 -839v-584h-174v588
l-529 835h197l422 -690l418 690h196z" />
    <glyph glyph-name="uni1EF9" unicode="&#x1ef9;" horiz-adv-x="1112" 
d="M438 1393q-43 0 -70.5 -27.5t-35.5 -71.5l-125 52q18 79 70 135.5t139 56.5q42 0 79 -16t59 -36t53 -36t63 -16q43 0 71.5 27.5t36.5 70.5l125 -51q-21 -82 -71 -137.5t-138 -55.5q-43 0 -81 16.5t-60.5 36t-53 36t-61.5 16.5zM913 1079h183l-590 -1446h-172l153 367h-47
l-422 1079h183l348 -932z" />
    <glyph glyph-name="endash" unicode="&#x2013;" horiz-adv-x="1062" 
d="M123 442v144h815v-144h-815z" />
    <glyph glyph-name="emdash" unicode="&#x2014;" horiz-adv-x="1603" 
d="M123 440v146h1358v-146h-1358z" />
    <glyph glyph-name="quoteleft" unicode="&#x2018;" horiz-adv-x="403" 
d="M215 1249q44 -5 72 -34.5t28 -77.5q0 -52 -33.5 -86.5t-84.5 -34.5q-50 0 -83.5 34.5t-33.5 88.5t37 129l92 196h106z" />
    <glyph glyph-name="quoteright" unicode="&#x2019;" horiz-adv-x="401" 
d="M215 1473q51 0 85 -34.5t34 -88.5t-37 -129l-92 -197h-107l101 215q-44 6 -72.5 36.5t-28.5 76.5q0 52 33.5 86.5t83.5 34.5z" />
    <glyph glyph-name="quotesinglbase" unicode="&#x201a;" horiz-adv-x="407" 
d="M205 211q50 0 83.5 -34t33.5 -87q0 -55 -35 -129l-94 -197h-107l100 216q-44 5 -72 34.5t-28 77.5q0 52 34.5 85.5t84.5 33.5z" />
    <glyph glyph-name="quotedblleft" unicode="&#x201c;" horiz-adv-x="712" 
d="M209 1464h106l-100 -215q44 -5 72 -34.5t28 -77.5q0 -52 -33.5 -86.5t-84.5 -34.5q-50 0 -83.5 34.5t-33.5 88.5t37 129zM524 1249q44 -5 72.5 -34.5t28.5 -77.5q0 -52 -34 -86.5t-85 -34.5q-50 0 -83.5 34.5t-33.5 88.5t37 129l92 196h107z" />
    <glyph glyph-name="quotedblright" unicode="&#x201d;" horiz-adv-x="710" 
d="M215 1473q51 0 85 -34.5t34 -88.5t-37 -129l-92 -197h-107l101 215q-44 6 -72.5 36.5t-28.5 76.5q0 52 33.5 86.5t83.5 34.5zM524 1473q51 0 85 -34.5t34 -88.5t-37 -129l-92 -197h-106l100 215q-44 6 -72 36.5t-28 76.5q0 52 33 86.5t83 34.5z" />
    <glyph glyph-name="quotedblbase" unicode="&#x201e;" horiz-adv-x="716" 
d="M205 211q50 0 83.5 -34t33.5 -87q0 -55 -35 -129l-94 -197h-107l100 216q-44 5 -72 34.5t-28 77.5q0 52 34.5 85.5t84.5 33.5zM514 211q50 0 83.5 -34t33.5 -87q0 -60 -35 -129l-94 -197h-107l101 216q-44 5 -72.5 34.5t-28.5 77.5q0 52 34.5 85.5t84.5 33.5z" />
    <glyph glyph-name="dagger" unicode="&#x2020;" horiz-adv-x="698" 
d="M610 1282v-125h-192v-536h-137v536h-193v125h193v215h137v-215h192z" />
    <glyph glyph-name="daggerdbl" unicode="&#x2021;" horiz-adv-x="739" 
d="M631 1192h-193v-266h193v-125h-193v-180h-137v180h-192v125h192v266h-192v125h192v180h137v-180h193v-125z" />
    <glyph glyph-name="bullet" unicode="&#x2022;" horiz-adv-x="729" 
d="M365 487q-89 0 -150 60.5t-61 148.5q0 89 61 151t150 62t149.5 -61.5t60.5 -151.5q0 -88 -60.5 -148.5t-149.5 -60.5z" />
    <glyph glyph-name="ellipsis" unicode="&#x2026;" horiz-adv-x="1181" 
d="M211 -18q-51 0 -84 32.5t-33 83.5q0 52 33 85.5t84 33.5t85 -33.5t34 -85.5q0 -51 -34 -83.5t-85 -32.5zM590 -18q-51 0 -84 32.5t-33 83.5q0 52 33 85.5t84 33.5t85 -33.5t34 -85.5q0 -51 -34 -83.5t-85 -32.5zM969 -18q-50 0 -83.5 32.5t-33.5 83.5q0 52 33.5 85.5
t83.5 33.5q51 0 84.5 -33.5t33.5 -85.5q0 -51 -33.5 -83.5t-84.5 -32.5z" />
    <glyph glyph-name="perthousand" unicode="&#x2030;" horiz-adv-x="2187" 
d="M377 784q-137 0 -228.5 94.5t-91.5 231.5t91.5 232.5t228.5 95.5q138 0 228.5 -95.5t90.5 -232.5q0 -138 -90.5 -232t-228.5 -94zM266 0l826 1423h141l-827 -1423h-140zM377 897q86 0 143.5 61.5t57.5 153.5q0 87 -58 149t-143 62q-87 0 -145 -62t-58 -149
q0 -92 57.5 -153.5t145.5 -61.5zM1124 -14q-137 0 -228 94t-91 231q0 138 91 233t228 95q138 0 229 -95t91 -233t-91 -231.5t-229 -93.5zM1812 -14q-137 0 -228 94t-91 231q0 138 91 233t228 95q138 0 229 -95t91 -233t-91 -231.5t-229 -93.5zM1124 100q86 0 144.5 61
t58.5 152q0 87 -59 150t-144 63t-142.5 -62.5t-57.5 -150.5q0 -91 57 -152t143 -61zM1812 100q86 0 144.5 61t58.5 152q0 87 -59 150t-144 63q-86 0 -143 -62.5t-57 -150.5q0 -91 57 -152t143 -61z" />
    <glyph glyph-name="guilsinglleft" unicode="&#x2039;" horiz-adv-x="579" 
d="M301 168l-227 344l227 342h166l-225 -342l225 -344h-166z" />
    <glyph glyph-name="guilsinglright" unicode="&#x203a;" horiz-adv-x="579" 
d="M113 168l225 344l-225 342h166l225 -342l-225 -344h-166z" />
    <glyph glyph-name="fraction" unicode="&#x2044;" horiz-adv-x="849" 
d="M-25 0l773 1423h135l-772 -1423h-136z" />
    <glyph glyph-name="uni2074" unicode="&#x2074;" horiz-adv-x="671" 
d="M592 958v-88h-82v-159h-115v159h-342v86l342 467h115v-465h82zM395 958v328l-239 -328h239z" />
    <glyph glyph-name="Euro" unicode="&#x20ac;" horiz-adv-x="1531" 
d="M1309 342l149 -104q-83 -121 -218.5 -191t-319.5 -70q-245 0 -427.5 135.5t-244.5 360.5h-191l13 117h155q-4 58 -4 86t4 86h-129l13 119h139q62 225 243.5 360t423.5 135q181 0 317 -69t222 -189l-147 -104q-130 196 -396 196q-168 0 -295.5 -88t-181.5 -241h520
l-12 -119h-536q-7 -51 -7 -86t7 -86h509l-12 -117h-469q54 -152 184 -241t300 -89q265 0 391 199z" />
    <glyph glyph-name="trademark" unicode="&#x2122;" horiz-adv-x="1304" 
d="M502 1386v-88h-172v-481h-99v481h-174v88h445zM1178 817h-95l-30 422l-140 -401h-84l-141 405l-29 -426h-92l39 569h115l151 -430l150 430h115z" />
    <glyph glyph-name="minus" unicode="&#x2212;" horiz-adv-x="1118" 
d="M131 563v152h854v-152h-854z" />
    <glyph glyph-name="approxequal" unicode="&#x2248;" horiz-adv-x="1089" 
d="M735 696q-56 0 -106.5 17.5t-83 38t-77 38t-89.5 17.5q-55 0 -101 -21t-67 -59l-90 96q36 61 98 96t139 35q55 0 106 -17.5t83.5 -38.5t77.5 -38.5t90 -17.5q54 0 99.5 21t68.5 59l88 -95q-35 -62 -97.5 -96.5t-138.5 -34.5zM733 252q-55 0 -105.5 17t-83 38t-77.5 38
t-90 17q-55 0 -101 -20t-67 -57l-88 94q35 62 97 96.5t138 34.5q55 0 106 -17.5t83.5 -38t77.5 -38t90 -17.5q55 0 101 20.5t67 57.5l90 -94q-35 -62 -97.5 -96.5t-140.5 -34.5z" />
    <glyph glyph-name="notequal" unicode="&#x2260;" horiz-adv-x="1120" 
d="M987 772h-299l-104 -330h403v-151h-452l-80 -254h-164l80 254h-238v151h287l104 330h-391v150h438l80 249h164l-80 -249h252v-150z" />
    <glyph glyph-name="uniF8FF" unicode="&#xf8ff;" horiz-adv-x="4724" 
d="M1149 408q-95 0 -136.5 40t-41.5 130v466h203q0 -62 -40 -122t-98 -86l2 -9q58 35 119 35h105v-162h-86v-98q0 -35 36 -35q28 0 50 15v-154q-36 -20 -113 -20zM1303 418v626h200q0 -67 -47 -122t-115 -70l5 -6q84 16 143 16h16v-444h-202zM2808 408q-95 0 -137.5 40.5
t-42.5 129.5v466h202q0 -62 -39 -122t-98 -86l4 -9q58 35 119 35h102v-162h-86v-98q0 -35 37 -35q27 0 49 15v-154q-36 -20 -110 -20zM205 418v624h203v-624h-203zM584 408q-66 0 -105 34t-39 90q0 60 41 98t111 38q92 0 135 -43h4v71q0 24 -12 38t-35 14q-47 0 -47 -60
l-184 29q37 160 249 160q110 0 172 -50t62 -135v-274h-201v45h-6q-14 -20 -51.5 -37.5t-93.5 -17.5zM1548 418v444h199v-133h6q17 143 145 143q70 0 110 -46t40 -134v-274h-205v264q0 55 -39 55q-22 0 -32 -13t-21 -52v-254h-203zM2337 408q-123 0 -190.5 63.5t-67.5 167.5
t69 168.5t189 64.5q122 0 190 -64.5t68 -168.5q0 -103 -67.5 -167t-190.5 -64zM3463 270v592h203v-133h6q21 143 150 143q170 0 170 -233q0 -115 -51.5 -173t-125.5 -58q-105 0 -141 88h-6v-226h-205zM4274 408q-120 0 -187 63.5t-67 167.5q0 103 70 168t190 65
q107 0 173.5 -64.5t66.5 -158.5v-18h-307q0 -39 18.5 -66.5t50.5 -27.5q55 0 62 69l168 -16q-18 -95 -83 -138.5t-155 -43.5zM3015 262v135h133q115 0 137 25l-2 6h-139q-83 0 -107 80l-110 354h204q6 -37 20 -110t24 -134t14 -110h4q13 125 61 354h203l-145 -424
q-63 -176 -217 -176h-80zM4213 655h12q62 0 87.5 12t25.5 38q0 45 -49 45q-34 0 -55 -26t-21 -69zM3738 506q31 0 46 27.5t15 89.5q0 66 -12 95.5t-43 29.5q-46 0 -62 -68v-148q21 -26 56 -26zM2337 535q59 0 59 104q0 106 -59 106q-58 0 -58 -106q0 -104 58 -104zM686 469
q30 0 45 23v104q-10 16 -39 16q-25 0 -40 -19t-15 -52q0 -72 49 -72z" />
    <glyph glyph-name="uni00A40301" horiz-adv-x="677" 
d="M217 1561l-41 127l512 194l45 -143zM35 0v156h96q101 0 158 62.5t57 176.5v1028h176v-1030q0 -185 -100 -289t-281 -104h-106z" />
    <glyph glyph-name="Q.ss01" horiz-adv-x="1613" 
d="M1227 158h319v-158h-739q-156 0 -290 54t-228 148.5t-147.5 227.5t-53.5 287q0 155 55.5 290.5t151 231.5t228.5 151.5t284 55.5t283.5 -55t226.5 -149.5t148.5 -228t54.5 -284.5q0 -184 -76.5 -331.5t-216.5 -239.5zM805 156q233 0 384.5 158.5t151.5 404.5
q0 245 -151 403t-385 158q-235 0 -387 -158.5t-152 -402.5q0 -245 152.5 -404t386.5 -159z" />
    <glyph glyph-name="i.loclTRK" horiz-adv-x="462" 
d="M231 1278q-59 0 -98 37.5t-39 95.5q0 60 39 98.5t98 38.5t98.5 -38.5t39.5 -98.5q0 -58 -39.5 -95.5t-98.5 -37.5zM145 0v1079h174v-1079h-174z" />
    <glyph glyph-name="uni006A0301" horiz-adv-x="466" 
d="M61 1219l-71 112l428 271l80 -129zM-96 -373l-2 152h22q101 0 162 65.5t61 173.5v1061h175v-1056q0 -181 -105 -288.5t-274 -107.5h-39z" />
    <glyph glyph-name="g.ss01" horiz-adv-x="1140" 
d="M1108 1079v-149h-209q84 -114 84 -266q0 -119 -50 -214t-140 -153q120 -41 182.5 -123.5t62.5 -198.5q0 -164 -133.5 -264t-365.5 -100q-409 0 -521 303l158 61q80 -221 359 -221q159 0 243 63t84 173q0 108 -88.5 171.5t-245.5 63.5q-202 0 -331 123.5t-129 315.5
q0 191 129 314.5t331 123.5q79 0 156 -23h424zM528 369q130 0 213.5 83.5t83.5 211.5q0 129 -83.5 211.5t-213.5 82.5t-213.5 -82.5t-83.5 -211.5q0 -128 84 -211.5t213 -83.5z" />
    <glyph glyph-name="gbreve.ss01" horiz-adv-x="1140" 
d="M547 1249q-144 0 -230 90t-86 236h140q0 -88 48.5 -140.5t127.5 -52.5q77 0 125.5 52.5t48.5 140.5h139q0 -146 -85.5 -236t-227.5 -90zM1108 1079v-149h-209q84 -114 84 -266q0 -119 -50 -214t-140 -153q120 -41 182.5 -123.5t62.5 -198.5q0 -164 -133.5 -264
t-365.5 -100q-409 0 -521 303l158 61q80 -221 359 -221q159 0 243 63t84 173q0 108 -88.5 171.5t-245.5 63.5q-202 0 -331 123.5t-129 315.5q0 191 129 314.5t331 123.5q79 0 156 -23h424zM528 369q130 0 213.5 83.5t83.5 211.5q0 129 -83.5 211.5t-213.5 82.5t-213.5 -82.5
t-83.5 -211.5q0 -128 84 -211.5t213 -83.5z" />
    <glyph glyph-name="uni0123.ss01" horiz-adv-x="1140" 
d="M553 1229q-48 0 -79.5 31t-31.5 81q0 64 60 156l78 135l84 -33l-74 -137q-4 -4 -8 -16q36 -8 60 -38t24 -71q0 -47 -32.5 -77.5t-80.5 -30.5zM1108 1079v-149h-209q84 -114 84 -266q0 -119 -50 -214t-140 -153q120 -41 182.5 -123.5t62.5 -198.5q0 -164 -133.5 -264
t-365.5 -100q-409 0 -521 303l158 61q80 -221 359 -221q159 0 243 63t84 173q0 108 -88.5 171.5t-245.5 63.5q-202 0 -331 123.5t-129 315.5q0 191 129 314.5t331 123.5q79 0 156 -23h424zM528 369q130 0 213.5 83.5t83.5 211.5q0 129 -83.5 211.5t-213.5 82.5t-213.5 -82.5
t-83.5 -211.5q0 -128 84 -211.5t213 -83.5z" />
    <glyph glyph-name="gdotaccent.ss01" horiz-adv-x="1140" 
d="M547 1280q-59 0 -99 37.5t-40 95.5t40 96.5t99 38.5t98 -38.5t39 -96.5t-39 -95.5t-98 -37.5zM1108 1079v-149h-209q84 -114 84 -266q0 -119 -50 -214t-140 -153q120 -41 182.5 -123.5t62.5 -198.5q0 -164 -133.5 -264t-365.5 -100q-409 0 -521 303l158 61
q80 -221 359 -221q159 0 243 63t84 173q0 108 -88.5 171.5t-245.5 63.5q-202 0 -331 123.5t-129 315.5q0 191 129 314.5t331 123.5q79 0 156 -23h424zM528 369q130 0 213.5 83.5t83.5 211.5q0 129 -83.5 211.5t-213.5 82.5t-213.5 -82.5t-83.5 -211.5q0 -128 84 -211.5
t213 -83.5z" />
    <glyph glyph-name="t.ss01" horiz-adv-x="737" 
d="M276 0v930h-258v149h172q97 0 97 99v178h168v-277h262v-149h-266v-930h-175z" />
    <glyph glyph-name="tbar.ss01" horiz-adv-x="813" 
d="M758 930h-266v-289h235v-125h-235v-516h-175v516h-235v125h235v289h-256v149h172q97 0 97 99v178h168v-277h260v-149z" />
    <glyph glyph-name="tcaron.ss01" horiz-adv-x="737" 
d="M616 1139l41 463h129l-53 -463h-117zM276 0v930h-258v149h172q97 0 97 99v178h168v-277h262v-149h-266v-930h-175z" />
    <glyph glyph-name="uni0163.ss01" horiz-adv-x="737" 
d="M451 0h-33l-51 -119q81 -4 130.5 -56.5t49.5 -129.5q0 -86 -64.5 -142.5t-169.5 -56.5q-141 0 -225 96l66 76q54 -69 139 -69q55 0 90 32t35 78q0 48 -36 81.5t-93 33.5h-35l-14 16l67 160h-31v930h-258v149h172q97 0 97 99v178h168v-277h262v-149h-266v-930z" />
    <glyph glyph-name="uni021B.ss01" horiz-adv-x="737" 
d="M455 1079h262v-149h-266v-930h-175v930h-258v149h172q97 0 97 99v178h168v-277zM373 -111q47 0 77.5 -31t30.5 -81q0 -68 -57 -156l-78 -135l-86 31l76 139q1 3 4 8t4 8q-36 8 -60 38t-24 71q0 47 32.5 77.5t80.5 30.5z" />
    <glyph glyph-name="u.ss01" horiz-adv-x="1216" 
d="M608 -23q-226 0 -352.5 125t-126.5 340v637h174v-643q0 -139 82.5 -222t222.5 -83q141 0 223 83t82 222v643h174v-637q0 -215 -126.5 -340t-352.5 -125z" />
    <glyph glyph-name="uacute.ss01" horiz-adv-x="1216" 
d="M432 1221l-70 112l426 269l80 -127zM608 -23q-226 0 -352.5 125t-126.5 340v637h174v-643q0 -139 82.5 -222t222.5 -83q141 0 223 83t82 222v643h174v-637q0 -215 -126.5 -340t-352.5 -125z" />
    <glyph glyph-name="ucircumflex.ss01" horiz-adv-x="1216" 
d="M608 1468l-182 -219h-160l271 326h149l264 -326h-157zM913 1079h174v-637q0 -215 -126.5 -340t-352.5 -125t-352.5 125t-126.5 340v637h174v-643q0 -139 82.5 -222t222.5 -83q141 0 223 83t82 222v643z" />
    <glyph glyph-name="udieresis.ss01" horiz-adv-x="1216" 
d="M403 1282q-54 0 -92.5 38t-38.5 95q0 55 40 91t96 36q53 0 91 -37.5t38 -93.5q0 -55 -39 -92t-95 -37zM809 1282q-54 0 -92.5 38t-38.5 95q0 55 39 91t94 36t93 -37.5t38 -93.5q0 -55 -38.5 -92t-94.5 -37zM608 -23q-226 0 -352.5 125t-126.5 340v637h174v-643
q0 -139 82.5 -222t222.5 -83q141 0 223 83t82 222v643h174v-637q0 -215 -126.5 -340t-352.5 -125z" />
    <glyph glyph-name="ugrave.ss01" horiz-adv-x="1216" 
d="M768 1221l-434 254l80 127l426 -269zM608 -23q-226 0 -352.5 125t-126.5 340v637h174v-643q0 -139 82.5 -222t222.5 -83q141 0 223 83t82 222v643h174v-637q0 -215 -126.5 -340t-352.5 -125z" />
    <glyph glyph-name="uhungarumlaut.ss01" horiz-adv-x="1216" 
d="M393 1221l-108 77l233 324l123 -88zM784 1221l-108 77l231 324l125 -88zM608 -23q-226 0 -352.5 125t-126.5 340v637h174v-643q0 -139 82.5 -222t222.5 -83q141 0 223 83t82 222v643h174v-637q0 -215 -126.5 -340t-352.5 -125z" />
    <glyph glyph-name="umacron.ss01" horiz-adv-x="1216" 
d="M309 1343v142h598v-142h-598zM608 -23q-226 0 -352.5 125t-126.5 340v637h174v-643q0 -139 82.5 -222t222.5 -83q141 0 223 83t82 222v643h174v-637q0 -215 -126.5 -340t-352.5 -125z" />
    <glyph glyph-name="uogonek.ss01" horiz-adv-x="1216" 
d="M913 1079h174v-637q0 -169 -80 -284t-227 -158l-69 -70q-62 -62 -86.5 -103t-24.5 -81q0 -44 26 -71t68 -27q61 0 94 41l68 -84q-62 -72 -186 -72q-92 0 -147.5 52t-55.5 136q0 64 36.5 123.5t119.5 132.5h-15q-226 0 -352.5 125t-126.5 340v637h174v-643
q0 -139 82.5 -222t222.5 -83q141 0 223 83t82 222v643z" />
    <glyph glyph-name="uring.ss01" horiz-adv-x="1216" 
d="M608 1190q-93 0 -154 58.5t-61 148.5q0 89 61.5 148t153.5 59q94 0 154.5 -59t60.5 -148q0 -91 -60.5 -149t-154.5 -58zM608 1292q46 0 76.5 30.5t30.5 74.5t-30.5 74t-76.5 30t-76 -30t-30 -74q0 -45 30 -75t76 -30zM608 -23q-226 0 -352.5 125t-126.5 340v637h174v-643
q0 -139 82.5 -222t222.5 -83q141 0 223 83t82 222v643h174v-637q0 -215 -126.5 -340t-352.5 -125z" />
    <glyph glyph-name="utilde.ss01" horiz-adv-x="1216" 
d="M745 1288q-43 0 -80 16.5t-59.5 36t-53 36t-60.5 16.5q-43 0 -71.5 -27.5t-37.5 -71.5l-123 52q18 79 70 135.5t139 56.5q41 0 78 -16t59.5 -36t53.5 -36t63 -16q42 0 70.5 27.5t37.5 70.5l125 -51q-20 -82 -71.5 -137.5t-139.5 -55.5zM608 -23q-226 0 -352.5 125
t-126.5 340v637h174v-643q0 -139 82.5 -222t222.5 -83q141 0 223 83t82 222v643h174v-637q0 -215 -126.5 -340t-352.5 -125z" />
    <glyph glyph-name="y.ss01" horiz-adv-x="1228" 
d="M911 1079h174v-997q0 -225 -124.5 -348t-356.5 -123q-171 0 -288 76t-169 213l148 57q34 -102 112.5 -155.5t196.5 -53.5q154 0 236 82t82 238v120q-58 -81 -155.5 -130.5t-207.5 -49.5q-200 0 -315 120t-115 318v633h174v-612q0 -137 82.5 -219.5t218.5 -81.5
q126 0 216 78t91 190v645z" />
    <glyph glyph-name="yacute.ss01" horiz-adv-x="1228" 
d="M868 1475l-434 -254l-72 112l426 269zM911 1079h174v-997q0 -225 -124.5 -348t-356.5 -123q-171 0 -288 76t-169 213l148 57q34 -102 112.5 -155.5t196.5 -53.5q154 0 236 82t82 238v120q-58 -81 -155.5 -130.5t-207.5 -49.5q-200 0 -315 120t-115 318v633h174v-612
q0 -137 82.5 -219.5t218.5 -81.5q126 0 216 78t91 190v645z" />
    <glyph glyph-name="ycircumflex.ss01" horiz-adv-x="1228" 
d="M608 1466l-182 -217h-158l269 326h149l264 -326h-157zM911 1079h174v-997q0 -225 -124.5 -348t-356.5 -123q-171 0 -288 76t-169 213l148 57q34 -102 112.5 -155.5t196.5 -53.5q154 0 236 82t82 238v120q-58 -81 -155.5 -130.5t-207.5 -49.5q-200 0 -315 120t-115 318
v633h174v-612q0 -137 82.5 -219.5t218.5 -81.5q126 0 216 78t91 190v645z" />
    <glyph glyph-name="ydieresis.ss01" horiz-adv-x="1228" 
d="M406 1282q-55 0 -94.5 38t-39.5 95q0 55 40 91t96 36q54 0 91.5 -37t37.5 -94q0 -55 -38 -92t-93 -37zM809 1282q-54 0 -92.5 38t-38.5 95q0 55 39 91t94 36t93 -37.5t38 -93.5q0 -55 -38.5 -92t-94.5 -37zM911 1079h174v-997q0 -225 -124.5 -348t-356.5 -123
q-171 0 -288 76t-169 213l148 57q34 -102 112.5 -155.5t196.5 -53.5q154 0 236 82t82 238v120q-58 -81 -155.5 -130.5t-207.5 -49.5q-200 0 -315 120t-115 318v633h174v-612q0 -137 82.5 -219.5t218.5 -81.5q126 0 216 78t91 190v645z" />
    <glyph glyph-name="ygrave.ss01" horiz-adv-x="1228" 
d="M840 1333l-72 -112l-434 254l80 127zM911 1079h174v-997q0 -225 -124.5 -348t-356.5 -123q-171 0 -288 76t-169 213l148 57q34 -102 112.5 -155.5t196.5 -53.5q154 0 236 82t82 238v120q-58 -81 -155.5 -130.5t-207.5 -49.5q-200 0 -315 120t-115 318v633h174v-612
q0 -137 82.5 -219.5t218.5 -81.5q126 0 216 78t91 190v645z" />
    <glyph glyph-name="uni1EF9.ss01" horiz-adv-x="1228" 
d="M492 1393q-43 0 -71.5 -27.5t-37.5 -71.5l-123 52q18 79 70 135.5t139 56.5q41 0 78 -16t59.5 -36t53.5 -36t63 -16q42 0 70.5 27.5t37.5 70.5l125 -51q-21 -82 -70.5 -137.5t-137.5 -55.5q-43 0 -81 16.5t-61 36t-53.5 36t-60.5 16.5zM911 1079h174v-997
q0 -225 -124.5 -348t-356.5 -123q-171 0 -288 76t-169 213l148 57q34 -102 112.5 -155.5t196.5 -53.5q154 0 236 82t82 238v120q-58 -81 -155.5 -130.5t-207.5 -49.5q-200 0 -315 120t-115 318v633h174v-612q0 -137 82.5 -219.5t218.5 -81.5q126 0 216 78t91 190v645z" />
    <glyph glyph-name="zero.osf" horiz-adv-x="1327" 
d="M666 -23q-161 0 -291 69t-206.5 199t-76.5 298q0 128 44.5 234t122 176.5t182 109.5t225.5 39q161 0 289.5 -66.5t204 -195t75.5 -297.5q0 -168 -75 -298t-204 -199t-290 -69zM666 133q167 0 282 111.5t115 296.5q0 183 -115 294t-282 111q-170 0 -286 -110t-116 -295
t116 -296.5t286 -111.5z" />
    <glyph glyph-name="one.osf" horiz-adv-x="821" 
d="M545 150h235v-150h-690v150h281v780h-291v149h465v-929z" />
    <glyph glyph-name="two.osf" horiz-adv-x="1095" 
d="M383 139h651v-139h-956v111q374 184 528 324.5t154 281.5q0 104 -67 166.5t-181 62.5q-103 0 -175.5 -47.5t-98.5 -132.5l-158 53q37 128 157.5 205.5t284.5 77.5q188 0 300 -97t112 -262q0 -164 -130.5 -308.5t-420.5 -295.5z" />
    <glyph glyph-name="three.osf" horiz-adv-x="1077" 
d="M584 522q178 0 295.5 -112t117.5 -285q0 -183 -131.5 -302.5t-345.5 -119.5q-179 0 -308.5 85.5t-168.5 219.5l160 64q29 -93 115 -153t204 -60q136 0 218.5 78t82.5 198q0 122 -81.5 195t-202.5 73h-174v119l389 408h-650v149h852v-139l-393 -418h21z" />
    <glyph glyph-name="four.osf" horiz-adv-x="1124" 
d="M1069 201v-131h-164v-314h-174v314h-672v125l674 882h172v-876h164zM733 201v659l-497 -659h497z" />
    <glyph glyph-name="five.osf" horiz-adv-x="1058" 
d="M512 543q219 0 348 -112.5t129 -301.5q0 -188 -132 -307t-347 -119q-173 0 -295 79.5t-172 231.5l160 64q28 -100 110 -159.5t197 -59.5q134 0 219.5 77.5t85.5 198.5q0 120 -84.5 198.5t-216.5 78.5h-352l37 667h708v-149h-561l-22 -387h188z" />
    <glyph glyph-name="six.osf" horiz-adv-x="1105" 
d="M567 903q208 0 341.5 -128.5t133.5 -330.5q0 -203 -136 -335t-345 -132q-212 0 -352.5 132.5t-140.5 330.5q0 175 131 346l438 566h203l-357 -455q44 6 84 6zM561 127q135 0 222 89.5t87 227.5t-87 227t-222 89q-138 0 -229.5 -90t-91.5 -226t91.5 -226.5t229.5 -90.5z
" />
    <glyph glyph-name="seven.osf" horiz-adv-x="948" 
d="M29 1079h876v-135l-481 -1216h-195l480 1202h-680v149z" />
    <glyph glyph-name="eight.osf" horiz-adv-x="1132" 
d="M764 721q121 -35 198.5 -129.5t77.5 -224.5q0 -176 -131 -283t-344 -107q-212 0 -342.5 107.5t-130.5 282.5q0 130 75 224.5t193 129.5q-95 38 -154 115t-59 188q0 152 114 249.5t304 96.5q190 0 303 -96t113 -250q0 -114 -59.5 -190.5t-157.5 -112.5zM565 1229
q-113 0 -182.5 -61t-69.5 -160t70.5 -161.5t181.5 -62.5q112 0 181 62t69 162t-68 160.5t-182 60.5zM565 119q138 0 219.5 73t81.5 195q0 115 -83.5 189.5t-217.5 74.5t-217.5 -74.5t-83.5 -189.5q0 -122 81.5 -195t219.5 -73z" />
    <glyph glyph-name="nine.osf" horiz-adv-x="1091" 
d="M539 1102q211 0 351 -131t140 -332q0 -175 -121 -328l-448 -583h-203l350 454q-46 -4 -69 -4q-210 0 -346 126.5t-136 330.5q0 205 137.5 336t344.5 131zM539 322q137 0 228 88.5t91 224.5q0 137 -91 227t-228 90q-134 0 -222 -89t-88 -228q0 -137 88 -225t222 -88z" />
    <glyph glyph-name="uni030C.alt" 
d="M-297 981l41 463h127l-53 -463h-115z" />
    <glyph glyph-name="caron.alt" horiz-adv-x="315" 
d="M117 981l41 463h127l-54 -463h-114z" />
    <glyph glyph-name="uni0308.case" 
d="M-612 1587q-55 0 -94 38t-39 95q0 56 39.5 92.5t95.5 36.5q55 0 93 -37.5t38 -93.5t-39 -93.5t-94 -37.5zM-197 1587q-54 0 -92.5 38t-38.5 95q0 56 39 92.5t94 36.5q56 0 95 -37.5t39 -93.5q0 -57 -39 -94t-97 -37z" />
    <glyph glyph-name="uni0307.case" 
d="M-195 1587q-55 0 -93 37.5t-38 95.5q0 56 38.5 92.5t94.5 36.5t94 -37t38 -94t-38.5 -94t-95.5 -37z" />
    <glyph glyph-name="gravecomb.case" 
d="M-102 1561l-516 178l45 143l512 -194z" />
    <glyph glyph-name="acutecomb.case" 
d="M-575 1561l-41 127l512 194l45 -143z" />
    <glyph glyph-name="uni030B.case" 
d="M-713 1520l-108 77l233 353l123 -90zM-309 1520l-109 77l234 353l123 -90z" />
    <glyph glyph-name="uni0302.case" 
d="M-61 1573h-162l-180 180l-179 -180h-161l272 293h141z" />
    <glyph glyph-name="uni030C.case" 
d="M-223 1866h162l-269 -293h-141l-272 293h161l179 -180z" />
    <glyph glyph-name="uni0306.case" 
d="M-367 1573q-139 0 -222 84t-83 209h146q0 -68 42.5 -114t116.5 -46q73 0 116.5 46.5t43.5 113.5h144q0 -125 -83 -209t-221 -84z" />
    <glyph glyph-name="uni030A.case" 
d="M-266 1468q-94 0 -155.5 59t-61.5 148t61.5 148t155.5 59t154.5 -59t60.5 -148t-60.5 -148t-154.5 -59zM-266 1571q46 0 76 30t30 74q0 45 -30 75t-76 30t-77.5 -30.5t-31.5 -74.5t31.5 -74t77.5 -30z" />
    <glyph glyph-name="tildecomb.case" 
d="M-285 1591q-44 0 -82 16.5t-60.5 36t-53 36t-62.5 16.5q-44 0 -72 -27.5t-36 -71.5l-125 52q17 77 74 134.5t147 57.5q43 0 81 -16.5t60.5 -35.5t53.5 -35.5t63 -16.5q44 0 73 27.5t38 70.5l125 -51q-20 -80 -76 -136.5t-148 -56.5z" />
    <glyph glyph-name="uni0304.case" 
d="M-690 1649v143h629v-143h-629z" />
    <glyph glyph-name="uni0326.case" 
d="M-170 -100q46 0 77.5 -31t31.5 -80q0 -65 -58 -158l-78 -135l-86 33l76 137q3 5 8 19q-36 8 -60 37t-24 71q0 46 33 76.5t80 30.5z" />
    <glyph glyph-name="uni0337.case" 
d="M-647 387l-41 113l588 235l39 -112z" />
    <glyph glyph-name="uni0338.case" 
d="M-1378 10l-105 99l1278 1386l103 -100z" />
    <glyph glyph-name="dieresis.case" horiz-adv-x="722" 
d="M195 1587q-55 0 -94.5 38t-39.5 95q0 56 39.5 92.5t96.5 36.5q55 0 93 -37.5t38 -93.5t-39 -93.5t-94 -37.5zM610 1587q-54 0 -92.5 38t-38.5 95q0 56 39 92.5t94 36.5q56 0 94.5 -37.5t38.5 -93.5q0 -57 -39 -94t-96 -37z" />
    <glyph glyph-name="dotaccent.case" horiz-adv-x="276" 
d="M193 1587q-55 0 -93.5 37.5t-38.5 95.5q0 56 39 92.5t95 36.5t93.5 -37t37.5 -94t-38 -94t-95 -37z" />
    <glyph glyph-name="grave.case" horiz-adv-x="575" 
d="M578 1561l-517 178l45 143l512 -194z" />
    <glyph glyph-name="acute.case" horiz-adv-x="575" 
d="M102 1561l-41 127l512 194l45 -143z" />
    <glyph glyph-name="hungarumlaut.case" horiz-adv-x="974" 
d="M170 1520l-109 77l234 353l123 -90zM573 1520l-108 77l233 353l123 -90z" />
    <glyph glyph-name="circumflex.case" horiz-adv-x="759" 
d="M743 1573h-161l-181 180l-178 -180h-162l273 293h141z" />
    <glyph glyph-name="caron.case" horiz-adv-x="759" 
d="M582 1866h161l-268 -293h-141l-273 293h162l178 -180z" />
    <glyph glyph-name="breve.case" horiz-adv-x="688" 
d="M367 1573q-139 0 -222.5 84t-83.5 209h146q0 -67 43 -113.5t117 -46.5q73 0 116 46.5t43 113.5h144q0 -125 -83 -209t-220 -84z" />
    <glyph glyph-name="ring.case" horiz-adv-x="458" 
d="M268 1468q-94 0 -155.5 59t-61.5 148t61.5 148t155.5 59t154.5 -59t60.5 -148t-60.5 -148t-154.5 -59zM268 1571q46 0 76.5 30t30.5 74t-30.5 74.5t-76.5 30.5t-77 -30.5t-31 -74.5t31 -74t77 -30z" />
    <glyph glyph-name="tilde.case" horiz-adv-x="835" 
d="M553 1591q-44 0 -82 16.5t-60.5 36t-53 36t-62.5 16.5q-44 0 -72.5 -28t-36.5 -71l-125 52q17 76 74.5 134t147.5 58q43 0 81 -16.5t60.5 -35.5t53.5 -35.5t63 -16.5q44 0 72 27t38 71l125 -51q-20 -80 -75.5 -136.5t-147.5 -56.5z" />
    <glyph glyph-name="macron.case" horiz-adv-x="737" 
d="M61 1649v143h629v-143h-629z" />
    <glyph glyph-name="IJacute" horiz-adv-x="1196" 
d="M39 1561l-41 127l512 194l45 -143zM735 1561l-39 127l510 194l47 -143zM168 0v1423h174v-1423h-174zM553 0v156h96q102 0 158.5 62t56.5 177v1028h176v-1030q0 -185 -100 -289t-281 -104h-106z" />
    <glyph glyph-name="ijacute" horiz-adv-x="1028" 
d="M55 1219l-69 114l426 269l80 -129zM625 1219l-72 112l426 271l80 -129zM145 0v1079h174v-1079h-174zM465 -373v152h20q101 0 162.5 66t61.5 173v1061h174v-1056q0 -181 -105 -288.5t-274 -107.5h-39z" />
    </font>
</defs>
</svg>
