<?xml version="1.0" standalone="no"?>
<!DOCTYPE svg PUBLIC "-//W3C//DTD SVG 1.1//EN" "http://www.w3.org/Graphics/SVG/1.1/DTD/svg11.dtd" >
<svg xmlns="http://www.w3.org/2000/svg" xmlns:xlink="http://www.w3.org/1999/xlink" version="1.1">
<metadata>
Created by FontForge 20170731 at Mon Dec 19 16:45:35 2022
 By Aleksey,,,
Copyright (c) 2019 by Daniel Hernandez &#38; Rodrigo Fuenzalida. All rights reserved.
</metadata>
<defs>
<font id="Biennale-Heavy" horiz-adv-x="0" >
  <font-face 
    font-family="Biennale Heavy"
    font-weight="950"
    font-stretch="normal"
    units-per-em="2048"
    panose-1="0 0 10 0 0 0 0 0 0 0"
    ascent="1638"
    descent="-410"
    x-height="1079"
    cap-height="1423"
    bbox="-1630 -680 4520 2105"
    underline-thickness="102"
    underline-position="-307"
    unicode-range="U+0020-FB02"
  />
<missing-glyph horiz-adv-x="1290" 
d="M205 1495h880v-1495h-880v1495zM338 1423l307 -587l307 587h-614zM600 748l-313 598v-1196zM692 748l312 -598v1196zM645 659l-307 -587h614z" />
    <glyph glyph-name="fi" unicode="fi" horiz-adv-x="1273" 
d="M723 1196q-61 0 -92 -30t-31 -83v-4h598v-1079h-422v721h-176v-721h-422v721h-137v358h139q11 208 145 326.5t380 118.5h493v-328h-475z" />
    <glyph glyph-name="fl" unicode="fl" horiz-adv-x="1335" 
d="M1260 1497v-1497h-422v1169h-115q-61 0 -92 -29.5t-31 -80.5h123v-338h-123v-721h-422v721h-137v358h141q19 196 152.5 307t370.5 111h555z" />
    <glyph glyph-name=".notdef" horiz-adv-x="1290" 
d="M205 1495h880v-1495h-880v1495zM338 1423l307 -587l307 587h-614zM600 748l-313 598v-1196zM692 748l312 -598v1196zM645 659l-307 -587h614z" />
    <glyph glyph-name=".null" 
 />
    <glyph glyph-name="nonmarkingreturn" horiz-adv-x="682" 
 />
    <glyph glyph-name="space" unicode=" " horiz-adv-x="346" 
 />
    <glyph glyph-name="exclam" unicode="!" horiz-adv-x="608" 
d="M135 559l-69 938h479l-78 -938h-332zM305 -20q-92 0 -154.5 62t-62.5 153q0 96 62 159.5t155 63.5q94 0 156.5 -63.5t62.5 -159.5q0 -91 -63 -153t-156 -62z" />
    <glyph glyph-name="quotedbl" unicode="&#x22;" horiz-adv-x="927" 
d="M96 831l-30 633h364l-35 -633h-299zM535 831l-29 633h356l-31 -633h-296z" />
    <glyph glyph-name="numbersign" unicode="#" horiz-adv-x="1460" 
d="M1411 838h-223l-55 -203h137v-318h-223l-86 -317h-347l86 317h-157l-86 -317h-340l86 317h-150v318h238l55 203h-149v317h235l74 268h338l-74 -268h160l74 268h344l-74 -268h137v-317zM788 635l56 203h-160l-55 -203h159z" />
    <glyph glyph-name="dollar" unicode="$" horiz-adv-x="1132" 
d="M1075 412q0 -139 -84.5 -240.5t-238.5 -142.5v-199h-338v190q-137 31 -234.5 119.5t-136.5 222.5l360 140q22 -81 72.5 -124.5t120.5 -43.5q90 0 90 72q0 32 -25.5 55.5t-67 37t-94.5 30.5t-108 33t-108 47t-94.5 71.5t-67 106.5t-25.5 151q0 150 81.5 254.5t234.5 142.5
v195h338v-201q119 -34 199.5 -112t105.5 -183l-361 -139q-14 67 -50.5 101t-84.5 34q-82 0 -82 -65q0 -34 33 -58t85.5 -40.5t116.5 -34t128 -48.5t116.5 -74.5t85.5 -120t33 -177.5z" />
    <glyph glyph-name="percent" unicode="%" horiz-adv-x="1638" 
d="M379 768q-145 0 -242.5 98.5t-97.5 239.5t97.5 239.5t242.5 98.5q146 0 243 -98.5t97 -239.5t-97 -239.5t-243 -98.5zM266 0l795 1423l321 2l-800 -1423zM379 1026q33 0 53.5 23t20.5 57q0 35 -20 57.5t-54 22.5q-33 0 -53.5 -23t-20.5 -57t21 -57t53 -23zM1260 -20
q-145 0 -242.5 98t-97.5 239t97.5 239.5t242.5 98.5q146 0 242.5 -98.5t96.5 -239.5t-96.5 -239t-242.5 -98zM1260 238q33 0 53 22.5t20 56.5q0 35 -19.5 57.5t-53.5 22.5q-33 0 -53.5 -23t-20.5 -57t21 -56.5t53 -22.5z" />
    <glyph glyph-name="ampersand" unicode="&#x26;" horiz-adv-x="1492" 
d="M1513 0h-448l-107 102q-162 -122 -383 -122q-223 0 -368.5 114.5t-145.5 296.5q0 250 242 383q-70 115 -70 240q0 194 140.5 312t369.5 118q147 0 264 -59.5t186.5 -173t76.5 -265.5h-436q2 38 -22.5 67t-74.5 29q-32 0 -53.5 -19t-21.5 -48q0 -12 2.5 -21t11 -22.5
t19 -26t33 -37t46 -49.5t65 -70t83.5 -92l22 -26q42 85 51 215l391 -158q-14 -109 -52 -193.5t-113 -170.5zM582 354q42 0 88 25l-142 135q-36 -36 -36 -76q0 -38 26.5 -61t63.5 -23z" />
    <glyph glyph-name="quotesingle" unicode="'" horiz-adv-x="493" 
d="M96 831l-30 633h364l-35 -633h-299z" />
    <glyph glyph-name="parenleft" unicode="(" horiz-adv-x="759" 
d="M487 -289q-438 371 -438 998q0 624 438 995l281 -266q-179 -176 -249 -346t-70 -383q0 -214 70 -385.5t249 -346.5z" />
    <glyph glyph-name="parenright" unicode=")" horiz-adv-x="759" 
d="M272 -289l-280 266q179 175 249 346.5t70 385.5q0 213 -70 383t-249 346l280 266q439 -371 439 -995q0 -627 -439 -998z" />
    <glyph glyph-name="asterisk" unicode="*" horiz-adv-x="876" 
d="M299 727l20 168l-131 -109l-143 258l160 68l-160 68l143 256l129 -107l-20 168h283l-21 -168l129 107l143 -256l-159 -68l159 -68l-143 -258l-131 109l21 -168h-279z" />
    <glyph glyph-name="plus" unicode="+" horiz-adv-x="1028" 
d="M975 877v-353h-277v-301h-368v301h-277v353h277v323h368v-323h277z" />
    <glyph glyph-name="comma" unicode="," horiz-adv-x="524" 
d="M260 420q91 0 154 -63t63 -160q0 -90 -61 -209l-140 -277h-225l148 291q-71 16 -113.5 67.5t-42.5 133.5q0 93 63.5 155t153.5 62z" />
    <glyph glyph-name="hyphen" unicode="-" horiz-adv-x="813" 
d="M88 324v340h637v-340h-637z" />
    <glyph glyph-name="period" unicode="." horiz-adv-x="522" 
d="M260 -20q-92 0 -154.5 62t-62.5 153q0 96 62 159.5t155 63.5q94 0 156.5 -63.5t62.5 -159.5q0 -91 -63 -153t-156 -62z" />
    <glyph glyph-name="slash" unicode="/" horiz-adv-x="831" 
d="M37 -102l391 1558h363l-390 -1558h-364z" />
    <glyph glyph-name="zero" unicode="0" horiz-adv-x="1466" 
d="M733 -29q-304 0 -485.5 201t-181.5 545q0 350 180 542.5t487 192.5t487.5 -193t180.5 -542q0 -343 -183 -544.5t-485 -201.5zM733 371q109 0 173.5 87.5t64.5 254.5q0 166 -64.5 253t-173.5 87t-173 -87t-64 -253q0 -167 64 -254.5t173 -87.5z" />
    <glyph glyph-name="one" unicode="1" horiz-adv-x="946" 
d="M729 348h152v-348h-795v348h223v518h-219v348h219v209h420v-1075z" />
    <glyph glyph-name="two" unicode="2" horiz-adv-x="1261" 
d="M692 348h494v-348h-1127v279l476 413q198 171 198 295q0 51 -32 79t-89 28q-122 0 -159 -164l-398 129q38 177 192 285t369 108q252 0 399.5 -119t147.5 -323q0 -138 -67 -252.5t-232 -259.5z" />
    <glyph glyph-name="three" unicode="3" horiz-adv-x="1251" 
d="M823 862q164 -30 266.5 -147t102.5 -281q0 -131 -75 -237t-207.5 -166t-297.5 -60q-226 0 -385 92t-209 250l385 154q47 -137 197 -137q69 0 111.5 37.5t42.5 97.5t-42.5 96.5t-111.5 36.5h-287v272l283 226h-496v327h985v-327z" />
    <glyph glyph-name="four" unicode="4" horiz-adv-x="1296" 
d="M1229 588v-328h-131v-260h-420v260h-643v311l647 850h416v-833h131zM682 588v295l-223 -295h223z" />
    <glyph glyph-name="five" unicode="5" horiz-adv-x="1220" 
d="M584 946q266 0 421.5 -129.5t155.5 -353.5q0 -222 -156 -357t-432 -135q-435 0 -565 351l385 153q18 -73 68 -110t117 -37q72 0 112.5 39.5t40.5 101.5q0 65 -42 108.5t-120 43.5h-415l45 802h854v-327h-498l-8 -150h37z" />
    <glyph glyph-name="six" unicode="6" horiz-adv-x="1257" 
d="M752 965q211 -27 338 -153t127 -327q0 -155 -77 -273t-208.5 -179.5t-294.5 -61.5t-294.5 61.5t-208.5 178.5t-77 270q0 64 13 123t38.5 109.5t43 79t45.5 67.5l405 563h488zM637 330q63 0 106 43.5t43 107.5q0 67 -42.5 109.5t-106.5 42.5t-107 -42.5t-43 -109.5
q0 -64 43.5 -107.5t106.5 -43.5z" />
    <glyph glyph-name="seven" unicode="7" horiz-adv-x="1103" 
d="M35 1421h1028v-315l-432 -1106h-471l434 1071h-559v350z" />
    <glyph glyph-name="eight" unicode="8" horiz-adv-x="1263" 
d="M946 741q119 -46 188.5 -139t69.5 -209q0 -191 -159.5 -306.5t-411.5 -115.5t-412 115.5t-160 306.5q0 118 65 211.5t181 138.5q-87 45 -137.5 125t-50.5 191q0 173 133.5 283t380.5 110t380.5 -110t133.5 -283q0 -114 -53.5 -194.5t-147.5 -123.5zM633 1114
q-52 0 -83.5 -30t-31.5 -83t31.5 -83.5t83.5 -30.5t83.5 30.5t31.5 83.5t-31.5 83t-83.5 30zM633 309q69 0 110 37.5t41 99.5q0 58 -41.5 95t-109.5 37t-110 -37t-42 -95q0 -62 41.5 -99.5t110.5 -37.5z" />
    <glyph glyph-name="nine" unicode="9" horiz-adv-x="1257" 
d="M621 1452q163 0 294 -61.5t208 -178.5t77 -270q0 -64 -13 -123t-38 -109.5t-42.5 -79t-45.5 -67.5l-406 -563h-487l338 459q-211 27 -338 152.5t-127 326.5q0 155 77 273t208.5 179.5t294.5 61.5zM621 1094q-63 0 -106.5 -44t-43.5 -108q0 -67 43 -109t107 -42t106.5 42
t42.5 109q0 64 -43 108t-106 44z" />
    <glyph glyph-name="colon" unicode=":" horiz-adv-x="569" 
d="M285 537q-92 0 -154.5 62.5t-62.5 154.5q0 95 62 158t155 63q94 0 156.5 -63t62.5 -158q0 -92 -62.5 -154.5t-156.5 -62.5zM285 -20q-92 0 -154.5 62t-62.5 153q0 96 62 159.5t155 63.5q94 0 156.5 -63.5t62.5 -159.5q0 -91 -63 -153t-156 -62z" />
    <glyph glyph-name="semicolon" unicode=";" horiz-adv-x="571" 
d="M285 543q-92 0 -154.5 62.5t-62.5 154.5q0 95 62 158t155 63q94 0 156.5 -63t62.5 -158q0 -92 -62.5 -154.5t-156.5 -62.5zM285 420q91 0 154 -63t63 -160q0 -88 -62 -209l-139 -277h-225l147 291q-70 16 -112.5 67.5t-42.5 133.5q0 93 63.5 155t153.5 62z" />
    <glyph glyph-name="less" unicode="&#x3c;" horiz-adv-x="927" 
d="M829 1180v-375l-323 -127l323 -129v-375l-788 385v240z" />
    <glyph glyph-name="equal" unicode="=" horiz-adv-x="1064" 
d="M96 721v352h873v-352h-873zM96 250v352h873v-352h-873z" />
    <glyph glyph-name="greater" unicode="&#x3e;" horiz-adv-x="927" 
d="M98 1180l789 -381v-240l-789 -385v375l324 129l-324 127v375z" />
    <glyph glyph-name="question" unicode="?" horiz-adv-x="1056" 
d="M299 559v66q0 70 27.5 129.5t66.5 99t78 73t66.5 67.5t27.5 67q0 53 -59 53q-31 0 -51.5 -21t-26.5 -59l-395 129q39 164 170 259.5t332 95.5q216 0 342.5 -108t126.5 -298q0 -67 -19 -123.5t-49.5 -96t-68 -73t-74.5 -60.5t-67.5 -52t-49.5 -54t-19 -61v-33h-358z
M477 -20q-92 0 -154.5 62t-62.5 153q0 96 62 159.5t155 63.5q95 0 157 -63t62 -156q0 -94 -62.5 -156.5t-156.5 -62.5z" />
    <glyph glyph-name="at" unicode="@" horiz-adv-x="1667" 
d="M840 1206q176 0 322.5 -52.5t245 -145t152.5 -220.5t54 -278q0 -104 -46.5 -197.5t-126 -150t-171.5 -56.5q-171 0 -252 125q-74 -125 -248 -125q-142 0 -237 105t-95 250q0 153 89 254.5t243 101.5q127 0 207 -86v51h235v-336q0 -34 14 -54.5t40 -20.5q63 0 63 139
q0 198 -123 318t-366 120q-119 0 -217 -40t-160 -107t-95.5 -151.5t-33.5 -176.5q0 -201 120 -329t343 -128q81 0 149.5 19.5t102.5 50.5l163 -205q-74 -56 -180.5 -90.5t-234.5 -34.5q-170 0 -311.5 54.5t-236.5 150.5t-147.5 227.5t-52.5 284.5q0 147 56.5 280.5
t157.5 233.5t251 159.5t326 59.5zM827 387q34 0 56 22t22 54t-22 54t-56 22q-40 0 -61 -22t-21 -54q0 -30 21.5 -53t60.5 -23z" />
    <glyph glyph-name="A" unicode="A" horiz-adv-x="1390" 
d="M983 0l-61 211h-451l-61 -211h-418l444 1423h518l445 -1423h-416zM571 553h248l-123 422z" />
    <glyph glyph-name="B" unicode="B" horiz-adv-x="1308" 
d="M1038 760q107 -52 165.5 -143t58.5 -205q0 -185 -126.5 -298.5t-353.5 -113.5h-684v1423h717q177 0 287 -93t110 -253q0 -96 -46 -178.5t-128 -138.5zM791 989q0 96 -113 96h-162v-194h162q56 0 84.5 26t28.5 72zM717 338q59 0 91 27.5t32 80.5t-33.5 81t-91.5 28h-199
v-217h201z" />
    <glyph glyph-name="C" unicode="C" horiz-adv-x="1509" 
d="M801 -29q-210 0 -381.5 95t-270 265t-98.5 380q0 212 99 381.5t271.5 264.5t385.5 95q140 0 262.5 -42.5t207 -112.5t140.5 -152.5t80 -169.5l-405 -164q-21 111 -96 176.5t-199 65.5q-143 0 -229.5 -93.5t-86.5 -248.5q0 -154 86 -247t226 -93q126 0 202 65.5t97 175.5
l405 -163q-25 -91 -83.5 -174.5t-144.5 -152.5t-208 -110t-260 -41z" />
    <glyph glyph-name="D" unicode="D" horiz-adv-x="1492" 
d="M688 1423q339 0 545.5 -192t206.5 -518t-206.5 -519.5t-545.5 -193.5h-590v1423h590zM674 375q159 0 247.5 84t88.5 248q0 171 -88.5 256.5t-247.5 85.5h-152v-674h152z" />
    <glyph glyph-name="E" unicode="E" horiz-adv-x="1193" 
d="M522 367h602v-367h-1026v1423h1016v-366h-592v-160h510v-367h-510v-163z" />
    <glyph glyph-name="F" unicode="F" horiz-adv-x="1148" 
d="M1102 1057h-580v-180h498v-367h-498v-510h-424v1423h1004v-366z" />
    <glyph glyph-name="G" unicode="G" horiz-adv-x="1595" 
d="M1554 788q0 -198 -57 -355t-157.5 -257t-234 -152.5t-290.5 -52.5q-163 0 -305.5 56.5t-243 155t-158 235.5t-57.5 293q0 157 58 295t159 235.5t242.5 154t302.5 56.5q107 0 204.5 -24.5t173.5 -66.5t138.5 -97.5t104 -116.5t65.5 -125l-403 -166q-27 89 -103 143
t-188 54q-152 0 -238 -95.5t-86 -255.5q0 -165 94.5 -258.5t278.5 -93.5q191 0 264 121h-315v317h751z" />
    <glyph glyph-name="H" unicode="H" horiz-adv-x="1423" 
d="M901 1423h424v-1423h-424v526h-379v-526h-424v1423h424v-520h379v520z" />
    <glyph glyph-name="I" unicode="I" horiz-adv-x="620" 
d="M98 0v1423h424v-1423h-424z" />
    <glyph glyph-name="J" unicode="J" horiz-adv-x="743" 
d="M51 0v377h70q110 0 110 110v936h424v-942q0 -224 -126 -352.5t-371 -128.5h-107z" />
    <glyph glyph-name="K" unicode="K" horiz-adv-x="1384" 
d="M1413 1423l-491 -706l473 -717h-477l-396 623v-623h-424v1423h424v-610l410 610h481z" />
    <glyph glyph-name="L" unicode="L" horiz-adv-x="1138" 
d="M522 377h592v-377h-1016v1423h424v-1046z" />
    <glyph glyph-name="M" unicode="M" horiz-adv-x="1794" 
d="M1739 0h-393l-60 774l-213 -735h-350l-213 737l-61 -776h-392l111 1423h496l233 -819l236 819h493z" />
    <glyph glyph-name="N" unicode="N" horiz-adv-x="1425" 
d="M905 1423h422v-1423h-350l-457 690v-690h-422v1423h351l456 -698v698z" />
    <glyph glyph-name="O" unicode="O" horiz-adv-x="1628" 
d="M815 -29q-210 0 -386 98.5t-278 268.5t-102 373q0 153 60 290.5t162.5 236.5t244.5 156.5t299 57.5t298.5 -57.5t243.5 -156.5t162 -236.5t60 -290.5q0 -203 -101.5 -373t-277 -268.5t-385.5 -98.5zM815 371q153 0 243.5 95t90.5 247q0 150 -89 245t-245 95t-246 -95
t-90 -245q0 -151 91.5 -246.5t244.5 -95.5z" />
    <glyph glyph-name="P" unicode="P" horiz-adv-x="1284" 
d="M729 1423q242 0 385 -130t143 -349q0 -217 -144.5 -348t-383.5 -131h-207v-465h-424v1423h631zM705 834q61 0 91.5 30.5t30.5 79.5t-30.5 80t-91.5 31h-183v-221h183z" />
    <glyph glyph-name="Q" unicode="Q" horiz-adv-x="1628" 
d="M1579 711q0 -169 -72 -317t-200 -251l254 -231l-291 -303l-393 364q-20 -2 -62 -2q-210 0 -386 98.5t-278 268.5t-102 373q0 153 60 290.5t162.5 236.5t244.5 156.5t299 57.5t298.5 -57.5t243.5 -156.5t162 -236.5t60 -290.5zM479 713q0 -151 91.5 -246.5t244.5 -95.5
t243.5 95t90.5 247q0 150 -89 245t-245 95t-246 -95t-90 -245z" />
    <glyph glyph-name="R" unicode="R" horiz-adv-x="1323" 
d="M1296 0h-467l-311 522v-522h-420v1423h631q240 0 384 -124.5t144 -319.5q0 -145 -85 -256t-234 -158zM844 942q0 54 -33.5 83.5t-93.5 29.5h-199v-226h199q60 0 93.5 29.5t33.5 83.5z" />
    <glyph glyph-name="S" unicode="S" horiz-adv-x="1265" 
d="M621 -29q-219 0 -375.5 102t-214.5 289l399 154q24 -88 86 -135t148 -47q120 0 120 76q0 31 -23.5 54.5t-63.5 39t-92 29.5t-109.5 30.5t-115 37t-109.5 54t-92 77.5t-63.5 111t-23.5 150q0 207 144.5 333t406.5 126q211 0 359.5 -98.5t187.5 -253.5l-399 -154
q-18 73 -62 110.5t-106 37.5q-55 0 -82 -19t-27 -51q0 -30 24 -52t64.5 -37.5t92.5 -29.5t110 -31.5t116 -39.5t110 -58t92.5 -82.5t64.5 -117t24 -158.5q0 -199 -158 -323t-433 -124z" />
    <glyph glyph-name="T" unicode="T" horiz-adv-x="1263" 
d="M1239 1423v-376h-395v-1047h-424v1047h-395v376h1214z" />
    <glyph glyph-name="U" unicode="U" horiz-adv-x="1388" 
d="M883 1423h422v-848q0 -126 -38.5 -234t-112.5 -191.5t-191.5 -131t-266.5 -47.5t-267 47.5t-192.5 131t-113.5 192t-39 233.5v848h426v-848q0 -97 47 -150.5t139 -53.5t139.5 53.5t47.5 150.5v848z" />
    <glyph glyph-name="V" unicode="V" horiz-adv-x="1413" 
d="M985 1423h440l-456 -1423h-523l-458 1423h440l279 -917z" />
    <glyph glyph-name="W" unicode="W" horiz-adv-x="1949" 
d="M1538 1423h418l-314 -1423h-503l-162 815l-166 -815h-502l-313 1423h418l153 -917l178 917h461l178 -925z" />
    <glyph glyph-name="X" unicode="X" horiz-adv-x="1447" 
d="M1468 0h-485l-274 401l-252 -401h-484l504 743l-465 682h486l245 -360l220 360h485l-469 -706z" />
    <glyph glyph-name="Y" unicode="Y" horiz-adv-x="1398" 
d="M1421 1423l-510 -843v-580h-422v575l-512 848h474l249 -462l248 462h473z" />
    <glyph glyph-name="Z" unicode="Z" horiz-adv-x="1255" 
d="M1184 379l10 -379h-1131v287l566 768h-555v368h1112v-284l-578 -760h576z" />
    <glyph glyph-name="bracketleft" unicode="[" horiz-adv-x="722" 
d="M662 1358h-173v-1301h173v-344h-566v1989h566v-344z" />
    <glyph glyph-name="backslash" unicode="\" horiz-adv-x="837" 
d="M440 -102l-403 1558h362l406 -1558h-365z" />
    <glyph glyph-name="bracketright" unicode="]" horiz-adv-x="722" 
d="M61 1702h566v-1989h-566v344h172v1301h-172v344z" />
    <glyph glyph-name="asciicircum" unicode="^" horiz-adv-x="1216" 
d="M1180 694h-408l-162 285l-166 -285h-407l444 729h246z" />
    <glyph glyph-name="underscore" unicode="_" horiz-adv-x="1267" 
d="M55 -379v340h1157v-340h-1157z" />
    <glyph glyph-name="grave" unicode="`" horiz-adv-x="765" 
d="M627 1128l-566 322l189 307l545 -360z" />
    <glyph glyph-name="a" unicode="a" horiz-adv-x="1312" 
d="M848 1079h389v-1079h-389v59q-105 -88 -266 -88q-235 0 -388 162t-153 406q0 241 151.5 390.5t389.5 149.5q159 0 266 -80v80zM645 342q86 0 137.5 54.5t51.5 142.5t-51.5 142t-137.5 54q-82 0 -133 -55t-51 -141q0 -87 51.5 -142t132.5 -55z" />
    <glyph glyph-name="b" unicode="b" horiz-adv-x="1312" 
d="M741 1106q234 0 382.5 -161t148.5 -406q0 -244 -153 -406t-388 -162q-155 0 -266 84v-55h-389v1497h422v-457q104 66 243 66zM668 342q81 0 132.5 55t51.5 142q0 86 -51 141t-133 55q-86 0 -137.5 -54t-51.5 -142t51.5 -142.5t137.5 -54.5z" />
    <glyph glyph-name="c" unicode="c" horiz-adv-x="1181" 
d="M623 -29q-247 0 -415.5 163.5t-168.5 402.5q0 117 44.5 221.5t121 181t185.5 121.5t233 45q116 0 216 -36.5t165.5 -94t107 -119t57.5 -119.5l-374 -149q-14 63 -56 103t-106 40q-72 0 -121 -51t-49 -141t48.5 -141.5t119.5 -51.5q66 0 111 40t59 99l375 -149
q-12 -44 -40 -91.5t-77 -97t-110 -88t-146 -63.5t-180 -25z" />
    <glyph glyph-name="d" unicode="d" horiz-adv-x="1312" 
d="M815 1497h422v-1497h-389v55q-111 -84 -266 -84q-235 0 -388 162t-153 406q0 245 148 406t382 161q140 0 244 -66v457zM645 342q86 0 137.5 54.5t51.5 142.5t-51.5 142t-137.5 54q-82 0 -133 -55t-51 -141q0 -87 51.5 -142t132.5 -55z" />
    <glyph glyph-name="e" unicode="e" horiz-adv-x="1218" 
d="M451 420q49 -115 194 -115q66 0 103 18t71 58l303 -207q-40 -42 -77 -72.5t-95.5 -63t-138.5 -50t-178 -17.5q-135 0 -247.5 43.5t-188 119.5t-117 180.5t-41.5 224.5q0 153 76 283.5t207 207t286 76.5q132 0 243.5 -49t182 -128t109.5 -174.5t39 -193.5q0 -75 -8 -141
h-723zM438 662h361q-19 66 -65 102.5t-116 36.5q-146 0 -180 -139z" />
    <glyph glyph-name="f" unicode="f" horiz-adv-x="817" 
d="M723 1196q-61 0 -92 -30t-31 -83v-4h184v-358h-184v-721h-422v721h-137v358h139q11 208 145 326.5t380 118.5h79v-328h-61z" />
    <glyph glyph-name="g" unicode="g" horiz-adv-x="1308" 
d="M846 1079h389v-895q0 -127 -41.5 -233t-119.5 -183t-196.5 -120t-265.5 -43q-436 0 -567 307l356 137q54 -94 213 -94q108 0 170 51.5t62 136.5v7q-108 -87 -266 -87q-116 0 -217 41t-172 111t-111.5 165t-40.5 200t40.5 201.5t111 168t172.5 114t217 42.5q160 0 266 -86
v59zM637 383q80 0 131 50.5t51 125.5t-51 125.5t-131 50.5q-76 0 -127 -51.5t-51 -124.5t51 -124.5t127 -51.5z" />
    <glyph glyph-name="h" unicode="h" horiz-adv-x="1232" 
d="M756 1108q182 0 295.5 -115t113.5 -295v-698h-422v614q0 54 -36.5 86.5t-85.5 32.5t-86 -32.5t-37 -86.5v-614h-422v1497h422v-461q112 72 258 72z" />
    <glyph glyph-name="i" unicode="i" horiz-adv-x="573" 
d="M289 1200q-107 0 -179.5 69t-72.5 175q0 107 72.5 177.5t179.5 70.5t179.5 -70.5t72.5 -177.5q0 -106 -72.5 -175t-179.5 -69zM76 0v1079h422v-1079h-422z" />
    <glyph glyph-name="j" unicode="j" horiz-adv-x="581" 
d="M305 1202q-107 0 -179.5 69t-72.5 175q0 107 72.5 177.5t179.5 70.5t179.5 -70.5t72.5 -177.5q0 -106 -72.5 -175t-179.5 -69zM-63 -383l-3 358h21q58 0 93.5 38t35.5 106v960h422v-954q0 -158 -66.5 -275t-177 -175t-250.5 -58h-75z" />
    <glyph glyph-name="k" unicode="k" horiz-adv-x="1177" 
d="M1206 1079l-348 -491l344 -588h-450l-254 436v-436h-422v1497h422v-797l243 379h465z" />
    <glyph glyph-name="l" unicode="l" horiz-adv-x="573" 
d="M76 0v1497h422v-1497h-422z" />
    <glyph glyph-name="m" unicode="m" horiz-adv-x="1828" 
d="M1360 1108q99 0 177 -35t126 -95t73 -136.5t25 -163.5v-676h-422v594q0 56 -23.5 96.5t-76.5 40.5q-109 0 -109 -123v-608h-421v594q0 55 -24.5 96t-78.5 41q-108 0 -108 -123v-608h-422v1077h397v-61q108 90 272 90q203 0 291 -111q108 111 324 111z" />
    <glyph glyph-name="n" unicode="n" horiz-adv-x="1232" 
d="M756 1108q182 0 295.5 -115t113.5 -295v-698h-422v614q0 54 -36.5 86.5t-85.5 32.5t-86 -32.5t-37 -86.5v-614h-422v1079h397v-59q120 88 283 88z" />
    <glyph glyph-name="o" unicode="o" horiz-adv-x="1286" 
d="M641 -29q-262 0 -432 162.5t-170 405.5q0 160 76.5 289.5t214.5 203.5t311 74q264 0 435 -161.5t171 -405.5q0 -119 -45.5 -224t-124.5 -181t-192.5 -119.5t-243.5 -43.5zM645 346q80 0 129 53.5t49 141.5q0 86 -48 138t-130 52q-84 0 -133 -52.5t-49 -139.5
q0 -86 49 -139.5t133 -53.5z" />
    <glyph glyph-name="p" unicode="p" horiz-adv-x="1312" 
d="M741 1106q234 0 382.5 -161t148.5 -406q0 -244 -153 -406t-388 -162q-133 0 -233 62v-400h-422v1446h389v-61q114 88 276 88zM668 342q81 0 132.5 55t51.5 142q0 86 -51 141t-133 55q-86 0 -137.5 -54t-51.5 -142t51.5 -142.5t137.5 -54.5z" />
    <glyph glyph-name="q" unicode="q" horiz-adv-x="1312" 
d="M848 1079h389v-1446h-422v400q-100 -62 -233 -62q-235 0 -388 162t-153 406q0 245 148 406t382 161q163 0 277 -88v61zM645 342q86 0 137.5 54.5t51.5 142.5t-51.5 142t-137.5 54q-82 0 -133 -55t-51 -141q0 -87 51.5 -142t132.5 -55z" />
    <glyph glyph-name="r" unicode="r" horiz-adv-x="780" 
d="M473 1012q117 96 277 96v-395q-134 0 -193 -36.5t-59 -133.5v-543h-422v1079h397v-67z" />
    <glyph glyph-name="s" unicode="s" horiz-adv-x="1046" 
d="M522 -29q-192 0 -321 77t-178 224l339 131q39 -124 175 -124q69 0 69 40q0 25 -29.5 44t-76.5 33t-104 29.5t-114 40.5t-104 59.5t-76.5 93t-29.5 133.5q0 164 125.5 259t341.5 95q175 0 293.5 -66.5t150.5 -183.5l-340 -131q-27 84 -111 84q-61 0 -61 -39q0 -20 23 -34
t60.5 -23t85.5 -21.5t98.5 -26t98.5 -40t85.5 -61t60.5 -91t23 -127.5q0 -173 -130.5 -274t-353.5 -101z" />
    <glyph glyph-name="t" unicode="t" horiz-adv-x="890" 
d="M645 0q-221 0 -336.5 119t-115.5 323v279h-173v358h74q123 0 123 131v160h412v-291h211v-358h-226v-227q0 -127 121 -127h105v-367h-195z" />
    <glyph glyph-name="u" unicode="u" horiz-adv-x="1218" 
d="M721 1079h422v-1079h-395v63q-119 -92 -273 -92q-197 0 -302 121t-105 309v678h421v-620q0 -48 31.5 -80.5t85.5 -32.5q112 0 115 117v616z" />
    <glyph glyph-name="v" unicode="v" horiz-adv-x="1191" 
d="M766 1079h434l-356 -1079h-496l-356 1079h434l170 -643z" />
    <glyph glyph-name="w" unicode="w" horiz-adv-x="1736" 
d="M1311 1079h428l-264 -1079h-498l-107 559l-102 -559h-500l-268 1079h428l107 -622l100 622h469l102 -618z" />
    <glyph glyph-name="x" unicode="x" horiz-adv-x="1216" 
d="M1243 0h-463l-184 254l-188 -254h-447l412 559l-379 520h463l170 -233l168 233h446l-391 -540z" />
    <glyph glyph-name="y" unicode="y" horiz-adv-x="1198" 
d="M772 1079h434l-477 -1446h-414l138 367h-150l-305 1079h434l148 -735z" />
    <glyph glyph-name="z" unicode="z" horiz-adv-x="1062" 
d="M590 338h416v-338h-949v293l412 448h-395v338h915v-307z" />
    <glyph glyph-name="braceleft" unicode="{" horiz-adv-x="786" 
d="M610 -287q-215 0 -325.5 119t-110.5 324v313q0 33 -16.5 46t-51.5 13h-63v357h63q35 0 51.5 13t16.5 46v313q0 205 110.5 324t325.5 119h113v-344h-53q-103 0 -103 -103v-301q0 -88 -24 -142.5t-107 -102.5q83 -48 107 -103t24 -143v-301q0 -103 103 -103h53v-344h-113z
" />
    <glyph glyph-name="bar" unicode="|" horiz-adv-x="499" 
d="M96 -205v1688h307v-1688h-307z" />
    <glyph glyph-name="braceright" unicode="}" horiz-adv-x="786" 
d="M63 -287v344h54q102 0 102 103v301q0 88 24 143t107 103q-83 48 -107 102.5t-24 142.5v301q0 103 -102 103h-54v344h113q215 0 325.5 -119t110.5 -324v-313q0 -33 16.5 -46t51.5 -13h63v-357h-63q-35 0 -51.5 -13t-16.5 -46v-313q0 -205 -110.5 -324t-325.5 -119h-113z
" />
    <glyph glyph-name="asciitilde" unicode="~" horiz-adv-x="1071" 
d="M733 485q-58 0 -107.5 16t-79 35.5t-70 35.5t-81.5 16q-107 0 -159 -78l-195 227q56 92 133.5 140.5t165.5 48.5q58 0 107.5 -16t79 -35.5t70 -35.5t81.5 -16q108 0 160 78l194 -227q-56 -92 -133.5 -140.5t-165.5 -48.5z" />
    <glyph glyph-name="uni00A0" unicode="&#xa0;" horiz-adv-x="346" 
 />
    <glyph glyph-name="exclamdown" unicode="&#xa1;" horiz-adv-x="595" 
d="M297 649q-93 0 -155 63t-62 158q0 92 62.5 154.5t154.5 62.5q94 0 156.5 -62.5t62.5 -154.5q0 -95 -62.5 -158t-156.5 -63zM59 -367l70 873h332l78 -873h-480z" />
    <glyph glyph-name="cent" unicode="&#xa2;" horiz-adv-x="1103" 
d="M1061 504q-10 -36 -35 -77.5t-64.5 -85t-99.5 -81.5t-129 -59v-201h-338v203q-153 50 -246.5 178t-93.5 293q0 166 92.5 297t247.5 180v203h338v-201q69 -21 127.5 -58.5t97.5 -81.5t63.5 -86t35.5 -81l-363 -144q-22 107 -121 107q-51 0 -84.5 -34t-33.5 -99
q0 -63 33.5 -96t82.5 -33q53 0 86 28.5t41 71.5z" />
    <glyph glyph-name="sterling" unicode="&#xa3;" horiz-adv-x="1234" 
d="M623 483v-116h520v-367h-944v483h-133v367h133v59q0 203 141.5 340t359.5 137q211 0 334.5 -86.5t157.5 -232.5l-361 -139q-11 45 -33.5 69.5t-74.5 24.5q-100 0 -100 -113v-59h313v-367h-313z" />
    <glyph glyph-name="currency" unicode="&#xa4;" horiz-adv-x="1183" 
d="M1073 678q0 -102 -45 -197l96 -96l-241 -238l-105 107q-94 -33 -186 -33t-186 33l-107 -107l-240 240l95 94q-45 92 -45 197q0 104 45 199l-95 94l240 239l104 -106q94 33 189 33q93 0 184 -33l109 106l239 -239l-96 -97q45 -92 45 -196zM592 559q54 0 85.5 32.5
t31.5 86.5q0 55 -31 88t-86 33q-56 0 -87.5 -33t-31.5 -88q0 -54 32.5 -86.5t86.5 -32.5z" />
    <glyph glyph-name="yen" unicode="&#xa5;" horiz-adv-x="1325" 
d="M1290 1352l-383 -701h191v-268h-226v-8h226v-266h-226v-109h-419v109h-226v266h226v8h-226v268h191l-383 701h450l179 -383l176 383h450z" />
    <glyph glyph-name="brokenbar" unicode="&#xa6;" horiz-adv-x="499" 
d="M96 801v682h307v-682h-307zM96 -205v682h307v-682h-307z" />
    <glyph glyph-name="section" unicode="&#xa7;" horiz-adv-x="1124" 
d="M938 309q100 -86 100 -229q0 -188 -129 -292.5t-354 -104.5q-406 0 -500 282l340 131q19 -60 59.5 -92.5t96.5 -32.5q40 0 64 18.5t24 49.5q0 32 -32 57t-82.5 43t-112 37.5t-123 49t-112 68.5t-82.5 104t-32 149q0 167 142 274q-101 91 -101 238q0 178 125 276.5
t342 98.5q175 0 294 -66.5t151 -183.5l-340 -131q-27 84 -105 84q-33 0 -50 -16t-17 -42q0 -29 24.5 -51t64 -35.5t90.5 -29.5t103.5 -32t103.5 -44.5t90.5 -65t64 -95.5t24.5 -134q0 -174 -131 -283zM463 582q0 -39 33 -65t96 -48q34 8 56 31t22 57q0 37 -30.5 61.5
t-90.5 45.5q-46 -4 -66 -27.5t-20 -54.5z" />
    <glyph glyph-name="dieresis" unicode="&#xa8;" horiz-adv-x="1062" 
d="M299 1208q-99 0 -168.5 68t-69.5 174q0 104 70.5 168.5t175.5 64.5q101 0 168.5 -68t67.5 -173q0 -102 -70 -168t-174 -66zM856 1208q-101 0 -170.5 67.5t-69.5 174.5q0 104 70.5 168.5t175.5 64.5q101 0 169.5 -68t68.5 -173q0 -102 -70 -168t-174 -66z" />
    <glyph glyph-name="copyright" unicode="&#xa9;" horiz-adv-x="1558" 
d="M780 -31q-162 0 -298 52.5t-229.5 145.5t-145.5 223.5t-52 283.5q0 200 89 361t255.5 255t380.5 94t380 -94t254.5 -255t88.5 -361q0 -153 -52 -283.5t-145 -223.5t-228.5 -145.5t-297.5 -52.5zM780 227q202 0 329.5 124t127.5 323q0 192 -129 322t-328 130
q-201 0 -329.5 -129.5t-128.5 -322.5q0 -199 127 -323t331 -124zM782 303q-163 0 -274 108.5t-111 266.5q0 157 110.5 266t274.5 109q76 0 142.5 -24t110 -62t71 -78.5t37.5 -79.5l-283 -100q-5 23 -24 39t-48 16q-32 0 -52.5 -23t-20.5 -63t20.5 -63t52.5 -23
q29 0 48.5 15.5t25.5 39.5l285 -102q-10 -37 -38 -77t-72 -78t-111 -62.5t-144 -24.5z" />
    <glyph glyph-name="ordfeminine" unicode="&#xaa;" horiz-adv-x="815" 
d="M530 1690h213v-617h-213v57q-74 -77 -196 -77q-128 0 -216.5 92t-88.5 235q0 146 88 236t217 90q123 0 196 -70v54zM387 1317q35 0 54.5 18.5t19.5 46.5q0 27 -19.5 45.5t-54.5 18.5q-36 0 -54 -18t-18 -46q0 -27 18.5 -46t53.5 -19z" />
    <glyph glyph-name="guillemotleft" unicode="&#xab;" horiz-adv-x="1177" 
d="M276 129l-245 358l245 359h388l-246 -359l246 -358h-388zM729 129l-246 358l246 359h387l-246 -359l246 -358h-387z" />
    <glyph glyph-name="logicalnot" unicode="&#xac;" horiz-adv-x="1038" 
d="M72 852h868v-608h-391v256h-477v352z" />
    <glyph glyph-name="registered" unicode="&#xae;" horiz-adv-x="1093" 
d="M551 1481q201 0 340 -140.5t139 -345.5q0 -134 -64.5 -244.5t-174 -172.5t-240.5 -62q-210 0 -349 137t-139 342q0 135 63 246.5t175 175.5t250 64zM551 674q137 0 227 89t90 232q0 139 -91 231.5t-226 92.5q-141 0 -233.5 -90.5t-92.5 -233.5t92.5 -232t233.5 -89z
M733 1079q0 -70 -55 -112l82 -185h-156l-65 154h-13v-154h-147v441h199q65 0 110 -39.5t45 -104.5zM586 1079q0 31 -37 31h-23v-61h23q37 0 37 30z" />
    <glyph glyph-name="macron" unicode="&#xaf;" horiz-adv-x="800" 
d="M61 1282v332h760v-332h-760z" />
    <glyph glyph-name="degree" unicode="&#xb0;" horiz-adv-x="849" 
d="M424 682q-170 0 -279.5 106t-109.5 269t111 269t280 106q168 0 277.5 -105.5t109.5 -267.5q0 -167 -108.5 -272t-280.5 -105zM424 926q57 0 92 35.5t35 95.5q0 56 -36.5 93.5t-90.5 37.5q-52 0 -89.5 -38.5t-37.5 -92.5q0 -58 35.5 -94.5t91.5 -36.5z" />
    <glyph glyph-name="plusminus" unicode="&#xb1;" horiz-adv-x="1052" 
d="M711 1087h256v-352h-256v-248h-369v248h-256v352h256v273h369v-273zM86 29v352h881v-352h-881z" />
    <glyph glyph-name="uni00B2" unicode="&#xb2;" horiz-adv-x="720" 
d="M465 926h186v-215h-581v172l215 182q53 45 71.5 71.5t18.5 49.5q0 14 -8 22.5t-21 8.5q-38 0 -47 -66l-246 80q15 93 98 150t205 57q135 0 210 -62t75 -170q0 -72 -31 -127.5t-121 -132.5z" />
    <glyph glyph-name="uni00B3" unicode="&#xb3;" horiz-adv-x="665" 
d="M473 1141q68 -22 110 -78.5t42 -130.5q0 -101 -86 -169.5t-213 -68.5q-114 0 -192.5 44.5t-102.5 119.5l237 96q13 -36 51 -36q18 0 28.5 10t10.5 24q0 33 -43 33h-143v168l100 68h-198v202h495v-202z" />
    <glyph glyph-name="acute" unicode="&#xb4;" horiz-adv-x="817" 
d="M229 1128l-168 269l545 360l189 -307z" />
    <glyph glyph-name="paragraph" unicode="&#xb6;" horiz-adv-x="1388" 
d="M1270 1423v-1628h-213v1280h-72v-1280h-213v1280h-72v-610h-133q-239 0 -383.5 131t-144.5 348q0 219 143 349t385 130h703z" />
    <glyph glyph-name="periodcentered" unicode="&#xb7;" horiz-adv-x="530" 
d="M264 489q-92 0 -154.5 63t-62.5 155q0 95 62 158t155 63q94 0 156.5 -63t62.5 -158q0 -93 -62.5 -155.5t-156.5 -62.5z" />
    <glyph glyph-name="cedilla" unicode="&#xb8;" horiz-adv-x="600" 
d="M340 -498q-87 0 -162.5 27.5t-116.5 71.5l134 168q32 -43 86 -43q29 0 45 13.5t16 35.5q0 23 -17 38t-49 15h-30l-19 14l66 203h246l-37 -115q57 -11 97 -65t40 -129q0 -106 -83.5 -170t-215.5 -64z" />
    <glyph glyph-name="uni00B9" unicode="&#xb9;" horiz-adv-x="626" 
d="M487 942h86v-231h-497v231h133v139h-131v232h131v110h278v-481z" />
    <glyph glyph-name="ordmasculine" unicode="&#xba;" horiz-adv-x="751" 
d="M373 1051q-151 0 -248.5 94.5t-97.5 236.5t97.5 237t248.5 95q155 0 253.5 -94.5t98.5 -237.5q0 -141 -98.5 -236t-253.5 -95zM375 1315q65 0 65 67q0 70 -65 70q-66 0 -66 -70q0 -67 66 -67z" />
    <glyph glyph-name="guillemotright" unicode="&#xbb;" horiz-adv-x="1177" 
d="M61 129l246 358l-246 359h388l245 -359l-245 -358h-388zM514 129l246 358l-246 359h387l246 -359l-246 -358h-387z" />
    <glyph glyph-name="onequarter" unicode="&#xbc;" horiz-adv-x="1470" 
d="M553 711h-498v231h133v139h-131v232h131v110h279v-481h86v-231zM936 1423h301l-643 -1423h-297zM1425 295v-182h-51v-113h-260v113h-287v194l289 406h258v-418h51zM1116 295v133l-94 -133h94z" />
    <glyph glyph-name="onehalf" unicode="&#xbd;" horiz-adv-x="1548" 
d="M553 711h-498v231h133v139h-131v232h131v110h279v-481h86v-231zM936 1423h301l-643 -1423h-297zM1317 215h186v-215h-581v172l215 182q53 45 71.5 71.5t18.5 49.5q0 14 -8 22.5t-21 8.5q-38 0 -47 -66l-246 80q15 93 98 150t205 57q135 0 210 -61.5t75 -169.5
q0 -72 -31 -127.5t-121 -132.5z" />
    <glyph glyph-name="threequarters" unicode="&#xbe;" horiz-adv-x="1529" 
d="M631 932q0 -101 -86 -169.5t-213 -68.5q-114 0 -192.5 44.5t-102.5 119.5l237 96q13 -36 52 -36q18 0 28.5 10t10.5 24q0 33 -43 33h-144v168l101 68h-199v202h495v-202l-96 -80q68 -22 110 -78.5t42 -130.5zM985 1423h301l-643 -1423h-297zM1475 295v-182h-52v-113h-260
v113h-286v194l288 406h258v-418h52zM1165 295v133l-94 -133h94z" />
    <glyph glyph-name="questiondown" unicode="&#xbf;" horiz-adv-x="1050" 
d="M575 647q-95 0 -157 63t-62 156q0 94 62.5 156.5t156.5 62.5q92 0 155 -62t63 -153q0 -96 -62.5 -159.5t-155.5 -63.5zM518 -387q-217 0 -343 100.5t-126 274.5q0 70 19 128.5t49.5 98.5t67.5 73t74 58t67.5 47.5t49.5 48t19 52.5v12h359v-45q0 -54 -20 -100t-49.5 -76
t-64 -58.5t-64 -49.5t-49.5 -48t-20 -55q0 -58 60 -58q31 0 51.5 21t26.5 59l395 -129q-39 -164 -170 -259t-332 -95z" />
    <glyph glyph-name="Agrave" unicode="&#xc0;" horiz-adv-x="1390" 
d="M1087 1806l-92 -303l-690 180l103 345zM983 0l-61 211h-451l-61 -211h-418l444 1423h518l445 -1423h-416zM571 553h248l-123 422z" />
    <glyph glyph-name="Aacute" unicode="&#xc1;" horiz-adv-x="1390" 
d="M1108 1683l-690 -180l-92 303l680 222zM983 0l-61 211h-451l-61 -211h-418l444 1423h518l445 -1423h-416zM571 553h248l-123 422z" />
    <glyph glyph-name="Acircumflex" unicode="&#xc2;" horiz-adv-x="1390" 
d="M696 1696l-123 -156h-370l327 442h342l316 -442h-369zM983 0l-61 211h-451l-61 -211h-418l444 1423h518l445 -1423h-416zM571 553h248l-123 422z" />
    <glyph glyph-name="Atilde" unicode="&#xc3;" horiz-adv-x="1390" 
d="M600 1620q-72 0 -92 -78l-285 121q14 55 40.5 106t66.5 96t99 72t128 27q49 0 93.5 -14.5t72 -32.5t60 -32.5t59.5 -14.5q65 0 88 78l284 -121q-35 -128 -118.5 -214.5t-212.5 -86.5q-49 0 -92.5 14.5t-69.5 32.5t-59 32.5t-62 14.5zM983 0l-61 211h-451l-61 -211h-418
l444 1423h518l445 -1423h-416zM571 553h248l-123 422z" />
    <glyph glyph-name="Adieresis" unicode="&#xc4;" horiz-adv-x="1390" 
d="M403 1513q-104 0 -175.5 70t-71.5 182q0 108 73.5 176t182.5 68q105 0 175 -71t70 -181q0 -106 -73 -175t-181 -69zM981 1513q-105 0 -177.5 70t-72.5 182q0 108 73.5 176t182.5 68q105 0 176.5 -71.5t71.5 -180.5q0 -106 -73 -175t-181 -69zM983 0l-61 211h-451
l-61 -211h-418l444 1423h518l445 -1423h-416zM571 553h248l-123 422z" />
    <glyph glyph-name="Aring" unicode="&#xc5;" horiz-adv-x="1390" 
d="M983 0l-61 211h-451l-61 -211h-418l444 1423h78q-68 40 -105.5 108t-37.5 155q0 134 91.5 220.5t233.5 86.5q144 0 234 -86.5t90 -220.5q0 -86 -36.5 -154.5t-102.5 -108.5h73l445 -1423h-416zM696 1765q-38 0 -62 -22t-24 -57q0 -37 24 -59.5t62 -22.5q37 0 60.5 22.5
t23.5 59.5q0 35 -23.5 57t-60.5 22zM571 553h248l-123 422z" />
    <glyph glyph-name="AE" unicode="&#xc6;" horiz-adv-x="1986" 
d="M1315 367h602v-367h-1026v195h-414l-76 -195h-440l582 1423h1364v-366h-592v-160h510v-367h-510v-163zM618 553h273v504h-74z" />
    <glyph glyph-name="Ccedilla" unicode="&#xc7;" horiz-adv-x="1509" 
d="M793 371q126 0 202 65.5t97 175.5l405 -163q-46 -166 -194 -298.5t-365 -168.5l-16 -52q57 -11 97 -65t40 -129q0 -106 -83.5 -170t-215.5 -64q-87 0 -162.5 27.5t-116.5 71.5l133 168q32 -43 86 -43q29 0 45.5 13.5t16.5 35.5q0 23 -17 38t-49 15h-30l-19 14l43 135
q-280 37 -459.5 240.5t-179.5 493.5q0 212 99 381.5t271.5 264.5t385.5 95q140 0 262.5 -42.5t207 -112.5t140.5 -152.5t80 -169.5l-405 -164q-21 111 -96 176.5t-199 65.5q-143 0 -229.5 -93.5t-86.5 -248.5q0 -154 86 -247t226 -93z" />
    <glyph glyph-name="Egrave" unicode="&#xc8;" horiz-adv-x="1193" 
d="M997 1806l-92 -303l-690 180l102 345zM522 367h602v-367h-1026v1423h1016v-366h-592v-160h510v-367h-510v-163z" />
    <glyph glyph-name="Eacute" unicode="&#xc9;" horiz-adv-x="1193" 
d="M1018 1683l-690 -180l-92 303l679 222zM522 367h602v-367h-1026v1423h1016v-366h-592v-160h510v-367h-510v-163z" />
    <glyph glyph-name="Ecircumflex" unicode="&#xca;" horiz-adv-x="1193" 
d="M606 1696l-123 -156h-370l327 442h342l316 -442h-369zM522 367h602v-367h-1026v1423h1016v-366h-592v-160h510v-367h-510v-163z" />
    <glyph glyph-name="Edieresis" unicode="&#xcb;" horiz-adv-x="1193" 
d="M313 1513q-104 0 -175.5 70t-71.5 182q0 108 73.5 176t182.5 68q105 0 175 -71t70 -181q0 -106 -73 -175t-181 -69zM891 1513q-105 0 -177.5 70t-72.5 182q0 108 73.5 176t182.5 68q105 0 176.5 -71.5t71.5 -180.5q0 -106 -73 -175t-181 -69zM522 530v-163h602v-367
h-1026v1423h1016v-366h-592v-160h510v-367h-510z" />
    <glyph glyph-name="Igrave" unicode="&#xcc;" horiz-adv-x="620" 
d="M610 1503l-690 180l103 345l679 -222zM98 0v1423h424v-1423h-424z" />
    <glyph glyph-name="Iacute" unicode="&#xcd;" horiz-adv-x="620" 
d="M33 1503l-92 303l680 222l102 -345zM98 0v1423h424v-1423h-424z" />
    <glyph glyph-name="Icircumflex" unicode="&#xce;" horiz-adv-x="620" 
d="M311 1696l-123 -156h-370l327 442h342l316 -442h-369zM98 0v1423h424v-1423h-424z" />
    <glyph glyph-name="Idieresis" unicode="&#xcf;" horiz-adv-x="620" 
d="M18 1513q-104 0 -175.5 70t-71.5 182q0 108 73.5 176t182.5 68q105 0 175 -71t70 -181q0 -106 -73 -175t-181 -69zM596 1513q-105 0 -177.5 70t-72.5 182q0 108 73.5 176t182.5 68q105 0 176.5 -71.5t71.5 -180.5q0 -106 -73 -175t-181 -69zM98 0v1423h424v-1423h-424z
" />
    <glyph glyph-name="Eth" unicode="&#xd0;" horiz-adv-x="1523" 
d="M719 1423q339 0 545 -192t206 -518t-206 -519.5t-545 -193.5h-590v571h-98v287h98v565h590zM705 375q159 0 247 84t88 248q0 171 -88 256.5t-247 85.5h-152v-191h295v-287h-295v-196h152z" />
    <glyph glyph-name="Ntilde" unicode="&#xd1;" horiz-adv-x="1425" 
d="M580 1620q-73 0 -93 -78l-284 121q14 55 40.5 106t66.5 96t99 72t128 27q49 0 93.5 -14.5t71.5 -32.5t59.5 -32.5t59.5 -14.5q65 0 88 78l285 -121q-16 -60 -43.5 -111.5t-67.5 -95.5t-97 -69t-124 -25q-49 0 -92.5 14.5t-69.5 32.5t-58.5 32.5t-61.5 14.5zM905 1423h422
v-1423h-350l-457 690v-690h-422v1423h351l456 -698v698z" />
    <glyph glyph-name="Ograve" unicode="&#xd2;" horiz-adv-x="1628" 
d="M1114 1503l-690 180l102 345l680 -222zM815 -29q-210 0 -386 98.5t-278 268.5t-102 373q0 153 60 290.5t162.5 236.5t244.5 156.5t299 57.5t298.5 -57.5t243.5 -156.5t162 -236.5t60 -290.5q0 -203 -101.5 -373t-277 -268.5t-385.5 -98.5zM815 371q153 0 243.5 95
t90.5 247q0 150 -89 245t-245 95t-246 -95t-90 -245q0 -151 91.5 -246.5t244.5 -95.5z" />
    <glyph glyph-name="Oacute" unicode="&#xd3;" horiz-adv-x="1628" 
d="M537 1503l-93 303l680 222l103 -345zM815 -29q-210 0 -386 98.5t-278 268.5t-102 373q0 153 60 290.5t162.5 236.5t244.5 156.5t299 57.5t298.5 -57.5t243.5 -156.5t162 -236.5t60 -290.5q0 -203 -101.5 -373t-277 -268.5t-385.5 -98.5zM815 371q153 0 243.5 95t90.5 247
q0 150 -89 245t-245 95t-246 -95t-90 -245q0 -151 91.5 -246.5t244.5 -95.5z" />
    <glyph glyph-name="Ocircumflex" unicode="&#xd4;" horiz-adv-x="1628" 
d="M815 1696l-123 -156h-370l327 442h342l316 -442h-369zM815 1452q157 0 298.5 -57.5t243.5 -156.5t162 -236.5t60 -290.5q0 -203 -101.5 -373t-277 -268.5t-385.5 -98.5t-386 98.5t-278 268.5t-102 373q0 153 60 290.5t162.5 236.5t244.5 156.5t299 57.5zM815 371
q153 0 243.5 95t90.5 247q0 150 -89 245t-245 95t-246 -95t-90 -245q0 -151 91.5 -246.5t244.5 -95.5z" />
    <glyph glyph-name="Otilde" unicode="&#xd5;" horiz-adv-x="1628" 
d="M1001 1526q-49 0 -92.5 14.5t-69.5 32.5t-58.5 32.5t-61.5 14.5q-72 0 -92 -78l-285 121q14 55 40.5 106t66.5 96t99 72t128 27q49 0 93.5 -14.5t72 -32.5t60 -32.5t59.5 -14.5q65 0 88 78l284 -121q-16 -60 -43.5 -111.5t-67.5 -95.5t-97 -69t-124 -25zM815 -29
q-210 0 -386 98.5t-278 268.5t-102 373q0 153 60 290.5t162.5 236.5t244.5 156.5t299 57.5t298.5 -57.5t243.5 -156.5t162 -236.5t60 -290.5q0 -203 -101.5 -373t-277 -268.5t-385.5 -98.5zM815 371q153 0 243.5 95t90.5 247q0 150 -89 245t-245 95t-246 -95t-90 -245
q0 -151 91.5 -246.5t244.5 -95.5z" />
    <glyph glyph-name="Odieresis" unicode="&#xd6;" horiz-adv-x="1628" 
d="M522 1513q-104 0 -176 70.5t-72 181.5q0 108 73.5 176t182.5 68q105 0 175.5 -71.5t70.5 -180.5q0 -106 -73 -175t-181 -69zM1100 1513q-105 0 -177.5 70t-72.5 182q0 108 73.5 176t182.5 68q105 0 176.5 -71.5t71.5 -180.5q0 -106 -73 -175t-181 -69zM815 -29
q-210 0 -386 98.5t-278 268.5t-102 373q0 153 60 290.5t162.5 236.5t244.5 156.5t299 57.5t298.5 -57.5t243.5 -156.5t162 -236.5t60 -290.5q0 -203 -101.5 -373t-277 -268.5t-385.5 -98.5zM815 371q153 0 243.5 95t90.5 247q0 150 -89 245t-245 95t-246 -95t-90 -245
q0 -151 91.5 -246.5t244.5 -95.5z" />
    <glyph glyph-name="multiply" unicode="&#xd7;" horiz-adv-x="1064" 
d="M1014 926l-219 -219l219 -220l-260 -260l-222 222l-221 -222l-260 258l221 222l-221 221l260 260l221 -219l220 219z" />
    <glyph glyph-name="Oslash" unicode="&#xd8;" horiz-adv-x="1634" 
d="M1602 1268l-146 -148q125 -183 125 -409q0 -203 -101.5 -373t-277 -268.5t-385.5 -98.5q-212 0 -391 103l-150 -154l-243 230l147 149q-129 184 -129 412q0 153 60 290.5t162.5 236.5t244.5 156.5t299 57.5q216 0 391 -102l152 153zM817 371q153 0 243.5 95t90.5 247
q0 150 -89 245t-245 95t-246 -95t-90 -245q0 -151 91.5 -246.5t244.5 -95.5z" />
    <glyph glyph-name="Ugrave" unicode="&#xd9;" horiz-adv-x="1388" 
d="M1087 1806l-92 -303l-690 180l103 345zM883 1423h422v-848q0 -126 -38.5 -234t-112.5 -191.5t-191.5 -131t-266.5 -47.5t-267 47.5t-192.5 131t-113.5 192t-39 233.5v848h426v-848q0 -97 47 -150.5t139 -53.5t139.5 53.5t47.5 150.5v848z" />
    <glyph glyph-name="Uacute" unicode="&#xda;" horiz-adv-x="1388" 
d="M1108 1683l-690 -180l-92 303l680 222zM883 1423h422v-848q0 -126 -38.5 -234t-112.5 -191.5t-191.5 -131t-266.5 -47.5t-267 47.5t-192.5 131t-113.5 192t-39 233.5v848h426v-848q0 -97 47 -150.5t139 -53.5t139.5 53.5t47.5 150.5v848z" />
    <glyph glyph-name="Ucircumflex" unicode="&#xdb;" horiz-adv-x="1388" 
d="M696 1696l-123 -156h-370l327 442h342l316 -442h-369zM883 1423h422v-848q0 -126 -38.5 -234t-112.5 -191.5t-191.5 -131t-266.5 -47.5t-267 47.5t-192.5 131t-113.5 192t-39 233.5v848h426v-848q0 -97 47 -150.5t139 -53.5t139.5 53.5t47.5 150.5v848z" />
    <glyph glyph-name="Udieresis" unicode="&#xdc;" horiz-adv-x="1388" 
d="M403 1513q-104 0 -175.5 70t-71.5 182q0 108 73.5 176t182.5 68q105 0 175 -71t70 -181q0 -106 -73 -175t-181 -69zM981 1513q-105 0 -177.5 70t-72.5 182q0 108 73.5 176t182.5 68q105 0 176.5 -71.5t71.5 -180.5q0 -106 -73 -175t-181 -69zM883 1423h422v-848
q0 -126 -38.5 -234t-112.5 -191.5t-191.5 -131t-266.5 -47.5t-267 47.5t-192.5 131t-113.5 192t-39 233.5v848h426v-848q0 -97 47 -150.5t139 -53.5t139.5 53.5t47.5 150.5v848z" />
    <glyph glyph-name="Yacute" unicode="&#xdd;" horiz-adv-x="1398" 
d="M1114 1683l-690 -180l-92 303l680 222zM1421 1423l-510 -843v-580h-422v575l-512 848h474l249 -462l248 462h473z" />
    <glyph glyph-name="Thorn" unicode="&#xde;" horiz-adv-x="1302" 
d="M729 1196q242 0 385 -130t143 -349q0 -217 -144.5 -348t-383.5 -131h-207v-238h-424v1423h424v-227h207zM705 606q61 0 91.5 31t30.5 80t-30.5 79.5t-91.5 30.5h-183v-221h183z" />
    <glyph glyph-name="germandbls" unicode="&#xdf;" horiz-adv-x="1314" 
d="M1059 782q93 -52 154 -154t61 -225q0 -210 -136 -321t-364 -111q-145 0 -248 58l66 325q61 -35 119 -35q61 0 97 35t36 101q0 67 -44.5 106t-135.5 39v320q60 0 97.5 33.5t37.5 93.5q0 58 -40.5 93.5t-99.5 35.5q-161 0 -161 -195v-981h-422v956q0 268 160 418t452 150
q246 0 392.5 -120.5t146.5 -307.5q0 -98 -47.5 -183t-120.5 -131z" />
    <glyph glyph-name="agrave" unicode="&#xe0;" horiz-adv-x="1312" 
d="M1032 1397l-168 -269l-565 322l188 307zM848 1079h389v-1079h-389v59q-105 -88 -266 -88q-235 0 -388 162t-153 406q0 241 151.5 390.5t389.5 149.5q159 0 266 -80v80zM645 342q86 0 137.5 54.5t51.5 142.5t-51.5 142t-137.5 54q-82 0 -133 -55t-51 -141q0 -87 51.5 -142
t132.5 -55z" />
    <glyph glyph-name="aacute" unicode="&#xe1;" horiz-adv-x="1312" 
d="M1038 1450l-565 -322l-168 269l545 360zM848 1079h389v-1079h-389v59q-105 -88 -266 -88q-235 0 -388 162t-153 406q0 241 151.5 390.5t389.5 149.5q159 0 266 -80v80zM645 342q86 0 137.5 54.5t51.5 142.5t-51.5 142t-137.5 54q-82 0 -133 -55t-51 -141q0 -87 51.5 -142
t132.5 -55z" />
    <glyph glyph-name="acircumflex" unicode="&#xe2;" horiz-adv-x="1312" 
d="M680 1399l-111 -185h-360l297 465h362l285 -465h-358zM848 1079h389v-1079h-389v59q-105 -88 -266 -88q-235 0 -388 162t-153 406q0 241 151.5 390.5t389.5 149.5q159 0 266 -80v80zM645 342q86 0 137.5 54.5t51.5 142.5t-51.5 142t-137.5 54q-82 0 -133 -55t-51 -141
q0 -87 51.5 -142t132.5 -55z" />
    <glyph glyph-name="atilde" unicode="&#xe3;" horiz-adv-x="1312" 
d="M582 1323q-30 0 -54 -19.5t-34 -58.5l-283 121q11 46 27 86.5t41.5 81t57.5 69t76.5 46.5t96.5 18q57 0 106.5 -23.5t91 -47t76.5 -23.5q27 0 49.5 19.5t32.5 58.5l285 -121q-81 -301 -297 -301q-45 0 -87 14.5t-69 32.5t-58.5 32.5t-57.5 14.5zM848 1079h389v-1079h-389
v59q-105 -88 -266 -88q-235 0 -388 162t-153 406q0 241 151.5 390.5t389.5 149.5q159 0 266 -80v80zM645 342q86 0 137.5 54.5t51.5 142.5t-51.5 142t-137.5 54q-82 0 -133 -55t-51 -141q0 -87 51.5 -142t132.5 -55z" />
    <glyph glyph-name="adieresis" unicode="&#xe4;" horiz-adv-x="1312" 
d="M399 1208q-99 0 -168 68t-69 174q0 104 70.5 168.5t175.5 64.5q101 0 168 -68t67 -173q0 -102 -70 -168t-174 -66zM956 1208q-100 0 -169.5 67.5t-69.5 174.5q0 104 70.5 168.5t175.5 64.5q101 0 169 -68t68 -173q0 -102 -70 -168t-174 -66zM848 1079h389v-1079h-389v59
q-105 -88 -266 -88q-235 0 -388 162t-153 406q0 241 151.5 390.5t389.5 149.5q159 0 266 -80v80zM645 342q86 0 137.5 54.5t51.5 142.5t-51.5 142t-137.5 54q-82 0 -133 -55t-51 -141q0 -87 51.5 -142t132.5 -55z" />
    <glyph glyph-name="aring" unicode="&#xe5;" horiz-adv-x="1312" 
d="M682 1141q-143 0 -234.5 86t-91.5 223q0 134 92 220.5t234 86.5q144 0 234 -86.5t90 -220.5q0 -138 -89.5 -223.5t-234.5 -85.5zM682 1530q-38 0 -62 -22.5t-24 -57.5q0 -37 24 -59.5t62 -22.5q37 0 60.5 22.5t23.5 59.5q0 35 -23.5 57.5t-60.5 22.5zM848 1079h389v-1079
h-389v59q-105 -88 -266 -88q-235 0 -388 162t-153 406q0 241 151.5 390.5t389.5 149.5q159 0 266 -80v80zM645 342q86 0 137.5 54.5t51.5 142.5t-51.5 142t-137.5 54q-82 0 -133 -55t-51 -141q0 -87 51.5 -142t132.5 -55z" />
    <glyph glyph-name="ae" unicode="&#xe6;" horiz-adv-x="2091" 
d="M1319 420q46 -115 180 -115q123 0 189 76l344 -148q-31 -53 -64 -92.5t-86 -81.5t-129.5 -65t-171.5 -23q-226 0 -344 105v-76h-389v59q-105 -88 -266 -88q-235 0 -388 162t-153 406t153 405.5t388 161.5q161 0 266 -88v61h389v-82q112 109 301 109q100 0 185.5 -32
t144.5 -86t101 -124.5t61.5 -147.5t19.5 -155q0 -75 -8 -141h-723zM1307 662h360q-40 139 -180 139q-146 0 -180 -139zM645 342q86 0 137.5 54.5t51.5 142.5t-51.5 142t-137.5 54q-82 0 -133 -55t-51 -141q0 -87 51.5 -142t132.5 -55z" />
    <glyph glyph-name="ccedilla" unicode="&#xe7;" horiz-adv-x="1181" 
d="M1176 336q-13 -46 -44 -95.5t-79 -99t-119.5 -90.5t-153.5 -61l-18 -60q57 -11 97 -65t40 -129q0 -106 -83.5 -170t-215.5 -64q-87 0 -162 27.5t-116 71.5l133 168q32 -43 86 -43q29 0 45 13.5t16 35.5q0 23 -16.5 38t-48.5 15h-31l-19 14l43 135q-214 31 -352.5 188
t-138.5 372q0 117 44.5 221.5t121 181t185.5 121.5t233 45q116 0 216 -36.5t165.5 -94t107 -119t57.5 -119.5l-374 -149q-14 63 -56 103t-106 40q-72 0 -121 -51t-49 -141t48.5 -141.5t119.5 -51.5q66 0 111 40t59 99z" />
    <glyph glyph-name="egrave" unicode="&#xe8;" horiz-adv-x="1218" 
d="M963 1395l-168 -269l-566 322l189 307zM451 420q49 -115 194 -115q66 0 103 18t71 58l303 -207q-40 -42 -77 -72.5t-95.5 -63t-138.5 -50t-178 -17.5q-135 0 -247.5 43.5t-188 119.5t-117 180.5t-41.5 224.5q0 153 76 283.5t207 207t286 76.5q132 0 243.5 -49t182 -128
t109.5 -174.5t39 -193.5q0 -75 -8 -141h-723zM438 662h361q-19 66 -65 102.5t-116 36.5q-146 0 -180 -139z" />
    <glyph glyph-name="eacute" unicode="&#xe9;" horiz-adv-x="1218" 
d="M969 1448l-566 -322l-167 269l544 360zM451 420q49 -115 194 -115q66 0 103 18t71 58l303 -207q-40 -42 -77 -72.5t-95.5 -63t-138.5 -50t-178 -17.5q-135 0 -247.5 43.5t-188 119.5t-117 180.5t-41.5 224.5q0 153 76 283.5t207 207t286 76.5q132 0 243.5 -49t182 -128
t109.5 -174.5t39 -193.5q0 -75 -8 -141h-723zM438 662h361q-19 66 -65 102.5t-116 36.5q-146 0 -180 -139z" />
    <glyph glyph-name="ecircumflex" unicode="&#xea;" horiz-adv-x="1218" 
d="M610 1397l-110 -185h-361l297 465h363l284 -465h-358zM451 420q49 -115 194 -115q66 0 103 18t71 58l303 -207q-40 -42 -77 -72.5t-95.5 -63t-138.5 -50t-178 -17.5q-135 0 -247.5 43.5t-188 119.5t-117 180.5t-41.5 224.5q0 153 76 283.5t207 207t286 76.5
q132 0 243.5 -49t182 -128t109.5 -174.5t39 -193.5q0 -75 -8 -141h-723zM438 662h361q-19 66 -65 102.5t-116 36.5q-146 0 -180 -139z" />
    <glyph glyph-name="edieresis" unicode="&#xeb;" horiz-adv-x="1218" 
d="M330 1206q-99 0 -168.5 68t-69.5 174q0 104 70.5 168.5t175.5 64.5q101 0 168 -68t67 -173q0 -102 -69.5 -168t-173.5 -66zM887 1206q-101 0 -170.5 67.5t-69.5 174.5q0 104 70.5 168.5t175.5 64.5q101 0 169 -68t68 -173q0 -102 -69.5 -168t-173.5 -66zM451 420
q49 -115 194 -115q66 0 103 18t71 58l303 -207q-40 -42 -77 -72.5t-95.5 -63t-138.5 -50t-178 -17.5q-135 0 -247.5 43.5t-188 119.5t-117 180.5t-41.5 224.5q0 153 76 283.5t207 207t286 76.5q132 0 243.5 -49t182 -128t109.5 -174.5t39 -193.5q0 -75 -8 -141h-723z
M438 662h361q-19 66 -65 102.5t-116 36.5q-146 0 -180 -139z" />
    <glyph glyph-name="igrave" unicode="&#xec;" horiz-adv-x="573" 
d="M471 1126l-565 322l188 307l545 -360zM76 0v1079h422v-1079h-422z" />
    <glyph glyph-name="iacute" unicode="&#xed;" horiz-adv-x="573" 
d="M80 1126l-168 269l545 360l188 -307zM76 0v1079h422v-1079h-422z" />
    <glyph glyph-name="icircumflex" unicode="&#xee;" horiz-adv-x="573" 
d="M287 1397l-111 -185h-360l297 465h362l285 -465h-359zM76 0v1079h422v-1079h-422z" />
    <glyph glyph-name="idieresis" unicode="&#xef;" horiz-adv-x="573" 
d="M6 1206q-99 0 -168 68t-69 174q0 104 70 168.5t175 64.5q101 0 168.5 -68t67.5 -173q0 -102 -70 -168t-174 -66zM563 1206q-100 0 -169.5 67.5t-69.5 174.5q0 104 70 168.5t175 64.5q101 0 169.5 -68t68.5 -173q0 -102 -70 -168t-174 -66zM76 0v1079h422v-1079h-422z" />
    <glyph glyph-name="eth" unicode="&#xf0;" horiz-adv-x="1294" 
d="M774 1493q221 -147 347 -378t126 -484q0 -160 -45 -286t-125.5 -207.5t-191 -124t-244.5 -42.5q-173 0 -311 74t-214.5 201.5t-76.5 281.5q0 156 77 284t211.5 200.5t299.5 72.5q52 0 88 -8q-81 87 -207 150l-176 -176l-203 206l68 66q-105 18 -209 18l162 338
q185 0 350 -53l133 133l203 -205zM645 346q79 0 128.5 52t49.5 132q0 78 -48.5 129.5t-129.5 51.5q-83 0 -132.5 -51.5t-49.5 -131.5q0 -78 49.5 -130t132.5 -52z" />
    <glyph glyph-name="ntilde" unicode="&#xf1;" horiz-adv-x="1232" 
d="M537 1321q-30 0 -54 -19.5t-34 -58.5l-283 121q11 46 27 86.5t41.5 81t57.5 69t76.5 46.5t96.5 18q57 0 106.5 -23.5t91 -47t76.5 -23.5q27 0 49.5 19.5t32.5 58.5l285 -121q-81 -301 -297 -301q-45 0 -87 14.5t-69 32.5t-58.5 32.5t-57.5 14.5zM756 1108
q182 0 295.5 -115t113.5 -295v-698h-422v614q0 54 -36.5 86.5t-85.5 32.5t-86 -32.5t-37 -86.5v-614h-422v1079h397v-59q120 88 283 88z" />
    <glyph glyph-name="ograve" unicode="&#xf2;" horiz-adv-x="1286" 
d="M834 1126l-566 322l189 307l544 -360zM641 -29q-262 0 -432 162.5t-170 405.5q0 160 76.5 289.5t214.5 203.5t311 74q264 0 435 -161.5t171 -405.5q0 -119 -45.5 -224t-124.5 -181t-192.5 -119.5t-243.5 -43.5zM645 346q80 0 129 53.5t49 141.5q0 86 -48 138t-130 52
q-84 0 -133 -52.5t-49 -139.5q0 -86 49 -139.5t133 -53.5z" />
    <glyph glyph-name="oacute" unicode="&#xf3;" horiz-adv-x="1286" 
d="M442 1126l-168 269l545 360l189 -307zM641 -29q-262 0 -432 162.5t-170 405.5q0 160 76.5 289.5t214.5 203.5t311 74q264 0 435 -161.5t171 -405.5q0 -119 -45.5 -224t-124.5 -181t-192.5 -119.5t-243.5 -43.5zM645 346q80 0 129 53.5t49 141.5q0 86 -48 138t-130 52
q-84 0 -133 -52.5t-49 -139.5q0 -86 49 -139.5t133 -53.5z" />
    <glyph glyph-name="ocircumflex" unicode="&#xf4;" horiz-adv-x="1286" 
d="M649 1397l-110 -185h-361l297 465h363l284 -465h-358zM641 1106q264 0 435 -161.5t171 -405.5q0 -119 -45.5 -224t-124.5 -181t-192.5 -119.5t-243.5 -43.5q-262 0 -432 162.5t-170 405.5q0 160 76.5 289.5t214.5 203.5t311 74zM645 346q80 0 129 53.5t49 141.5
q0 86 -48 138t-130 52q-84 0 -133 -52.5t-49 -139.5q0 -86 49 -139.5t133 -53.5z" />
    <glyph glyph-name="otilde" unicode="&#xf5;" horiz-adv-x="1286" 
d="M823 1227q-45 0 -87 14.5t-69 32.5t-58.5 32.5t-57.5 14.5q-30 0 -54 -19.5t-34 -58.5l-283 121q11 46 27 86.5t41.5 81t57.5 69t76.5 46.5t96.5 18q45 0 86.5 -14.5t68 -32.5t59 -32.5t61.5 -14.5q27 0 49.5 19.5t32.5 58.5l284 -121q-81 -301 -297 -301zM641 -29
q-262 0 -432 162.5t-170 405.5q0 160 76.5 289.5t214.5 203.5t311 74q264 0 435 -161.5t171 -405.5q0 -119 -45.5 -224t-124.5 -181t-192.5 -119.5t-243.5 -43.5zM645 346q80 0 129 53.5t49 141.5q0 86 -48 138t-130 52q-84 0 -133 -52.5t-49 -139.5q0 -86 49 -139.5
t133 -53.5z" />
    <glyph glyph-name="odieresis" unicode="&#xf6;" horiz-adv-x="1286" 
d="M369 1206q-99 0 -168.5 68t-69.5 174q0 104 70.5 168.5t175.5 64.5q101 0 168 -68t67 -173q0 -102 -69.5 -168t-173.5 -66zM926 1206q-101 0 -170.5 67.5t-69.5 174.5q0 104 70.5 168.5t175.5 64.5q101 0 169 -68t68 -173q0 -102 -69.5 -168t-173.5 -66zM641 -29
q-262 0 -432 162.5t-170 405.5q0 160 76.5 289.5t214.5 203.5t311 74q264 0 435 -161.5t171 -405.5q0 -119 -45.5 -224t-124.5 -181t-192.5 -119.5t-243.5 -43.5zM645 346q80 0 129 53.5t49 141.5q0 86 -48 138t-130 52q-84 0 -133 -52.5t-49 -139.5q0 -86 49 -139.5
t133 -53.5z" />
    <glyph glyph-name="divide" unicode="&#xf7;" horiz-adv-x="970" 
d="M485 940q-92 0 -154.5 62t-62.5 153q0 96 62 159.5t155 63.5q94 0 157 -63.5t63 -159.5q0 -91 -63 -153t-157 -62zM49 528v353h873v-353h-873zM485 39q-92 0 -154.5 62t-62.5 153q0 96 62 159.5t155 63.5q94 0 157 -63.5t63 -159.5q0 -91 -63 -153t-157 -62z" />
    <glyph glyph-name="oslash" unicode="&#xf8;" horiz-adv-x="1337" 
d="M1337 918l-131 -113q64 -125 64 -266q0 -119 -45.5 -224t-124.5 -181t-192.5 -119.5t-243.5 -43.5q-182 0 -328 84l-141 -123l-197 220l133 112q-70 124 -70 275q0 160 76.5 289.5t215 203.5t311.5 74q190 0 342 -90l141 121zM668 346q80 0 129 53.5t49 141.5
q0 86 -48 138t-130 52q-84 0 -133.5 -52.5t-49.5 -139.5q0 -86 49.5 -139.5t133.5 -53.5z" />
    <glyph glyph-name="ugrave" unicode="&#xf9;" horiz-adv-x="1218" 
d="M954 1397l-168 -269l-565 322l189 307zM721 1079h422v-1079h-395v63q-119 -92 -273 -92q-197 0 -302 121t-105 309v678h421v-620q0 -48 31.5 -80.5t85.5 -32.5q112 0 115 117v616z" />
    <glyph glyph-name="uacute" unicode="&#xfa;" horiz-adv-x="1218" 
d="M961 1450l-566 -322l-168 269l545 360zM721 1079h422v-1079h-395v63q-119 -92 -273 -92q-197 0 -302 121t-105 309v678h421v-620q0 -48 31.5 -80.5t85.5 -32.5q112 0 115 117v616z" />
    <glyph glyph-name="ucircumflex" unicode="&#xfb;" horiz-adv-x="1218" 
d="M602 1399l-110 -185h-361l297 465h363l284 -465h-358zM721 1079h422v-1079h-395v63q-119 -92 -273 -92q-197 0 -302 121t-105 309v678h421v-620q0 -48 31.5 -80.5t85.5 -32.5q112 0 115 117v616z" />
    <glyph glyph-name="udieresis" unicode="&#xfc;" horiz-adv-x="1218" 
d="M322 1208q-99 0 -168.5 68t-69.5 174q0 104 70.5 168.5t175.5 64.5q101 0 168 -68t67 -173q0 -102 -69.5 -168t-173.5 -66zM879 1208q-101 0 -170.5 67.5t-69.5 174.5q0 104 70.5 168.5t175.5 64.5q101 0 169 -68t68 -173q0 -102 -69.5 -168t-173.5 -66zM721 1079h422
v-1079h-395v63q-119 -92 -273 -92q-197 0 -302 121t-105 309v678h421v-620q0 -48 31.5 -80.5t85.5 -32.5q112 0 115 117v616z" />
    <glyph glyph-name="yacute" unicode="&#xfd;" horiz-adv-x="1198" 
d="M956 1450l-565 -322l-168 269l545 360zM772 1079h434l-477 -1446h-414l138 367h-150l-305 1079h434l148 -735z" />
    <glyph glyph-name="thorn" unicode="&#xfe;" horiz-adv-x="1312" 
d="M741 1106q234 0 382.5 -161t148.5 -406q0 -244 -153 -406t-388 -162q-133 0 -233 62v-400h-422v1864h422v-457q104 66 243 66zM668 346q79 0 129.5 54t50.5 139t-50.5 138.5t-129.5 53.5q-84 0 -134.5 -52.5t-50.5 -139.5t50.5 -140t134.5 -53z" />
    <glyph glyph-name="ydieresis" unicode="&#xff;" horiz-adv-x="1198" 
d="M317 1208q-99 0 -168 68t-69 174q0 104 70.5 168.5t175.5 64.5q101 0 168 -68t67 -173q0 -102 -70 -168t-174 -66zM874 1208q-100 0 -169.5 67.5t-69.5 174.5q0 104 70.5 168.5t175.5 64.5q101 0 169 -68t68 -173q0 -102 -70 -168t-174 -66zM772 1079h434l-477 -1446
h-414l138 367h-150l-305 1079h434l148 -735z" />
    <glyph glyph-name="Amacron" unicode="&#x100;" horiz-adv-x="1390" 
d="M1118 1933v-342h-846v342h846zM983 0l-61 211h-451l-61 -211h-418l444 1423h518l445 -1423h-416zM571 553h248l-123 422z" />
    <glyph glyph-name="amacron" unicode="&#x101;" horiz-adv-x="1312" 
d="M1061 1614v-332h-760v332h760zM848 1079h389v-1079h-389v59q-105 -88 -266 -88q-235 0 -388 162t-153 406q0 241 151.5 390.5t389.5 149.5q159 0 266 -80v80zM645 342q86 0 137.5 54.5t51.5 142.5t-51.5 142t-137.5 54q-82 0 -133 -55t-51 -141q0 -87 51.5 -142
t132.5 -55z" />
    <glyph glyph-name="Abreve" unicode="&#x102;" horiz-adv-x="1390" 
d="M694 1540q-202 0 -322 122t-120 320h342q0 -63 27 -99t73 -36t73.5 36t27.5 99h342q0 -198 -120.5 -320t-322.5 -122zM983 0l-61 211h-451l-61 -211h-418l444 1423h518l445 -1423h-416zM571 553h248l-123 422z" />
    <glyph glyph-name="abreve" unicode="&#x103;" horiz-adv-x="1312" 
d="M682 1214q-208 0 -325 125t-117 340h327q0 -81 31 -119t84 -38t84 38t31 119h327q0 -215 -117 -340t-325 -125zM848 1079h389v-1079h-389v59q-105 -88 -266 -88q-235 0 -388 162t-153 406q0 241 151.5 390.5t389.5 149.5q159 0 266 -80v80zM645 342q86 0 137.5 54.5
t51.5 142.5t-51.5 142t-137.5 54q-82 0 -133 -55t-51 -141q0 -87 51.5 -142t132.5 -55z" />
    <glyph glyph-name="Aogonek" unicode="&#x104;" horiz-adv-x="1390" 
d="M1339 -213l146 -195q-40 -43 -110 -67.5t-156 -24.5q-128 0 -207.5 65t-79.5 173q0 136 160 262h-109l-61 211h-451l-61 -211h-418l444 1423h518l445 -1423l-92 -90q-36 -37 -49 -58.5t-13 -44.5q0 -21 12 -33t31 -12q29 0 51 25zM571 553h248l-123 422z" />
    <glyph glyph-name="aogonek" unicode="&#x105;" horiz-adv-x="1312" 
d="M1178 -213l145 -195q-40 -43 -110 -67.5t-156 -24.5q-128 0 -207.5 65t-79.5 173q0 136 160 262h-82v59q-105 -88 -266 -88q-235 0 -388 162t-153 406q0 241 151.5 390.5t389.5 149.5q159 0 266 -80v80h389v-1079l-92 -90q-36 -37 -49 -58.5t-13 -44.5q0 -21 12 -33
t31 -12q30 0 52 25zM645 342q86 0 137.5 54.5t51.5 142.5t-51.5 142t-137.5 54q-82 0 -133 -55t-51 -141q0 -87 51.5 -142t132.5 -55z" />
    <glyph glyph-name="Cacute" unicode="&#x106;" horiz-adv-x="1509" 
d="M518 1503l-92 303l680 222l102 -345zM801 -29q-210 0 -381.5 95t-270 265t-98.5 380q0 212 99 381.5t271.5 264.5t385.5 95q140 0 262.5 -42.5t207 -112.5t140.5 -152.5t80 -169.5l-405 -164q-21 111 -96 176.5t-199 65.5q-143 0 -229.5 -93.5t-86.5 -248.5
q0 -154 86 -247t226 -93q126 0 202 65.5t97 175.5l405 -163q-25 -91 -83.5 -174.5t-144.5 -152.5t-208 -110t-260 -41z" />
    <glyph glyph-name="cacute" unicode="&#x107;" horiz-adv-x="1181" 
d="M414 1128l-168 269l545 360l188 -307zM623 -29q-247 0 -415.5 163.5t-168.5 402.5q0 117 44.5 221.5t121 181t185.5 121.5t233 45q116 0 216 -36.5t165.5 -94t107 -119t57.5 -119.5l-374 -149q-14 63 -56 103t-106 40q-72 0 -121 -51t-49 -141t48.5 -141.5t119.5 -51.5
q66 0 111 40t59 99l375 -149q-12 -44 -40 -91.5t-77 -97t-110 -88t-146 -63.5t-180 -25z" />
    <glyph glyph-name="Cdotaccent" unicode="&#x10a;" horiz-adv-x="1509" 
d="M795 1513q-104 0 -177 71t-73 181q0 108 74 176t182 68q106 0 177 -70.5t71 -181.5q0 -105 -73 -174.5t-181 -69.5zM801 -29q-210 0 -381.5 95t-270 265t-98.5 380q0 212 99 381.5t271.5 264.5t385.5 95q140 0 262.5 -42.5t207 -112.5t140.5 -152.5t80 -169.5l-405 -164
q-21 111 -96 176.5t-199 65.5q-143 0 -229.5 -93.5t-86.5 -248.5q0 -154 86 -247t226 -93q126 0 202 65.5t97 175.5l405 -163q-25 -91 -83.5 -174.5t-144.5 -152.5t-208 -110t-260 -41z" />
    <glyph glyph-name="cdotaccent" unicode="&#x10b;" horiz-adv-x="1181" 
d="M623 1202q-107 0 -179.5 69t-72.5 175q0 107 72.5 177.5t179.5 70.5q106 0 178.5 -70.5t72.5 -177.5q0 -106 -72 -175t-179 -69zM623 -29q-247 0 -415.5 163.5t-168.5 402.5q0 117 44.5 221.5t121 181t185.5 121.5t233 45q116 0 216 -36.5t165.5 -94t107 -119
t57.5 -119.5l-374 -149q-14 63 -56 103t-106 40q-72 0 -121 -51t-49 -141t48.5 -141.5t119.5 -51.5q66 0 111 40t59 99l375 -149q-12 -44 -40 -91.5t-77 -97t-110 -88t-146 -63.5t-180 -25z" />
    <glyph glyph-name="Ccaron" unicode="&#x10c;" horiz-adv-x="1509" 
d="M973 1540h-342l-328 442h371l123 -155l123 155h368zM793 371q126 0 202 65.5t97 175.5l405 -163q-25 -91 -83.5 -174.5t-144.5 -152.5t-208 -110t-260 -41q-210 0 -381.5 95t-270 265t-98.5 380q0 212 99 381.5t271.5 264.5t385.5 95q140 0 262.5 -42.5t207 -112.5
t140.5 -152.5t80 -169.5l-405 -164q-21 111 -96 176.5t-199 65.5q-143 0 -229.5 -93.5t-86.5 -248.5q0 -154 86 -247t226 -93z" />
    <glyph glyph-name="ccaron" unicode="&#x10d;" horiz-adv-x="1181" 
d="M809 1214h-363l-296 465h360l111 -184l114 184h359zM801 485l375 -149q-12 -44 -40 -91.5t-77 -97t-110 -88t-146 -63.5t-180 -25q-247 0 -415.5 163.5t-168.5 402.5q0 117 44.5 221.5t121 181t185.5 121.5t233 45q116 0 216 -36.5t165.5 -94t107 -119t57.5 -119.5
l-374 -149q-14 63 -56 103t-106 40q-72 0 -121 -51t-49 -141t48.5 -141.5t119.5 -51.5q66 0 111 40t59 99z" />
    <glyph glyph-name="Dcaron" unicode="&#x10e;" horiz-adv-x="1492" 
d="M870 1538h-342l-327 442h370l123 -155l123 155h369zM688 1423q339 0 545.5 -192t206.5 -518t-206.5 -519.5t-545.5 -193.5h-590v1423h590zM674 375q159 0 247.5 84t88.5 248q0 171 -88.5 256.5t-247.5 85.5h-152v-674h152z" />
    <glyph glyph-name="dcaron" unicode="&#x10f;" horiz-adv-x="1591" 
d="M1356 1499h295l-68 -563h-268zM815 1040v457h422v-1497h-389v55q-111 -84 -266 -84q-235 0 -388 162t-153 406q0 245 148 406t382 161q140 0 244 -66zM645 342q86 0 137.5 54.5t51.5 142.5t-51.5 142t-137.5 54q-82 0 -133 -55t-51 -141q0 -87 51.5 -142t132.5 -55z" />
    <glyph glyph-name="Dcroat" unicode="&#x110;" horiz-adv-x="1523" 
d="M719 1423q339 0 545 -192t206 -518t-206 -519.5t-545 -193.5h-590v571h-98v287h98v565h590zM705 375q159 0 247 84t88 248q0 171 -88 256.5t-247 85.5h-152v-191h295v-287h-295v-196h152z" />
    <glyph glyph-name="dcroat" unicode="&#x111;" horiz-adv-x="1312" 
d="M1352 1436v-287h-115v-1149h-389v55q-111 -84 -266 -84q-235 0 -388 162t-153 406q0 245 148 406t382 161q140 0 244 -66v109h-280v287h280v61h422v-61h115zM645 342q86 0 137.5 54.5t51.5 142.5t-51.5 142t-137.5 54q-82 0 -133 -55t-51 -141q0 -87 51.5 -142t132.5 -55
z" />
    <glyph glyph-name="Emacron" unicode="&#x112;" horiz-adv-x="1193" 
d="M1028 1933v-342h-846v342h846zM522 367h602v-367h-1026v1423h1016v-366h-592v-160h510v-367h-510v-163z" />
    <glyph glyph-name="emacron" unicode="&#x113;" horiz-adv-x="1218" 
d="M991 1612v-332h-760v332h760zM451 420q49 -115 194 -115q66 0 103 18t71 58l303 -207q-40 -42 -77 -72.5t-95.5 -63t-138.5 -50t-178 -17.5q-135 0 -247.5 43.5t-188 119.5t-117 180.5t-41.5 224.5q0 153 76 283.5t207 207t286 76.5q132 0 243.5 -49t182 -128
t109.5 -174.5t39 -193.5q0 -75 -8 -141h-723zM438 662h361q-19 66 -65 102.5t-116 36.5q-146 0 -180 -139z" />
    <glyph glyph-name="Edotaccent" unicode="&#x116;" horiz-adv-x="1193" 
d="M604 1513q-104 0 -177 71t-73 181q0 108 74 176t182 68q106 0 177 -70.5t71 -181.5q0 -105 -73 -174.5t-181 -69.5zM522 367h602v-367h-1026v1423h1016v-366h-592v-160h510v-367h-510v-163z" />
    <glyph glyph-name="edotaccent" unicode="&#x117;" horiz-adv-x="1218" 
d="M612 1200q-107 0 -179.5 69t-72.5 175q0 107 72.5 177.5t179.5 70.5t179.5 -70.5t72.5 -177.5q0 -106 -72.5 -175t-179.5 -69zM451 420q49 -115 194 -115q66 0 103 18t71 58l303 -207q-40 -42 -77 -72.5t-95.5 -63t-138.5 -50t-178 -17.5q-135 0 -247.5 43.5t-188 119.5
t-117 180.5t-41.5 224.5q0 153 76 283.5t207 207t286 76.5q132 0 243.5 -49t182 -128t109.5 -174.5t39 -193.5q0 -75 -8 -141h-723zM438 662h361q-19 66 -65 102.5t-116 36.5q-146 0 -180 -139z" />
    <glyph glyph-name="Eogonek" unicode="&#x118;" horiz-adv-x="1193" 
d="M1065 -213l145 -195q-40 -43 -110 -67.5t-156 -24.5q-128 0 -207.5 65t-79.5 173q0 136 160 262h-719v1423h1016v-366h-592v-160h510v-367h-510v-163h602v-367l-92 -90q-35 -37 -48 -58.5t-13 -44.5q0 -21 12 -33t31 -12q29 0 51 25z" />
    <glyph glyph-name="eogonek" unicode="&#x119;" horiz-adv-x="1218" 
d="M451 420q49 -115 194 -115q66 0 103 18t71 58l303 -207q-82 -86 -159 -129l-89 -86q-36 -37 -48.5 -58t-12.5 -44q0 -21 12 -33t31 -12q30 0 51 24l146 -194q-40 -43 -111 -68t-156 -25q-128 0 -207 65t-79 173q0 96 78 186q-246 17 -392.5 175t-146.5 391
q0 153 76 283.5t207 207t286 76.5q132 0 243.5 -49t182 -128t109.5 -174.5t39 -193.5q0 -75 -8 -141h-723zM438 662h361q-19 66 -65 102.5t-116 36.5q-146 0 -180 -139z" />
    <glyph glyph-name="Ecaron" unicode="&#x11a;" horiz-adv-x="1193" 
d="M782 1540h-342l-327 442h370l123 -155l123 155h369zM522 367h602v-367h-1026v1423h1016v-366h-592v-160h510v-367h-510v-163z" />
    <glyph glyph-name="ecaron" unicode="&#x11b;" horiz-adv-x="1218" 
d="M799 1212h-363l-297 465h361l110 -184l115 184h358zM451 420q49 -115 194 -115q66 0 103 18t71 58l303 -207q-40 -42 -77 -72.5t-95.5 -63t-138.5 -50t-178 -17.5q-135 0 -247.5 43.5t-188 119.5t-117 180.5t-41.5 224.5q0 153 76 283.5t207 207t286 76.5
q132 0 243.5 -49t182 -128t109.5 -174.5t39 -193.5q0 -75 -8 -141h-723zM438 662h361q-19 66 -65 102.5t-116 36.5q-146 0 -180 -139z" />
    <glyph glyph-name="Gbreve" unicode="&#x11e;" horiz-adv-x="1595" 
d="M803 1540q-202 0 -322.5 122t-120.5 320h342q0 -63 27.5 -99t73.5 -36t73 36t27 99h342q0 -198 -120 -320t-322 -122zM1554 788q0 -198 -57 -355t-157.5 -257t-234 -152.5t-290.5 -52.5q-163 0 -305.5 56.5t-243 155t-158 235.5t-57.5 293q0 157 58 295t159 235.5
t242.5 154t302.5 56.5q107 0 204.5 -24.5t173.5 -66.5t138.5 -97.5t104 -116.5t65.5 -125l-403 -166q-27 89 -103 143t-188 54q-152 0 -238 -95.5t-86 -255.5q0 -165 94.5 -258.5t278.5 -93.5q191 0 264 121h-315v317h751z" />
    <glyph glyph-name="gbreve" unicode="&#x11f;" horiz-adv-x="1308" 
d="M631 1214q-208 0 -325.5 125t-117.5 340h328q0 -81 31 -119t84 -38t83.5 38t30.5 119h328q0 -215 -117 -340t-325 -125zM846 1079h389v-895q0 -127 -41.5 -233t-119.5 -183t-196.5 -120t-265.5 -43q-436 0 -567 307l356 137q54 -94 213 -94q108 0 170 51.5t62 136.5v7
q-108 -87 -266 -87q-116 0 -217 41t-172 111t-111.5 165t-40.5 200t40.5 201.5t111 168t172.5 114t217 42.5q160 0 266 -86v59zM637 383q80 0 131 50.5t51 125.5t-51 125.5t-131 50.5q-76 0 -127 -51.5t-51 -124.5t51 -124.5t127 -51.5z" />
    <glyph glyph-name="Gdotaccent" unicode="&#x120;" horiz-adv-x="1595" 
d="M803 1513q-104 0 -177 71t-73 181q0 108 74 176t182 68q106 0 177 -70.5t71 -181.5q0 -105 -73 -174.5t-181 -69.5zM1554 788q0 -198 -57 -355t-157.5 -257t-234 -152.5t-290.5 -52.5q-163 0 -305.5 56.5t-243 155t-158 235.5t-57.5 293q0 157 58 295t159 235.5
t242.5 154t302.5 56.5q107 0 204.5 -24.5t173.5 -66.5t138.5 -97.5t104 -116.5t65.5 -125l-403 -166q-27 89 -103 143t-188 54q-152 0 -238 -95.5t-86 -255.5q0 -165 94.5 -258.5t278.5 -93.5q191 0 264 121h-315v317h751z" />
    <glyph glyph-name="gdotaccent" unicode="&#x121;" horiz-adv-x="1308" 
d="M631 1202q-107 0 -179.5 69t-72.5 175q0 107 72.5 177.5t179.5 70.5t179.5 -70.5t72.5 -177.5q0 -106 -72.5 -175t-179.5 -69zM846 1079h389v-895q0 -127 -41.5 -233t-119.5 -183t-196.5 -120t-265.5 -43q-436 0 -567 307l356 137q54 -94 213 -94q108 0 170 51.5
t62 136.5v7q-108 -87 -266 -87q-116 0 -217 41t-172 111t-111.5 165t-40.5 200t40.5 201.5t111 168t172.5 114t217 42.5q160 0 266 -86v59zM637 383q80 0 131 50.5t51 125.5t-51 125.5t-131 50.5q-76 0 -127 -51.5t-51 -124.5t51 -124.5t127 -51.5z" />
    <glyph glyph-name="uni0122" unicode="&#x122;" horiz-adv-x="1595" 
d="M1554 788q0 -198 -57 -355t-157.5 -257t-234 -152.5t-290.5 -52.5q-163 0 -305.5 56.5t-243 155t-158 235.5t-57.5 293q0 157 58 295t159 235.5t242.5 154t302.5 56.5q107 0 204.5 -24.5t173.5 -66.5t138.5 -97.5t104 -116.5t65.5 -125l-403 -166q-27 89 -103 143
t-188 54q-152 0 -238 -95.5t-86 -255.5q0 -165 94.5 -258.5t278.5 -93.5q191 0 264 121h-315v317h751zM801 -96q83 0 136.5 -52.5t53.5 -136.5q0 -64 -25 -123.5t-94 -162.5l-63 -97l-186 72l67 109l19 34q-46 24 -74.5 69t-28.5 103q0 82 56 133.5t139 51.5z" />
    <glyph glyph-name="uni0123" unicode="&#x123;" horiz-adv-x="1308" 
d="M637 1196q-83 0 -137 52t-54 136q0 64 25.5 124t93.5 163l64 96l186 -71l-67 -109l-19 -35q46 -24 74 -69t28 -103q0 -82 -55.5 -133t-138.5 -51zM846 1079h389v-895q0 -127 -41.5 -233t-119.5 -183t-196.5 -120t-265.5 -43q-436 0 -567 307l356 137q54 -94 213 -94
q108 0 170 51.5t62 136.5v7q-108 -87 -266 -87q-116 0 -217 41t-172 111t-111.5 165t-40.5 200t40.5 201.5t111 168t172.5 114t217 42.5q160 0 266 -86v59zM637 383q80 0 131 50.5t51 125.5t-51 125.5t-131 50.5q-76 0 -127 -51.5t-51 -124.5t51 -124.5t127 -51.5z" />
    <glyph glyph-name="Hbar" unicode="&#x126;" horiz-adv-x="1546" 
d="M1509 1331v-327h-123v-1004h-423v526h-379v-526h-424v1004h-123v327h123v92h424v-92h379v92h423v-92h123zM963 903v101h-379v-101h379z" />
    <glyph glyph-name="hbar" unicode="&#x127;" horiz-adv-x="1232" 
d="M756 1108q182 0 295.5 -115t113.5 -295v-698h-422v614q0 54 -36.5 86.5t-85.5 32.5t-86 -32.5t-37 -86.5v-614h-422v1149h-115v287h115v61h422v-61h280v-287h-280v-113q112 72 258 72z" />
    <glyph glyph-name="Itilde" unicode="&#x128;" horiz-adv-x="620" 
d="M508 1526q-52 0 -98 14.5t-73.5 32.5t-62 32.5t-65.5 14.5q-76 0 -96 -78l-299 121q14 55 41.5 106t69.5 96t104 72t135 27q52 0 99 -14.5t75.5 -32.5t63 -32.5t63.5 -14.5q66 0 92 78l299 -121q-17 -60 -45.5 -111.5t-70.5 -95.5t-102 -69t-130 -25zM98 0v1423h424
v-1423h-424z" />
    <glyph glyph-name="itilde" unicode="&#x129;" horiz-adv-x="573" 
d="M438 1227q-39 0 -75.5 14.5t-59 32.5t-50 32.5t-50.5 14.5q-25 0 -46.5 -19.5t-29.5 -58.5l-244 121q13 59 32 108.5t49.5 95t75.5 71.5t101 26q39 0 74.5 -14.5t58.5 -32.5t51 -32.5t54 -14.5q22 0 42 19.5t28 58.5l245 -121q-69 -301 -256 -301zM76 0v1079h422v-1079
h-422z" />
    <glyph glyph-name="Imacron" unicode="&#x12a;" horiz-adv-x="620" 
d="M12 1591v342h598v-342h-598zM98 0v1423h424v-1423h-424z" />
    <glyph glyph-name="imacron" unicode="&#x12b;" horiz-adv-x="573" 
d="M-16 1280v332h608v-332h-608zM76 0v1079h422v-1079h-422z" />
    <glyph glyph-name="Iogonek" unicode="&#x12e;" horiz-adv-x="620" 
d="M463 -213l145 -195q-40 -43 -110 -67.5t-156 -24.5q-128 0 -207.5 65t-79.5 173q0 136 160 262h-117v1423h424v-1423l-92 -90q-35 -37 -48 -58.5t-13 -44.5q0 -21 12 -33t31 -12q29 0 51 25z" />
    <glyph glyph-name="iogonek" unicode="&#x12f;" horiz-adv-x="573" 
d="M289 1200q-107 0 -179.5 69t-72.5 175q0 107 72.5 177.5t179.5 70.5t179.5 -70.5t72.5 -177.5q0 -106 -72.5 -175t-179.5 -69zM430 -213l145 -195q-40 -43 -110 -67.5t-156 -24.5q-128 0 -207 65t-79 173q0 137 159 262h-106v1079h422v-1079h-9l-92 -90
q-35 -37 -48 -58.5t-13 -44.5q0 -21 12 -33t31 -12q29 0 51 25z" />
    <glyph glyph-name="Idotaccent" unicode="&#x130;" horiz-adv-x="620" 
d="M309 1513q-104 0 -177 71t-73 181q0 108 74 176t182 68q106 0 177 -70.5t71 -181.5q0 -105 -73 -174.5t-181 -69.5zM98 0v1423h424v-1423h-424z" />
    <glyph glyph-name="dotlessi" unicode="&#x131;" horiz-adv-x="573" 
d="M76 0v1079h422v-1079h-422z" />
    <glyph glyph-name="IJ" unicode="&#x132;" horiz-adv-x="1341" 
d="M98 0v1423h424v-1423h-424zM649 0v377h70q110 0 110 110v936h424v-942q0 -224 -126 -352.5t-371 -128.5h-107z" />
    <glyph glyph-name="ij" unicode="&#x133;" horiz-adv-x="1189" 
d="M913 1202q-107 0 -179 69t-72 175q0 107 72.5 177.5t178.5 70.5q107 0 179.5 -70.5t72.5 -177.5q0 -106 -72.5 -175t-179.5 -69zM289 1200q-107 0 -179.5 69t-72.5 175q0 107 72.5 177.5t179.5 70.5t179.5 -70.5t72.5 -177.5q0 -106 -72.5 -175t-179.5 -69zM76 0v1079
h422v-1079h-422zM545 -383l-2 358h20q58 0 93.5 38t35.5 106v960h422v-954q0 -237 -139.5 -372.5t-353.5 -135.5h-76z" />
    <glyph glyph-name="uni0136" unicode="&#x136;" horiz-adv-x="1384" 
d="M1413 1423l-491 -706l473 -717h-477l-396 623v-623h-424v1423h424v-610l410 610h481zM750 -96q83 0 136.5 -52.5t53.5 -136.5q0 -64 -25 -123.5t-94 -162.5l-63 -97l-187 72l68 109l18 34q-46 24 -74 69t-28 103q0 82 56 133.5t139 51.5z" />
    <glyph glyph-name="uni0137" unicode="&#x137;" horiz-adv-x="1177" 
d="M1206 1079l-348 -491l344 -588h-450l-254 436v-436h-422v1497h422v-797l243 379h465zM555 -96q83 0 136.5 -52.5t53.5 -136.5q0 -64 -25 -124t-93 -162l-64 -97l-186 72l67 109l19 34q-46 24 -74.5 69t-28.5 103q0 82 56 133.5t139 51.5z" />
    <glyph glyph-name="kgreenlandic" unicode="&#x138;" horiz-adv-x="1175" 
d="M1206 1079l-356 -501l352 -578h-450l-254 416v-416h-422v1079h422v-397l243 397h465z" />
    <glyph glyph-name="Lacute" unicode="&#x139;" horiz-adv-x="1138" 
d="M621 2028l102 -345l-690 -180l-92 303zM522 377h592v-377h-1016v1423h424v-1046z" />
    <glyph glyph-name="lacute" unicode="&#x13a;" horiz-adv-x="573" 
d="M8 1577l-92 303l680 221l102 -344zM76 0v1497h422v-1497h-422z" />
    <glyph glyph-name="uni013B" unicode="&#x13b;" horiz-adv-x="1138" 
d="M522 377h592v-377h-1016v1423h424v-1046zM606 -96q83 0 137 -52.5t54 -136.5q0 -64 -25 -123.5t-94 -162.5l-64 -97l-186 72l68 109l18 34q-46 24 -74 69t-28 103q0 82 55.5 133.5t138.5 51.5z" />
    <glyph glyph-name="uni013C" unicode="&#x13c;" horiz-adv-x="573" 
d="M76 1497h422v-1497h-422v1497zM281 -96q83 0 136.5 -52.5t53.5 -136.5q0 -64 -25 -123.5t-94 -162.5l-63 -97l-187 72l68 109l18 34q-46 24 -74 69t-28 103q0 82 56 133.5t139 51.5z" />
    <glyph glyph-name="Lcaron" unicode="&#x13d;" horiz-adv-x="1150" 
d="M1061 1446l-68 -563h-268l41 563h295zM522 377h592v-377h-1016v1423h424v-1046z" />
    <glyph glyph-name="lcaron" unicode="&#x13e;" horiz-adv-x="851" 
d="M575 936l41 563h295l-67 -563h-269zM76 0v1497h422v-1497h-422z" />
    <glyph glyph-name="Ldot" unicode="&#x13f;" horiz-adv-x="1179" 
d="M522 1423v-1046h592v-377h-1016v1423h424zM934 688q-92 0 -154.5 62.5t-62.5 154.5q0 95 62 158t155 63q94 0 156.5 -63t62.5 -158q0 -92 -62.5 -154.5t-156.5 -62.5z" />
    <glyph glyph-name="ldot" unicode="&#x140;" horiz-adv-x="964" 
d="M76 0v1497h422v-1497h-422zM768 545q-92 0 -154.5 62.5t-62.5 154.5q0 95 62 158t155 63q94 0 156.5 -63t62.5 -158q0 -92 -62.5 -154.5t-156.5 -62.5z" />
    <glyph glyph-name="Lslash" unicode="&#x141;" horiz-adv-x="1275" 
d="M659 377h592v-377h-1015v551l-130 -43l-83 262l213 70v583h423v-442l164 53l84 -262l-248 -82v-313z" />
    <glyph glyph-name="lslash" unicode="&#x142;" horiz-adv-x="866" 
d="M887 821l-238 -131v-690h-422v459l-82 -45l-155 264l237 129v690h422v-459l82 45z" />
    <glyph glyph-name="Nacute" unicode="&#x143;" horiz-adv-x="1425" 
d="M1087 1683l-690 -180l-92 303l680 222zM905 1423h422v-1423h-350l-457 690v-690h-422v1423h351l456 -698v698z" />
    <glyph glyph-name="nacute" unicode="&#x144;" horiz-adv-x="1232" 
d="M993 1448l-565 -322l-168 269l545 360zM756 1108q182 0 295.5 -115t113.5 -295v-698h-422v614q0 54 -36.5 86.5t-85.5 32.5t-86 -32.5t-37 -86.5v-614h-422v1079h397v-59q120 88 283 88z" />
    <glyph glyph-name="uni0145" unicode="&#x145;" horiz-adv-x="1425" 
d="M905 1423h422v-1423h-350l-457 690v-690h-422v1423h351l456 -698v698zM741 -96q83 0 137 -52.5t54 -136.5q0 -64 -25 -123.5t-94 -162.5l-63 -97l-187 72l68 109l18 34q-46 24 -74 69t-28 103q0 82 55.5 133.5t138.5 51.5z" />
    <glyph glyph-name="uni0146" unicode="&#x146;" horiz-adv-x="1232" 
d="M756 1108q182 0 295.5 -115t113.5 -295v-698h-422v614q0 54 -36.5 86.5t-85.5 32.5t-86 -32.5t-37 -86.5v-614h-422v1079h397v-59q120 88 283 88zM606 -96q83 0 137 -52.5t54 -136.5q0 -64 -25 -123.5t-94 -162.5l-64 -97l-186 72l68 109l18 34q-46 24 -74 69t-28 103
q0 82 55.5 133.5t138.5 51.5z" />
    <glyph glyph-name="Ncaron" unicode="&#x147;" horiz-adv-x="1425" 
d="M852 1540h-342l-328 442h371l123 -155l123 155h368zM905 1423h422v-1423h-350l-457 690v-690h-422v1423h351l456 -698v698z" />
    <glyph glyph-name="ncaron" unicode="&#x148;" horiz-adv-x="1232" 
d="M823 1212h-362l-297 465h360l111 -184l115 184h358zM756 1108q182 0 295.5 -115t113.5 -295v-698h-422v614q0 54 -36.5 86.5t-85.5 32.5t-86 -32.5t-37 -86.5v-614h-422v1079h397v-59q120 88 283 88z" />
    <glyph glyph-name="napostrophe" unicode="&#x149;" horiz-adv-x="1533" 
d="M12 1030l41 563h295l-67 -563h-269zM1057 1108q182 0 295.5 -115t113.5 -295v-698h-422v614q0 54 -36.5 86.5t-85.5 32.5t-86 -32.5t-37 -86.5v-614h-422v1079h397v-59q120 88 283 88z" />
    <glyph glyph-name="Eng" unicode="&#x14a;" horiz-adv-x="1425" 
d="M905 1423h422v-1439q0 -222 -122 -352t-349 -130h-63v377h69q111 0 111 111v16l-453 684v-690h-422v1423h351l456 -698v698z" />
    <glyph glyph-name="eng" unicode="&#x14b;" horiz-adv-x="1232" 
d="M756 1108q182 0 295.5 -115t113.5 -295v-594q0 -222 -138.5 -354.5t-344.5 -132.5h-57l-2 358h20q46 0 73 32t27 91v516q0 54 -36.5 86.5t-85.5 32.5t-86 -32.5t-37 -86.5v-614h-422v1079h397v-59q120 88 283 88z" />
    <glyph glyph-name="Omacron" unicode="&#x14c;" horiz-adv-x="1628" 
d="M391 1591v342h846v-342h-846zM815 -29q-210 0 -386 98.5t-278 268.5t-102 373q0 153 60 290.5t162.5 236.5t244.5 156.5t299 57.5t298.5 -57.5t243.5 -156.5t162 -236.5t60 -290.5q0 -203 -101.5 -373t-277 -268.5t-385.5 -98.5zM815 371q153 0 243.5 95t90.5 247
q0 150 -89 245t-245 95t-246 -95t-90 -245q0 -151 91.5 -246.5t244.5 -95.5z" />
    <glyph glyph-name="omacron" unicode="&#x14d;" horiz-adv-x="1286" 
d="M270 1280v332h760v-332h-760zM641 -29q-262 0 -432 162.5t-170 405.5q0 160 76.5 289.5t214.5 203.5t311 74q264 0 435 -161.5t171 -405.5q0 -119 -45.5 -224t-124.5 -181t-192.5 -119.5t-243.5 -43.5zM645 346q80 0 129 53.5t49 141.5q0 86 -48 138t-130 52
q-84 0 -133 -52.5t-49 -139.5q0 -86 49 -139.5t133 -53.5z" />
    <glyph glyph-name="Ohungarumlaut" unicode="&#x150;" horiz-adv-x="1628" 
d="M539 1499l-256 187l292 419l289 -213zM1085 1499l-256 187l293 419l289 -213zM815 -29q-210 0 -386 98.5t-278 268.5t-102 373q0 153 60 290.5t162.5 236.5t244.5 156.5t299 57.5t298.5 -57.5t243.5 -156.5t162 -236.5t60 -290.5q0 -203 -101.5 -373t-277 -268.5
t-385.5 -98.5zM815 371q153 0 243.5 95t90.5 247q0 150 -89 245t-245 95t-246 -95t-90 -245q0 -151 91.5 -246.5t244.5 -95.5z" />
    <glyph glyph-name="ohungarumlaut" unicode="&#x151;" horiz-adv-x="1286" 
d="M383 1126l-256 187l293 420l289 -213zM930 1126l-256 187l293 420l288 -213zM641 -29q-262 0 -432 162.5t-170 405.5q0 160 76.5 289.5t214.5 203.5t311 74q264 0 435 -161.5t171 -405.5q0 -119 -45.5 -224t-124.5 -181t-192.5 -119.5t-243.5 -43.5zM645 346
q80 0 129 53.5t49 141.5q0 86 -48 138t-130 52q-84 0 -133 -52.5t-49 -139.5q0 -86 49 -139.5t133 -53.5z" />
    <glyph glyph-name="OE" unicode="&#x152;" horiz-adv-x="2244" 
d="M1573 367h602v-367h-1026v53q-145 -82 -334 -82q-210 0 -386 98.5t-278 268.5t-102 373q0 153 60 290.5t162.5 236.5t244.5 156.5t299 57.5q187 0 334 -80v51h1016v-366h-592v-160h510v-367h-510v-163zM815 371q153 0 243.5 95t90.5 247q0 150 -89 245t-245 95t-246 -95
t-90 -245q0 -151 91.5 -246.5t244.5 -95.5z" />
    <glyph glyph-name="oe" unicode="&#x153;" horiz-adv-x="2015" 
d="M1247 420q49 -115 195 -115q66 0 103 18t71 58l303 -207q-40 -42 -77 -72.5t-95.5 -63t-138.5 -50t-178 -17.5q-237 0 -396 127q-162 -127 -393 -127q-262 0 -432 162.5t-170 405.5q0 160 76.5 289.5t214.5 203.5t311 74q236 0 399 -131q157 131 365 131q132 0 243.5 -49
t181.5 -128t109 -174.5t39 -193.5q0 -75 -8 -141h-723zM1235 662h360q-40 139 -180 139q-146 0 -180 -139zM645 346q80 0 129 53.5t49 141.5q0 86 -48 138t-130 52q-84 0 -133 -52.5t-49 -139.5q0 -86 49 -139.5t133 -53.5z" />
    <glyph glyph-name="Racute" unicode="&#x154;" horiz-adv-x="1323" 
d="M1055 1683l-690 -180l-93 303l680 222zM1296 0h-467l-311 522v-522h-420v1423h631q240 0 384 -124.5t144 -319.5q0 -145 -85 -256t-234 -158zM844 942q0 54 -33.5 83.5t-93.5 29.5h-199v-226h199q60 0 93.5 29.5t33.5 83.5z" />
    <glyph glyph-name="racute" unicode="&#x155;" horiz-adv-x="780" 
d="M766 1448l-565 -322l-168 269l545 360zM473 1079v-67q117 96 277 96v-395q-134 0 -193 -36.5t-59 -133.5v-543h-422v1079h397z" />
    <glyph glyph-name="uni0156" unicode="&#x156;" horiz-adv-x="1323" 
d="M518 522v-522h-420v1423h631q240 0 384 -124.5t144 -319.5q0 -145 -85 -256t-234 -158l358 -565h-467zM844 942q0 54 -33.5 83.5t-93.5 29.5h-199v-226h199q60 0 93.5 29.5t33.5 83.5zM659 -96q83 0 137 -52.5t54 -136.5q0 -64 -25 -123.5t-94 -162.5l-63 -97l-187 72
l68 109l18 34q-46 24 -74 69t-28 103q0 82 55.5 133.5t138.5 51.5z" />
    <glyph glyph-name="uni0157" unicode="&#x157;" horiz-adv-x="780" 
d="M473 1012q117 96 277 96v-395q-134 0 -193 -36.5t-59 -133.5v-543h-422v1079h397v-67zM279 -96q83 0 136.5 -52.5t53.5 -136.5q0 -64 -25 -123.5t-94 -162.5l-63 -97l-187 72l68 109l18 34q-46 24 -74 69t-28 103q0 82 56 133.5t139 51.5z" />
    <glyph glyph-name="Rcaron" unicode="&#x158;" horiz-adv-x="1323" 
d="M819 1540h-342l-327 442h370l123 -155l123 155h369zM1296 0h-467l-311 522v-522h-420v1423h631q240 0 384 -124.5t144 -319.5q0 -145 -85 -256t-234 -158zM844 942q0 54 -33.5 83.5t-93.5 29.5h-199v-226h199q60 0 93.5 29.5t33.5 83.5z" />
    <glyph glyph-name="rcaron" unicode="&#x159;" horiz-adv-x="780" 
d="M596 1212h-363l-296 465h360l111 -184l114 184h359zM473 1079v-67q117 96 277 96v-395q-134 0 -193 -36.5t-59 -133.5v-543h-422v1079h397z" />
    <glyph glyph-name="Sacute" unicode="&#x15a;" horiz-adv-x="1265" 
d="M367 1503l-93 303l680 222l103 -345zM621 -29q-219 0 -375.5 102t-214.5 289l399 154q24 -88 86 -135t148 -47q120 0 120 76q0 31 -23.5 54.5t-63.5 39t-92 29.5t-109.5 30.5t-115 37t-109.5 54t-92 77.5t-63.5 111t-23.5 150q0 207 144.5 333t406.5 126
q211 0 359.5 -98.5t187.5 -253.5l-399 -154q-18 73 -62 110.5t-106 37.5q-55 0 -82 -19t-27 -51q0 -30 24 -52t64.5 -37.5t92.5 -29.5t110 -31.5t116 -39.5t110 -58t92.5 -82.5t64.5 -117t24 -158.5q0 -199 -158 -323t-433 -124z" />
    <glyph glyph-name="sacute" unicode="&#x15b;" horiz-adv-x="1046" 
d="M332 1126l-168 269l545 360l188 -307zM522 -29q-192 0 -321 77t-178 224l339 131q39 -124 175 -124q69 0 69 40q0 25 -29.5 44t-76.5 33t-104 29.5t-114 40.5t-104 59.5t-76.5 93t-29.5 133.5q0 164 125.5 259t341.5 95q175 0 293.5 -66.5t150.5 -183.5l-340 -131
q-27 84 -111 84q-61 0 -61 -39q0 -20 23 -34t60.5 -23t85.5 -21.5t98.5 -26t98.5 -40t85.5 -61t60.5 -91t23 -127.5q0 -173 -130.5 -274t-353.5 -101z" />
    <glyph glyph-name="Scedilla" unicode="&#x15e;" horiz-adv-x="1265" 
d="M1212 418q0 -163 -109.5 -278.5t-305.5 -151.5l-19 -58q57 -11 97 -65t40 -129q0 -106 -83.5 -170t-215.5 -64q-87 0 -162 27.5t-116 71.5l133 168q32 -43 86 -43q29 0 45 13.5t16 35.5q0 23 -16.5 38t-48.5 15h-31l-18 14l43 133q-191 15 -326.5 116t-189.5 271l399 154
q24 -88 86 -135t148 -47q120 0 120 76q0 31 -23.5 54.5t-63.5 39t-92 29.5t-109.5 30.5t-115 37t-109.5 54t-92 77.5t-63.5 111t-23.5 150q0 207 144.5 333t406.5 126q211 0 359.5 -98.5t187.5 -253.5l-399 -154q-18 73 -62 110.5t-106 37.5q-55 0 -82 -19t-27 -51
q0 -30 24 -52t64.5 -37.5t92.5 -29.5t110 -31.5t116 -39.5t110 -58t92.5 -82.5t64.5 -117t24 -158.5z" />
    <glyph glyph-name="scedilla" unicode="&#x15f;" horiz-adv-x="1046" 
d="M1006 346q0 -140 -86.5 -233.5t-241.5 -126.5l-19 -56q57 -11 97.5 -65.5t40.5 -128.5q0 -106 -83.5 -170t-215.5 -64q-87 0 -162.5 27.5t-116.5 71.5l133 168q32 -43 86 -43q29 0 45.5 13.5t16.5 35.5q0 23 -17 38t-49 15h-31l-18 14l43 133q-155 19 -259 94t-146 203
l339 131q39 -124 175 -124q69 0 69 40q0 25 -29.5 44t-76.5 33t-104 29.5t-114 40.5t-104 59.5t-76.5 93t-29.5 133.5q0 164 125.5 259t341.5 95q175 0 293.5 -66.5t150.5 -183.5l-340 -131q-27 84 -111 84q-61 0 -61 -39q0 -20 23 -34t60.5 -23t85.5 -21.5t98.5 -26
t98.5 -40t85.5 -61t60.5 -91t23 -127.5z" />
    <glyph glyph-name="Scaron" unicode="&#x160;" horiz-adv-x="1265" 
d="M821 1540h-342l-327 442h370l123 -155l123 155h369zM514 1024q0 -30 24 -52t64.5 -37.5t92.5 -29.5t110 -31.5t116 -39.5t110 -58t92.5 -82.5t64.5 -117t24 -158.5q0 -199 -158 -323t-433 -124q-219 0 -375.5 102t-214.5 289l399 154q24 -88 86 -135t148 -47
q120 0 120 76q0 31 -23.5 54.5t-63.5 39t-92 29.5t-109.5 30.5t-115 37t-109.5 54t-92 77.5t-63.5 111t-23.5 150q0 207 144.5 333t406.5 126q211 0 359.5 -98.5t187.5 -253.5l-399 -154q-18 73 -62 110.5t-106 37.5q-55 0 -82 -19t-27 -51z" />
    <glyph glyph-name="scaron" unicode="&#x161;" horiz-adv-x="1046" 
d="M727 1212h-362l-297 465h360l111 -184l114 184h359zM471 770q0 -20 23 -34t60.5 -23t85.5 -21.5t98.5 -26t98.5 -40t85.5 -61t60.5 -91t23 -127.5q0 -173 -130.5 -274t-353.5 -101q-192 0 -321 77t-178 224l339 131q39 -124 175 -124q69 0 69 40q0 25 -29.5 44t-76.5 33
t-104 29.5t-114 40.5t-104 59.5t-76.5 93t-29.5 133.5q0 164 125.5 259t341.5 95q175 0 293.5 -66.5t150.5 -183.5l-340 -131q-27 84 -111 84q-61 0 -61 -39z" />
    <glyph glyph-name="uni0162" unicode="&#x162;" horiz-adv-x="1263" 
d="M844 0h-78l-23 -70q57 -11 97.5 -65.5t40.5 -128.5q0 -106 -83.5 -170t-215.5 -64q-87 0 -162.5 27.5t-116.5 71.5l133 168q32 -43 86 -43q29 0 45.5 13.5t16.5 35.5q0 23 -17 38t-49 15h-31l-18 14l51 158h-100v1047h-395v376h1214v-376h-395v-1047z" />
    <glyph glyph-name="uni0163" unicode="&#x163;" horiz-adv-x="890" 
d="M840 721h-226v-227q0 -127 121 -127h105v-367h-187l-16 -49q57 -11 97 -65.5t40 -129.5q0 -106 -83.5 -169.5t-215.5 -63.5q-87 0 -162 27t-116 71l133 168q32 -43 86 -43q29 0 45 13.5t16 35.5q0 23 -16.5 38t-48.5 15h-31l-19 15l58 180q-112 50 -169.5 153t-57.5 246
v279h-173v358h74q123 0 123 131v160h412v-291h211v-358z" />
    <glyph glyph-name="Tcaron" unicode="&#x164;" horiz-adv-x="1263" 
d="M809 1540h-342l-328 442h371l123 -155l123 155h368zM1239 1423v-376h-395v-1047h-424v1047h-395v376h1214z" />
    <glyph glyph-name="tcaron" unicode="&#x165;" horiz-adv-x="890" 
d="M672 1118l41 563h295l-68 -563h-268zM645 0q-221 0 -336.5 119t-115.5 323v279h-173v358h74q123 0 123 131v160h412v-291h211v-358h-226v-227q0 -127 121 -127h105v-367h-195z" />
    <glyph glyph-name="Tbar" unicode="&#x166;" horiz-adv-x="1280" 
d="M1247 1047h-395v-318h197v-287h-197v-442h-424v442h-197v287h197v318h-395v376h1214v-376z" />
    <glyph glyph-name="tbar" unicode="&#x167;" horiz-adv-x="894" 
d="M844 721h-226v-35h179v-287h-148q28 -32 90 -32h105v-367h-195q-210 0 -324.5 107t-125.5 292h-127v287h125v35h-172v358h73q123 0 123 131v160h412v-291h211v-358z" />
    <glyph glyph-name="Utilde" unicode="&#x168;" horiz-adv-x="1388" 
d="M600 1620q-72 0 -92 -78l-285 121q14 55 40.5 106t66.5 96t99 72t128 27q49 0 93.5 -14.5t72 -32.5t60 -32.5t59.5 -14.5q65 0 88 78l284 -121q-35 -128 -118.5 -214.5t-212.5 -86.5q-49 0 -92.5 14.5t-69.5 32.5t-59 32.5t-62 14.5zM883 1423h422v-848
q0 -126 -38.5 -234t-112.5 -191.5t-191.5 -131t-266.5 -47.5t-267 47.5t-192.5 131t-113.5 192t-39 233.5v848h426v-848q0 -97 47 -150.5t139 -53.5t139.5 53.5t47.5 150.5v848z" />
    <glyph glyph-name="utilde" unicode="&#x169;" horiz-adv-x="1218" 
d="M504 1323q-30 0 -54 -19.5t-34 -58.5l-283 121q11 46 27 86.5t41.5 81t57.5 69t76.5 46.5t96.5 18q45 0 86.5 -14.5t68 -32.5t59 -32.5t61.5 -14.5q27 0 49 19.5t32 58.5l285 -121q-81 -301 -297 -301q-45 0 -87 14.5t-69 32.5t-58.5 32.5t-57.5 14.5zM721 1079h422
v-1079h-395v63q-119 -92 -273 -92q-197 0 -302 121t-105 309v678h421v-620q0 -48 31.5 -80.5t85.5 -32.5q112 0 115 117v616z" />
    <glyph glyph-name="Umacron" unicode="&#x16a;" horiz-adv-x="1388" 
d="M1118 1933v-342h-846v342h846zM883 1423h422v-848q0 -126 -38.5 -234t-112.5 -191.5t-191.5 -131t-266.5 -47.5t-267 47.5t-192.5 131t-113.5 192t-39 233.5v848h426v-848q0 -97 47 -150.5t139 -53.5t139.5 53.5t47.5 150.5v848z" />
    <glyph glyph-name="umacron" unicode="&#x16b;" horiz-adv-x="1218" 
d="M983 1614v-332h-760v332h760zM721 1079h422v-1079h-395v63q-119 -92 -273 -92q-197 0 -302 121t-105 309v678h421v-620q0 -48 31.5 -80.5t85.5 -32.5q112 0 115 117v616z" />
    <glyph glyph-name="Uring" unicode="&#x16e;" horiz-adv-x="1388" 
d="M696 1376q-143 0 -234 86t-91 224q0 134 91.5 220.5t233.5 86.5q144 0 234 -86.5t90 -220.5q0 -138 -89.5 -224t-234.5 -86zM696 1765q-38 0 -62 -22t-24 -57q0 -37 24 -59.5t62 -22.5q37 0 60.5 22.5t23.5 59.5q0 35 -23.5 57t-60.5 22zM883 1423h422v-848
q0 -126 -38.5 -234t-112.5 -191.5t-191.5 -131t-266.5 -47.5t-267 47.5t-192.5 131t-113.5 192t-39 233.5v848h426v-848q0 -97 47 -150.5t139 -53.5t139.5 53.5t47.5 150.5v848z" />
    <glyph glyph-name="uring" unicode="&#x16f;" horiz-adv-x="1218" 
d="M604 1141q-143 0 -234 86t-91 223q0 134 91.5 220.5t233.5 86.5q144 0 234 -86.5t90 -220.5q0 -138 -89.5 -223.5t-234.5 -85.5zM604 1530q-38 0 -62 -22.5t-24 -57.5q0 -37 24 -59.5t62 -22.5q37 0 60.5 22.5t23.5 59.5q0 35 -23.5 57.5t-60.5 22.5zM721 1079h422v-1079
h-395v63q-119 -92 -273 -92q-197 0 -302 121t-105 309v678h421v-620q0 -48 31.5 -80.5t85.5 -32.5q112 0 115 117v616z" />
    <glyph glyph-name="Uhungarumlaut" unicode="&#x170;" horiz-adv-x="1388" 
d="M745 1892l-325 -393l-256 187l293 419zM967 1499l-256 187l293 419l288 -213zM883 1423h422v-848q0 -126 -38.5 -234t-112.5 -191.5t-191.5 -131t-266.5 -47.5t-267 47.5t-192.5 131t-113.5 192t-39 233.5v848h426v-848q0 -97 47 -150.5t139 -53.5t139.5 53.5t47.5 150.5
v848z" />
    <glyph glyph-name="uhungarumlaut" unicode="&#x171;" horiz-adv-x="1218" 
d="M662 1522l-326 -394l-256 187l293 420zM883 1128l-256 187l293 420l288 -213zM721 463v616h422v-1079h-395v63q-119 -92 -273 -92q-197 0 -302 121t-105 309v678h421v-620q0 -48 31.5 -80.5t85.5 -32.5q112 0 115 117z" />
    <glyph glyph-name="Uogonek" unicode="&#x172;" horiz-adv-x="1388" 
d="M883 1423h422v-848q0 -192 -88.5 -341t-255.5 -216l-87 -84q-36 -37 -48.5 -58t-12.5 -44q0 -21 12 -33t31 -12q29 0 51 25l146 -195q-40 -43 -110.5 -67.5t-156.5 -24.5q-128 0 -207 64.5t-79 172.5q0 112 104 213q-127 14 -227 67t-163.5 134t-96.5 182.5t-33 216.5
v848h426v-848q0 -97 47 -150.5t139 -53.5t139.5 53.5t47.5 150.5v848z" />
    <glyph glyph-name="uogonek" unicode="&#x173;" horiz-adv-x="1218" 
d="M1083 -213l146 -195q-40 -43 -110 -67.5t-156 -24.5q-128 0 -207.5 65t-79.5 173q0 136 160 262h-88v63q-119 -92 -273 -92q-197 0 -302 121t-105 309v678h421v-620q0 -48 31.5 -80.5t85.5 -32.5q112 0 115 117v616h422v-1079l-92 -90q-36 -37 -49 -58.5t-13 -44.5
q0 -21 12 -33t31 -12q29 0 51 25z" />
    <glyph glyph-name="Wcircumflex" unicode="&#x174;" horiz-adv-x="1949" 
d="M973 1696l-123 -156h-371l328 442h342l315 -442h-368zM1538 1423h418l-314 -1423h-503l-162 815l-166 -815h-502l-313 1423h418l153 -917l178 917h461l178 -925z" />
    <glyph glyph-name="wcircumflex" unicode="&#x175;" horiz-adv-x="1722" 
d="M858 1399l-110 -185h-361l297 465h363l284 -465h-358zM1311 1079h428l-264 -1079h-498l-107 559l-102 -559h-500l-268 1079h428l107 -622l100 622h469l102 -618z" />
    <glyph glyph-name="Ycircumflex" unicode="&#x176;" horiz-adv-x="1398" 
d="M702 1696l-122 -156h-371l328 442h342l315 -442h-369zM1421 1423l-510 -843v-580h-422v575l-512 848h474l249 -462l248 462h473z" />
    <glyph glyph-name="ycircumflex" unicode="&#x177;" horiz-adv-x="1198" 
d="M598 1399l-111 -185h-360l297 465h362l285 -465h-358zM772 1079h434l-477 -1446h-414l138 367h-150l-305 1079h434l148 -735z" />
    <glyph glyph-name="Ydieresis" unicode="&#x178;" horiz-adv-x="1398" 
d="M410 1513q-104 0 -176 70.5t-72 181.5q0 108 73.5 176t182.5 68q105 0 175.5 -71.5t70.5 -180.5q0 -106 -73 -175t-181 -69zM987 1513q-105 0 -177.5 70t-72.5 182q0 108 73.5 176t182.5 68q105 0 176.5 -71.5t71.5 -180.5q0 -106 -73 -175t-181 -69zM1421 1423
l-510 -843v-580h-422v575l-512 848h474l249 -462l248 462h473z" />
    <glyph glyph-name="Zacute" unicode="&#x179;" horiz-adv-x="1255" 
d="M1040 1683l-690 -180l-92 303l680 222zM1184 379l10 -379h-1131v287l566 768h-555v368h1112v-284l-578 -760h576z" />
    <glyph glyph-name="zacute" unicode="&#x17a;" horiz-adv-x="1062" 
d="M879 1448l-566 -322l-168 269l545 360zM590 338h416v-338h-949v293l412 448h-395v338h915v-307z" />
    <glyph glyph-name="Zdotaccent" unicode="&#x17b;" horiz-adv-x="1255" 
d="M627 1513q-104 0 -177 71t-73 181q0 108 74 176t182 68q106 0 177 -70.5t71 -181.5q0 -105 -73 -174.5t-181 -69.5zM1184 379l10 -379h-1131v287l566 768h-555v368h1112v-284l-578 -760h576z" />
    <glyph glyph-name="zdotaccent" unicode="&#x17c;" horiz-adv-x="1062" 
d="M522 1200q-107 0 -179.5 69t-72.5 175q0 107 72.5 177.5t179.5 70.5t179.5 -70.5t72.5 -177.5q0 -106 -72.5 -175t-179.5 -69zM590 338h416v-338h-949v293l412 448h-395v338h915v-307z" />
    <glyph glyph-name="Zcaron" unicode="&#x17d;" horiz-adv-x="1255" 
d="M805 1540h-342l-328 442h371l123 -155l123 155h368zM1184 379l10 -379h-1131v287l566 768h-555v368h1112v-284l-578 -760h576z" />
    <glyph glyph-name="zcaron" unicode="&#x17e;" horiz-adv-x="1062" 
d="M709 1212h-363l-297 465h361l110 -184l115 184h358zM590 338h416v-338h-949v293l412 448h-395v338h915v-307z" />
    <glyph glyph-name="uni01EA" unicode="&#x1ea;" horiz-adv-x="1628" 
d="M1065 10l-90 -88q-36 -38 -49 -58.5t-13 -43.5q0 -21 12 -33t31 -12q31 0 52 24l145 -194q-40 -43 -110 -67.5t-156 -24.5q-129 0 -208 64.5t-79 172.5q0 117 119 227q-141 17 -265 81t-213 160.5t-140.5 224.5t-51.5 268q0 153 60 290.5t162.5 236.5t244.5 156.5
t299 57.5t298.5 -57.5t243.5 -156.5t162 -236.5t60 -290.5q0 -242 -143 -433.5t-371 -267.5zM479 713q0 -151 91.5 -246.5t244.5 -95.5t243.5 95t90.5 247q0 150 -89 245t-245 95t-246 -95t-90 -245z" />
    <glyph glyph-name="uni01EB" unicode="&#x1eb;" horiz-adv-x="1286" 
d="M885 14l-90 -88q-36 -38 -49 -58.5t-13 -43.5q0 -21 12 -33t31 -12q30 0 51 24l146 -194q-40 -43 -110 -67.5t-156 -24.5q-129 0 -208 64.5t-79 172.5q0 117 115 226q-221 32 -358.5 187t-137.5 372q0 160 76.5 289.5t214.5 203.5t311 74q264 0 435 -161.5t171 -405.5
q0 -181 -97.5 -321.5t-264.5 -203.5zM463 539q0 -86 49 -139.5t133 -53.5q80 0 129 53.5t49 141.5q0 86 -48 138t-130 52q-84 0 -133 -52.5t-49 -139.5z" />
    <glyph glyph-name="AEacute" unicode="&#x1fc;" horiz-adv-x="1986" 
d="M1595 1683l-690 -180l-92 303l680 222zM1315 367h602v-367h-1026v195h-414l-76 -195h-440l582 1423h1364v-366h-592v-160h510v-367h-510v-163zM618 553h273v504h-74z" />
    <glyph glyph-name="aeacute" unicode="&#x1fd;" horiz-adv-x="2091" 
d="M1403 1450l-565 -322l-168 269l544 360zM1319 420q46 -115 180 -115q123 0 189 76l344 -148q-31 -53 -64 -92.5t-86 -81.5t-129.5 -65t-171.5 -23q-226 0 -344 105v-76h-389v59q-105 -88 -266 -88q-235 0 -388 162t-153 406t153 405.5t388 161.5q161 0 266 -88v61h389
v-82q112 109 301 109q100 0 185.5 -32t144.5 -86t101 -124.5t61.5 -147.5t19.5 -155q0 -75 -8 -141h-723zM1307 662h360q-40 139 -180 139q-146 0 -180 -139zM645 342q86 0 137.5 54.5t51.5 142.5t-51.5 142t-137.5 54q-82 0 -133 -55t-51 -141q0 -87 51.5 -142t132.5 -55z
" />
    <glyph glyph-name="Oslashacute" unicode="&#x1fe;" horiz-adv-x="1634" 
d="M1229 1683l-690 -180l-93 303l680 222zM1602 1268l-146 -148q125 -183 125 -409q0 -203 -101.5 -373t-277 -268.5t-385.5 -98.5q-212 0 -391 103l-150 -154l-243 230l147 149q-129 184 -129 412q0 153 60 290.5t162.5 236.5t244.5 156.5t299 57.5q216 0 391 -102l152 153
zM817 371q153 0 243.5 95t90.5 247q0 150 -89 245t-245 95t-246 -95t-90 -245q0 -151 91.5 -246.5t244.5 -95.5z" />
    <glyph glyph-name="oslashacute" unicode="&#x1ff;" horiz-adv-x="1337" 
d="M1030 1448l-565 -322l-168 269l545 360zM1337 918l-131 -113q64 -125 64 -266q0 -119 -45.5 -224t-124.5 -181t-192.5 -119.5t-243.5 -43.5q-182 0 -328 84l-141 -123l-197 220l133 112q-70 124 -70 275q0 160 76.5 289.5t215 203.5t311.5 74q190 0 342 -90l141 121z
M668 346q80 0 129 53.5t49 141.5q0 86 -48 138t-130 52q-84 0 -133.5 -52.5t-49.5 -139.5q0 -86 49.5 -139.5t133.5 -53.5z" />
    <glyph glyph-name="uni0218" unicode="&#x218;" horiz-adv-x="1265" 
d="M514 1024q0 -30 24 -52t64.5 -37.5t92.5 -29.5t110 -31.5t116 -39.5t110 -58t92.5 -82.5t64.5 -117t24 -158.5q0 -199 -158 -323t-433 -124q-219 0 -375.5 102t-214.5 289l399 154q24 -88 86 -135t148 -47q120 0 120 76q0 31 -23.5 54.5t-63.5 39t-92 29.5t-109.5 30.5
t-115 37t-109.5 54t-92 77.5t-63.5 111t-23.5 150q0 207 144.5 333t406.5 126q211 0 359.5 -98.5t187.5 -253.5l-399 -154q-18 73 -62 110.5t-106 37.5q-55 0 -82 -19t-27 -51zM623 -96q83 0 136.5 -52.5t53.5 -136.5q0 -64 -25 -123.5t-94 -162.5l-63 -97l-187 72l68 109
l18 34q-46 24 -74 69t-28 103q0 82 56 133.5t139 51.5z" />
    <glyph glyph-name="uni0219" unicode="&#x219;" horiz-adv-x="1046" 
d="M471 770q0 -20 23 -34t60.5 -23t85.5 -21.5t98.5 -26t98.5 -40t85.5 -61t60.5 -91t23 -127.5q0 -173 -130.5 -274t-353.5 -101q-192 0 -321 77t-178 224l339 131q39 -124 175 -124q69 0 69 40q0 25 -29.5 44t-76.5 33t-104 29.5t-114 40.5t-104 59.5t-76.5 93
t-29.5 133.5q0 164 125.5 259t341.5 95q175 0 293.5 -66.5t150.5 -183.5l-340 -131q-27 84 -111 84q-61 0 -61 -39zM557 -96q83 0 137 -52.5t54 -136.5q0 -64 -25 -123.5t-94 -162.5l-64 -97l-186 72l67 109l19 34q-46 24 -74.5 69t-28.5 103q0 82 56 133.5t139 51.5z" />
    <glyph glyph-name="uni021A" unicode="&#x21a;" horiz-adv-x="1263" 
d="M1239 1423v-376h-395v-1047h-424v1047h-395v376h1214zM633 -96q83 0 136.5 -52.5t53.5 -136.5q0 -64 -25 -124t-93 -162l-64 -97l-186 72l67 109l19 34q-46 24 -74.5 69t-28.5 103q0 82 56 133.5t139 51.5z" />
    <glyph glyph-name="uni021B" unicode="&#x21b;" horiz-adv-x="890" 
d="M840 721h-226v-227q0 -127 121 -127h105v-367h-195q-221 0 -336.5 119t-115.5 323v279h-173v358h74q123 0 123 131v160h412v-291h211v-358zM535 -76q83 0 136.5 -52t53.5 -136q0 -64 -25.5 -124t-93.5 -163l-63 -96l-187 72l68 108l18 35q-46 24 -74 69t-28 103
q0 82 56 133t139 51z" />
    <glyph glyph-name="uni0237" unicode="&#x237;" horiz-adv-x="581" 
d="M-63 -383l-3 358h21q58 0 93.5 38t35.5 106v960h422v-954q0 -158 -66.5 -275t-177 -175t-250.5 -58h-75z" />
    <glyph glyph-name="circumflex" unicode="&#x2c6;" horiz-adv-x="870" 
d="M1006 1214h-359l-115 185l-110 -185h-361l297 465h363z" />
    <glyph glyph-name="caron" unicode="&#x2c7;" horiz-adv-x="1062" 
d="M647 1679h359l-285 -465h-363l-297 465h361l110 -184z" />
    <glyph glyph-name="breve" unicode="&#x2d8;" horiz-adv-x="927" 
d="M504 1214q-208 0 -325.5 125t-117.5 340h328q0 -81 31 -119t84 -38t83.5 38t30.5 119h328q0 -215 -117 -340t-325 -125z" />
    <glyph glyph-name="dotaccent" unicode="&#x2d9;" horiz-adv-x="528" 
d="M313 1202q-107 0 -179.5 69t-72.5 175q0 107 72.5 177.5t179.5 70.5t179.5 -70.5t72.5 -177.5q0 -106 -72.5 -175t-179.5 -69z" />
    <glyph glyph-name="ring" unicode="&#x2da;" horiz-adv-x="686" 
d="M387 1141q-143 0 -234.5 86t-91.5 223q0 134 92 220.5t234 86.5q144 0 234 -86.5t90 -220.5q0 -138 -89.5 -223.5t-234.5 -85.5zM387 1368q37 0 60.5 22.5t23.5 59.5q0 35 -23.5 57.5t-60.5 22.5q-38 0 -62 -22.5t-24 -57.5q0 -37 24 -59.5t62 -22.5z" />
    <glyph glyph-name="ogonek" unicode="&#x2db;" horiz-adv-x="675" 
d="M348 -498q-128 0 -207.5 65t-79.5 173q0 156 207 297l113 76l147 -111l-92 -90q-36 -37 -48.5 -58t-12.5 -44q0 -21 12 -33.5t31 -12.5q29 0 51 25l145 -195q-40 -43 -110 -67.5t-156 -24.5z" />
    <glyph glyph-name="tilde" unicode="&#x2dc;" horiz-adv-x="1067" 
d="M705 1229q-57 0 -108 23.5t-92 47t-73 23.5q-30 0 -54 -19.5t-34 -58.5l-283 121q11 46 27 86.5t41.5 81t57.5 69t76.5 46.5t96.5 18q45 0 86.5 -14.5t68 -32.5t59 -32.5t61.5 -14.5q27 0 49.5 19.5t32.5 58.5l284 -121q-17 -63 -39.5 -112t-56.5 -94.5t-85 -70
t-115 -24.5z" />
    <glyph glyph-name="hungarumlaut" unicode="&#x2dd;" horiz-adv-x="989" 
d="M324 1128l-256 187l292 420l289 -213zM870 1128l-256 187l293 420l289 -213z" />
    <glyph glyph-name="gravecomb" unicode="&#x300;" 
d="M-229 1128l-566 322l189 307l545 -360z" />
    <glyph glyph-name="acutecomb" unicode="&#x301;" 
d="M-627 1128l-168 269l545 360l189 -307z" />
    <glyph glyph-name="uni0302" unicode="&#x302;" 
d="M-61 1214h-359l-115 185l-110 -185h-361l297 465h363z" />
    <glyph glyph-name="tildecomb" unicode="&#x303;" 
d="M-358 1229q-57 0 -108 23.5t-92 47t-73 23.5q-30 0 -54 -19.5t-34 -58.5l-282 121q11 46 27 86.5t41.5 81t57.5 69t76.5 46.5t96.5 18q57 0 106.5 -23.5t91 -47t76.5 -23.5q27 0 49.5 19.5t32.5 58.5l285 -121q-81 -301 -297 -301z" />
    <glyph glyph-name="uni0304" unicode="&#x304;" 
d="M-821 1282v332h760v-332h-760z" />
    <glyph glyph-name="uni0306" unicode="&#x306;" 
d="M-457 1214q-208 0 -325 125t-117 340h328q0 -81 30.5 -119t83.5 -38t84 38t31 119h328q0 -215 -117.5 -340t-325.5 -125z" />
    <glyph glyph-name="uni0307" unicode="&#x307;" 
d="M-313 1202q-107 0 -179.5 69t-72.5 175q0 107 72.5 177.5t179.5 70.5t179.5 -70.5t72.5 -177.5q0 -106 -72.5 -175t-179.5 -69z" />
    <glyph glyph-name="uni0308" unicode="&#x308;" 
d="M-862 1208q-99 0 -168.5 68t-69.5 174q0 104 70.5 168.5t175.5 64.5q101 0 168.5 -68t67.5 -173q0 -102 -70 -168t-174 -66zM-305 1208q-101 0 -170.5 67.5t-69.5 174.5q0 104 70.5 168.5t175.5 64.5q101 0 169.5 -68t68.5 -173q0 -102 -70 -168t-174 -66z" />
    <glyph glyph-name="uni030A" unicode="&#x30a;" 
d="M-385 1141q-143 0 -234.5 86t-91.5 223q0 134 92 220.5t234 86.5q144 0 234 -86.5t90 -220.5q0 -138 -89.5 -223.5t-234.5 -85.5zM-385 1368q37 0 60.5 22.5t23.5 59.5q0 35 -23.5 57.5t-60.5 22.5q-38 0 -62 -22.5t-24 -57.5q0 -37 24 -59.5t62 -22.5z" />
    <glyph glyph-name="uni030B" unicode="&#x30b;" 
d="M-934 1128l-256 187l293 420l289 -213zM-387 1128l-256 187l293 420l289 -213z" />
    <glyph glyph-name="uni030C" unicode="&#x30c;" 
d="M-420 1679h359l-285 -465h-363l-297 465h361l110 -184z" />
    <glyph glyph-name="uni0326" unicode="&#x326;" 
d="M-248 -96q83 0 137 -52.5t54 -136.5q0 -64 -25 -123.5t-94 -162.5l-64 -97l-186 72l68 109l18 34q-46 24 -74 69t-28 103q0 82 55.5 133.5t138.5 51.5z" />
    <glyph glyph-name="uni0327" unicode="&#x327;" 
d="M-360 -498q-87 0 -162.5 27.5t-116.5 71.5l133 168q32 -43 86 -43q29 0 45.5 13.5t16.5 35.5q0 23 -17 38t-49 15h-31l-18 14l65 203h246l-37 -115q57 -11 97.5 -65.5t40.5 -128.5q0 -106 -83.5 -170t-215.5 -64z" />
    <glyph glyph-name="uni0328" unicode="&#x328;" 
d="M-328 -498q-128 0 -207 65t-79 173q0 157 206 297l113 76l148 -111l-93 -90q-36 -37 -48.5 -58t-12.5 -44q0 -21 12 -33.5t31 -12.5q29 0 51 25l146 -195q-40 -43 -110.5 -67.5t-156.5 -24.5z" />
    <glyph glyph-name="uni0335" unicode="&#x335;" 
d="M-879 444v287h818v-287h-818z" />
    <glyph glyph-name="uni0336" unicode="&#x336;" 
d="M-1534 524v328h1473v-328h-1473z" />
    <glyph glyph-name="uni0337" unicode="&#x337;" 
d="M-823 342l-156 264l741 406l156 -262z" />
    <glyph glyph-name="uni0338" unicode="&#x338;" 
d="M-543 934l291 250l191 -219l-291 -250zM-1139 422l189 -223l-254 -219l-197 219z" />
    <glyph glyph-name="Wgrave" unicode="&#x1e80;" horiz-adv-x="1949" 
d="M1364 1806l-92 -303l-690 180l102 345zM1538 1423h418l-314 -1423h-503l-162 815l-166 -815h-502l-313 1423h418l153 -917l178 917h461l178 -925z" />
    <glyph glyph-name="wgrave" unicode="&#x1e81;" horiz-adv-x="1722" 
d="M1210 1397l-168 -269l-565 322l189 307zM1311 1079h428l-264 -1079h-498l-107 559l-102 -559h-500l-268 1079h428l107 -622l100 622h469l102 -618z" />
    <glyph glyph-name="Wacute" unicode="&#x1e82;" horiz-adv-x="1949" 
d="M1384 1683l-690 -180l-92 303l680 222zM1538 1423h418l-314 -1423h-503l-162 815l-166 -815h-502l-313 1423h418l153 -917l178 917h461l178 -925z" />
    <glyph glyph-name="wacute" unicode="&#x1e83;" horiz-adv-x="1722" 
d="M1217 1450l-566 -322l-168 269l545 360zM1311 1079h428l-264 -1079h-498l-107 559l-102 -559h-500l-268 1079h428l107 -622l100 622h469l102 -618z" />
    <glyph glyph-name="Wdieresis" unicode="&#x1e84;" horiz-adv-x="1949" 
d="M680 1513q-104 0 -176 70.5t-72 181.5q0 108 73.5 176t182.5 68q105 0 175.5 -71.5t70.5 -180.5q0 -106 -73 -175t-181 -69zM1257 1513q-105 0 -177 70t-72 182q0 108 73.5 176t182.5 68q105 0 176 -71.5t71 -180.5q0 -106 -73 -175t-181 -69zM1538 1423h418l-314 -1423
h-503l-162 815l-166 -815h-502l-313 1423h418l153 -917l178 917h461l178 -925z" />
    <glyph glyph-name="wdieresis" unicode="&#x1e85;" horiz-adv-x="1722" 
d="M578 1208q-99 0 -168.5 68t-69.5 174q0 104 70.5 168.5t175.5 64.5q101 0 168 -68t67 -173q0 -102 -69.5 -168t-173.5 -66zM1135 1208q-101 0 -170.5 67.5t-69.5 174.5q0 104 70.5 168.5t175.5 64.5q101 0 169 -68t68 -173q0 -102 -69.5 -168t-173.5 -66zM1311 1079h428
l-264 -1079h-498l-107 559l-102 -559h-500l-268 1079h428l107 -622l100 622h469l102 -618z" />
    <glyph glyph-name="uni1E9E" unicode="&#x1e9e;" horiz-adv-x="1359" 
d="M1038 764q126 -42 200.5 -141t74.5 -236q0 -191 -133.5 -299t-366.5 -108q-167 0 -248 36l117 316q46 -15 88 -15q119 0 119 109q0 57 -39.5 87t-110.5 30h-77v239l169 260q-55 39 -139 39q-91 0 -136.5 -44t-45.5 -122v-915h-424v915q0 240 165.5 384.5t432.5 144.5
q226 0 372.5 -93.5t207.5 -256.5z" />
    <glyph glyph-name="Ygrave" unicode="&#x1ef2;" horiz-adv-x="1398" 
d="M1094 1806l-93 -303l-690 180l103 345zM1421 1423l-510 -843v-580h-422v575l-512 848h474l249 -462l248 462h473z" />
    <glyph glyph-name="ygrave" unicode="&#x1ef3;" horiz-adv-x="1198" 
d="M950 1397l-168 -269l-565 322l189 307zM772 1079h434l-477 -1446h-414l138 367h-150l-305 1079h434l148 -735z" />
    <glyph glyph-name="uni1EF8" unicode="&#x1ef8;" horiz-adv-x="1398" 
d="M606 1620q-72 0 -92 -78l-285 121q14 55 40.5 106t66.5 96t99 72t128 27q49 0 93.5 -14.5t72 -32.5t60 -32.5t59.5 -14.5q65 0 88 78l285 -121q-16 -60 -43.5 -111.5t-67.5 -95.5t-97 -69t-124 -25q-49 0 -92.5 14.5t-69.5 32.5t-59 32.5t-62 14.5zM1421 1423l-510 -843
v-580h-422v575l-512 848h474l249 -462l248 462h473z" />
    <glyph glyph-name="uni1EF9" unicode="&#x1ef9;" horiz-adv-x="1198" 
d="M500 1323q-30 0 -54 -19.5t-34 -58.5l-283 121q11 46 27 86.5t41.5 81t57.5 69t76.5 46.5t96.5 18q57 0 106.5 -23.5t91 -47t76.5 -23.5q27 0 49.5 19.5t32.5 58.5l285 -121q-81 -301 -297 -301q-45 0 -87 14.5t-69 32.5t-58.5 32.5t-57.5 14.5zM772 1079h434l-477 -1446
h-414l138 367h-150l-305 1079h434l148 -735z" />
    <glyph glyph-name="endash" unicode="&#x2013;" horiz-adv-x="1019" 
d="M88 324v340h844v-340h-844z" />
    <glyph glyph-name="emdash" unicode="&#x2014;" horiz-adv-x="1499" 
d="M88 326v340h1323v-340h-1323z" />
    <glyph glyph-name="quoteleft" unicode="&#x2018;" horiz-adv-x="509" 
d="M307 1149q73 -14 117.5 -66.5t44.5 -136.5q0 -93 -63.5 -155t-153.5 -62q-91 0 -154 63t-63 160q0 94 53 209l139 303h226z" />
    <glyph glyph-name="quoteright" unicode="&#x2019;" horiz-adv-x="518" 
d="M270 1485q91 0 154 -63t63 -160q0 -94 -53 -209l-139 -303h-225l145 315q-73 14 -117.5 66.5t-44.5 136.5q0 93 63.5 155t153.5 62z" />
    <glyph glyph-name="quotesinglbase" unicode="&#x201a;" horiz-adv-x="524" 
d="M260 399q91 0 154 -63t63 -160q0 -94 -53 -209l-139 -303h-226l146 316q-73 14 -117.5 66.5t-44.5 135.5q0 93 63.5 155t153.5 62z" />
    <glyph glyph-name="quotedblleft" unicode="&#x201c;" horiz-adv-x="1003" 
d="M307 1149q73 -14 117.5 -66.5t44.5 -136.5q0 -93 -63.5 -155t-153.5 -62q-91 0 -154 63t-63 160q0 94 53 209l139 303h226zM801 1149q73 -14 117.5 -66.5t44.5 -136.5q0 -93 -64 -155t-154 -62q-91 0 -154 63t-63 160q0 92 54 209l139 303h225z" />
    <glyph glyph-name="quotedblright" unicode="&#x201d;" horiz-adv-x="1011" 
d="M270 1485q91 0 154 -63t63 -160q0 -94 -53 -209l-139 -303h-225l145 315q-73 14 -117.5 66.5t-44.5 136.5q0 93 63.5 155t153.5 62zM764 1485q91 0 154 -63t63 -160q0 -94 -53 -209l-140 -303h-225l146 315q-73 14 -117.5 66.5t-44.5 136.5q0 93 63.5 155t153.5 62z" />
    <glyph glyph-name="quotedblbase" unicode="&#x201e;" horiz-adv-x="1017" 
d="M260 399q91 0 154 -63t63 -160q0 -94 -53 -209l-139 -303h-226l146 316q-73 14 -117.5 66.5t-44.5 135.5q0 93 63.5 155t153.5 62zM754 399q91 0 154 -63t63 -160q0 -94 -53 -209l-140 -303h-225l145 316q-73 14 -117 66t-44 136q0 93 63.5 155t153.5 62z" />
    <glyph glyph-name="dagger" unicode="&#x2020;" horiz-adv-x="849" 
d="M786 1249v-286h-208v-443h-308v443h-207v286h207v248h308v-248h208z" />
    <glyph glyph-name="daggerdbl" unicode="&#x2021;" horiz-adv-x="907" 
d="M815 1065h-209v-113h209v-286h-209v-146h-307v146h-207v286h207v113h-207v287h207v145h307v-145h209v-287z" />
    <glyph glyph-name="bullet" unicode="&#x2022;" horiz-adv-x="872" 
d="M436 346q-148 0 -247 97.5t-99 244.5q0 153 98.5 252.5t247.5 99.5t247.5 -99.5t98.5 -252.5q0 -147 -99 -244.5t-247 -97.5z" />
    <glyph glyph-name="ellipsis" unicode="&#x2026;" horiz-adv-x="1490" 
d="M260 -20q-92 0 -154.5 62t-62.5 153q0 96 62 159.5t155 63.5q94 0 156.5 -63.5t62.5 -159.5q0 -91 -63 -153t-156 -62zM745 -20q-92 0 -154.5 62t-62.5 153q0 96 62 159.5t155 63.5q94 0 157 -63.5t63 -159.5q0 -91 -63 -153t-157 -62zM1229 -20q-91 0 -153 62t-62 153
q0 96 62 159.5t153 63.5q94 0 156.5 -63.5t62.5 -159.5q0 -91 -63 -153t-156 -62z" />
    <glyph glyph-name="perthousand" unicode="&#x2030;" horiz-adv-x="2267" 
d="M381 768q-145 0 -242.5 98.5t-97.5 239.5t97.5 239.5t242.5 98.5q146 0 243 -98.5t97 -239.5t-97 -239.5t-243 -98.5zM227 0l795 1423l321 2l-800 -1423zM381 1026q33 0 53.5 23t20.5 57q0 35 -20 57.5t-54 22.5q-33 0 -53.5 -23t-20.5 -57t21 -57t53 -23zM1180 -20
q-145 0 -242.5 98t-97.5 239t97.5 239.5t242.5 98.5q146 0 243 -98.5t97 -239.5t-97 -239t-243 -98zM1890 -20q-145 0 -242.5 98t-97.5 239t97.5 239.5t242.5 98.5q146 0 243 -98.5t97 -239.5t-97 -239t-243 -98zM1180 238q33 0 53 22.5t20 56.5q0 35 -19.5 57.5t-53.5 22.5
q-33 0 -53.5 -23t-20.5 -57t21 -56.5t53 -22.5zM1890 238q33 0 53.5 22.5t20.5 56.5q0 35 -20 57.5t-54 22.5q-33 0 -53 -22.5t-20 -57.5q0 -34 20.5 -56.5t52.5 -22.5z" />
    <glyph glyph-name="guilsinglleft" unicode="&#x2039;" horiz-adv-x="724" 
d="M276 129l-245 358l245 359h388l-246 -359l246 -358h-388z" />
    <glyph glyph-name="guilsinglright" unicode="&#x203a;" horiz-adv-x="724" 
d="M61 129l246 358l-246 359h388l245 -359l-245 -358h-388z" />
    <glyph glyph-name="fraction" unicode="&#x2044;" horiz-adv-x="851" 
d="M-41 0l639 1423h301l-643 -1423h-297z" />
    <glyph glyph-name="uni2074" unicode="&#x2074;" horiz-adv-x="694" 
d="M639 1006v-183h-51v-112h-260v112h-287v195l289 405h258v-417h51zM330 1006v133l-94 -133h94z" />
    <glyph glyph-name="Euro" unicode="&#x20ac;" horiz-adv-x="1564" 
d="M889 371q103 0 172.5 44.5t99.5 123.5l363 -240q-85 -141 -248 -234.5t-379 -93.5q-235 0 -419.5 119t-264.5 318h-168l25 266h92v4v4h-90l24 268h117q82 200 267.5 318t422.5 118q216 0 376.5 -92.5t244.5 -232.5l-363 -242q-30 77 -96.5 122.5t-171.5 45.5
q-92 0 -156 -37h189l-23 -268h-311v-4v-4h307l-25 -266h-139q64 -37 154 -37z" />
    <glyph glyph-name="trademark" unicode="&#x2122;" horiz-adv-x="1384" 
d="M557 1339v-188h-149v-381h-211v381h-150v188h510zM1307 770h-197l-18 219l-54 -207h-174l-53 211l-18 -223h-197l47 569h250l59 -239l60 239h248z" />
    <glyph glyph-name="minus" unicode="&#x2212;" horiz-adv-x="1064" 
d="M96 524v353h873v-353h-873z" />
    <glyph glyph-name="approxequal" unicode="&#x2248;" horiz-adv-x="1110" 
d="M752 686q-58 0 -107.5 16t-79 35t-70 35t-81.5 16q-109 0 -160 -77l-195 227q56 92 133.5 140t165.5 48q58 0 107.5 -16t79 -35t70 -35t81.5 -16q108 0 160 78l195 -228q-56 -92 -133.5 -140t-165.5 -48zM752 203q-58 0 -107.5 16t-79 35t-70 35t-81.5 16
q-108 0 -160 -78l-195 228q56 92 133.5 140t165.5 48q58 0 107.5 -16t79 -35t70 -35t81.5 -16q109 0 160 77l195 -227q-56 -92 -133.5 -140t-165.5 -48z" />
    <glyph glyph-name="notequal" unicode="&#x2260;" horiz-adv-x="1064" 
d="M969 721h-224l-38 -119h262v-352h-373l-45 -144h-387l45 144h-113v352h223l39 119h-262v352h373l45 144h387l-45 -144h113v-352z" />
    <glyph glyph-name="uniF8FF" unicode="&#xf8ff;" horiz-adv-x="4724" 
d="M1149 408q-95 0 -136.5 40t-41.5 130v466h203q0 -62 -40 -122t-98 -86l2 -9q58 35 119 35h105v-162h-86v-98q0 -35 36 -35q28 0 50 15v-154q-36 -20 -113 -20zM1303 418v626h200q0 -67 -47 -122t-115 -70l5 -6q84 16 143 16h16v-444h-202zM2808 408q-95 0 -137.5 40.5
t-42.5 129.5v466h202q0 -62 -39 -122t-98 -86l4 -9q58 35 119 35h102v-162h-86v-98q0 -35 37 -35q27 0 49 15v-154q-36 -20 -110 -20zM205 418v624h203v-624h-203zM584 408q-66 0 -105 34t-39 90q0 60 41 98t111 38q92 0 135 -43h4v71q0 24 -12 38t-35 14q-47 0 -47 -60
l-184 29q37 160 249 160q110 0 172 -50t62 -135v-274h-201v45h-6q-14 -20 -51.5 -37.5t-93.5 -17.5zM1548 418v444h199v-133h6q17 143 145 143q70 0 110 -46t40 -134v-274h-205v264q0 55 -39 55q-22 0 -32 -13t-21 -52v-254h-203zM2337 408q-123 0 -190.5 63.5t-67.5 167.5
t69 168.5t189 64.5q122 0 190 -64.5t68 -168.5q0 -103 -67.5 -167t-190.5 -64zM3463 270v592h203v-133h6q21 143 150 143q170 0 170 -233q0 -115 -51.5 -173t-125.5 -58q-105 0 -141 88h-6v-226h-205zM4274 408q-120 0 -187 63.5t-67 167.5q0 103 70 168t190 65
q107 0 173.5 -64.5t66.5 -158.5v-18h-307q0 -39 18.5 -66.5t50.5 -27.5q55 0 62 69l168 -16q-18 -95 -83 -138.5t-155 -43.5zM3015 262v135h133q115 0 137 25l-2 6h-139q-83 0 -107 80l-110 354h204q6 -37 20 -110t24 -134t14 -110h4q13 125 61 354h203l-145 -424
q-63 -176 -217 -176h-80zM4213 655h12q62 0 87.5 12t25.5 38q0 45 -49 45q-34 0 -55 -26t-21 -69zM3738 506q31 0 46 27.5t15 89.5q0 66 -12 95.5t-43 29.5q-46 0 -62 -68v-148q21 -26 56 -26zM2337 535q59 0 59 104q0 106 -59 106q-58 0 -58 -106q0 -104 58 -104zM686 469
q30 0 45 23v104q-10 16 -39 16q-25 0 -40 -19t-15 -52q0 -72 49 -72z" />
    <glyph glyph-name="uni00A40301" horiz-adv-x="743" 
d="M166 1503l-92 303l680 222l102 -345zM51 0v377h70q110 0 110 110v936h424v-942q0 -224 -126 -352.5t-371 -128.5h-107z" />
    <glyph glyph-name="Q.ss01" horiz-adv-x="1626" 
d="M1452 377h133v-377h-770q-220 0 -395 91.5t-273 253.5t-98 366q0 153 60 290.5t162.5 236.5t244.5 156.5t299 57.5t297 -56.5t239.5 -151.5t157.5 -225.5t58 -273.5q0 -214 -115 -368zM809 371q149 0 238.5 95.5t89.5 246.5q0 150 -88 245t-240 95t-241 -95t-89 -245
q0 -151 90.5 -246.5t239.5 -95.5z" />
    <glyph glyph-name="i.loclTRK" horiz-adv-x="573" 
d="M289 1200q-107 0 -179.5 69t-72.5 175q0 107 72.5 177.5t179.5 70.5t179.5 -70.5t72.5 -177.5q0 -106 -72.5 -175t-179.5 -69zM76 0v1079h422v-1079h-422z" />
    <glyph glyph-name="uni006A0301" horiz-adv-x="581" 
d="M96 1128l-168 269l545 360l189 -307zM-63 -383l-3 358h21q58 0 93.5 38t35.5 106v960h422v-954q0 -158 -66.5 -275t-177 -175t-250.5 -58h-75z" />
    <glyph glyph-name="g.ss01" horiz-adv-x="1236" 
d="M1200 1079v-358h-143q6 -41 6 -80q0 -171 -92 -293q174 -105 174 -328q0 -176 -160 -295.5t-416 -119.5q-451 0 -573 315l381 148q50 -119 182 -119q74 0 115 32.5t41 79.5q0 49 -38.5 81t-113.5 32q-236 0 -378 129t-142 338q0 204 143 335.5t377 131.5q101 0 193 -29
h444zM440 641q0 -52 34.5 -87.5t88.5 -35.5t88.5 35.5t34.5 87.5t-33.5 87.5t-89.5 35.5t-89.5 -35.5t-33.5 -87.5z" />
    <glyph glyph-name="gbreve.ss01" horiz-adv-x="1236" 
d="M586 1214q-208 0 -325.5 125t-117.5 340h328q0 -81 31 -119t84 -38t83.5 38t30.5 119h328q0 -215 -117 -340t-325 -125zM1200 1079v-358h-143q6 -41 6 -80q0 -171 -92 -293q174 -105 174 -328q0 -176 -160 -295.5t-416 -119.5q-451 0 -573 315l381 148q50 -119 182 -119
q74 0 115 32.5t41 79.5q0 49 -38.5 81t-113.5 32q-236 0 -378 129t-142 338q0 204 143 335.5t377 131.5q101 0 193 -29h444zM440 641q0 -52 34.5 -87.5t88.5 -35.5t88.5 35.5t34.5 87.5t-33.5 87.5t-89.5 35.5t-89.5 -35.5t-33.5 -87.5z" />
    <glyph glyph-name="uni0123.ss01" horiz-adv-x="1236" 
d="M608 1196q-83 0 -136.5 52t-53.5 136q0 64 25.5 124t93.5 163l63 96l186 -71l-67 -109l-19 -35q46 -24 74.5 -69t28.5 -103q0 -82 -56 -133t-139 -51zM1200 1079v-358h-143q6 -41 6 -80q0 -171 -92 -293q174 -105 174 -328q0 -176 -160 -295.5t-416 -119.5
q-451 0 -573 315l381 148q50 -119 182 -119q74 0 115 32.5t41 79.5q0 49 -38.5 81t-113.5 32q-236 0 -378 129t-142 338q0 204 143 335.5t377 131.5q101 0 193 -29h444zM440 641q0 -52 34.5 -87.5t88.5 -35.5t88.5 35.5t34.5 87.5t-33.5 87.5t-89.5 35.5t-89.5 -35.5
t-33.5 -87.5z" />
    <glyph glyph-name="gdotaccent.ss01" horiz-adv-x="1236" 
d="M586 1202q-107 0 -179.5 69t-72.5 175q0 107 72.5 177.5t179.5 70.5t179.5 -70.5t72.5 -177.5q0 -106 -72.5 -175t-179.5 -69zM1200 1079v-358h-143q6 -41 6 -80q0 -171 -92 -293q174 -105 174 -328q0 -176 -160 -295.5t-416 -119.5q-451 0 -573 315l381 148
q50 -119 182 -119q74 0 115 32.5t41 79.5q0 49 -38.5 81t-113.5 32q-236 0 -378 129t-142 338q0 204 143 335.5t377 131.5q101 0 193 -29h444zM440 641q0 -52 34.5 -87.5t88.5 -35.5t88.5 35.5t34.5 87.5t-33.5 87.5t-89.5 35.5t-89.5 -35.5t-33.5 -87.5z" />
    <glyph glyph-name="t.ss01" horiz-adv-x="868" 
d="M225 0v721h-205v358h107q123 0 123 131v160h412v-291h178v-358h-193v-721h-422z" />
    <glyph glyph-name="tbar.ss01" horiz-adv-x="927" 
d="M872 721h-192v-96h192v-287h-192v-338h-422v338h-203v287h203v96h-205v358h107q123 0 123 131v160h411v-291h178v-358z" />
    <glyph glyph-name="tcaron.ss01" horiz-adv-x="868" 
d="M735 1118l41 563h295l-67 -563h-269zM225 0v721h-205v358h107q123 0 123 131v160h412v-291h178v-358h-193v-721h-422z" />
    <glyph glyph-name="uni0163.ss01" horiz-adv-x="868" 
d="M647 0h-82l-26 -82q57 -11 97 -65t40 -129q0 -106 -83.5 -170t-215.5 -64q-88 0 -163 27t-116 71l133 168q32 -43 86 -43q29 0 45.5 13.5t16.5 35.5q0 23 -17 38.5t-49 15.5h-30l-19 14l55 170h-94v721h-205v358h107q123 0 123 131v160h412v-291h178v-358h-193v-721z" />
    <glyph glyph-name="uni021B.ss01" horiz-adv-x="868" 
d="M662 1079h178v-358h-193v-721h-422v721h-205v358h107q123 0 123 131v160h412v-291zM440 -109q83 0 137 -52t54 -136q0 -64 -25.5 -124t-93.5 -163l-63 -96l-187 72l68 108l18 35q-46 24 -74 69t-28 103q0 82 55.5 133t138.5 51z" />
    <glyph glyph-name="u.ss01" horiz-adv-x="1204" 
d="M602 -29q-257 0 -398 135.5t-141 376.5v596h422v-614q0 -53 31 -86t86 -33t86 33t31 86v614h422v-596q0 -241 -141 -376.5t-398 -135.5z" />
    <glyph glyph-name="uacute.ss01" horiz-adv-x="1204" 
d="M393 1128l-168 269l545 360l188 -307zM602 -29q-257 0 -398 135.5t-141 376.5v596h422v-614q0 -53 31 -86t86 -33t86 33t31 86v614h422v-596q0 -241 -141 -376.5t-398 -135.5z" />
    <glyph glyph-name="ucircumflex.ss01" horiz-adv-x="1204" 
d="M600 1399l-111 -185h-360l297 465h362l285 -465h-358zM719 1079h422v-596q0 -241 -141 -376.5t-398 -135.5t-398 135.5t-141 376.5v596h422v-614q0 -53 31 -86t86 -33t86 33t31 86v614z" />
    <glyph glyph-name="udieresis.ss01" horiz-adv-x="1204" 
d="M319 1208q-99 0 -168 68t-69 174q0 104 70.5 168.5t175.5 64.5q101 0 168 -68t67 -173q0 -102 -70 -168t-174 -66zM877 1208q-101 0 -170.5 67.5t-69.5 174.5q0 104 70.5 168.5t175.5 64.5q101 0 169 -68t68 -173q0 -102 -69.5 -168t-173.5 -66zM602 -29
q-257 0 -398 135.5t-141 376.5v596h422v-614q0 -53 31 -86t86 -33t86 33t31 86v614h422v-596q0 -241 -141 -376.5t-398 -135.5z" />
    <glyph glyph-name="ugrave.ss01" horiz-adv-x="1204" 
d="M784 1128l-565 322l189 307l544 -360zM602 -29q-257 0 -398 135.5t-141 376.5v596h422v-614q0 -53 31 -86t86 -33t86 33t31 86v614h422v-596q0 -241 -141 -376.5t-398 -135.5z" />
    <glyph glyph-name="uhungarumlaut.ss01" horiz-adv-x="1204" 
d="M334 1128l-256 187l293 420l288 -213zM881 1128l-256 187l293 420l288 -213zM602 -29q-257 0 -398 135.5t-141 376.5v596h422v-614q0 -53 31 -86t86 -33t86 33t31 86v614h422v-596q0 -241 -141 -376.5t-398 -135.5z" />
    <glyph glyph-name="umacron.ss01" horiz-adv-x="1204" 
d="M221 1282v332h760v-332h-760zM602 -29q-257 0 -398 135.5t-141 376.5v596h422v-614q0 -53 31 -86t86 -33t86 33t31 86v614h422v-596q0 -241 -141 -376.5t-398 -135.5z" />
    <glyph glyph-name="uogonek.ss01" horiz-adv-x="1204" 
d="M719 1079h422v-596q0 -187 -86 -311t-248 -174l-90 -88q-36 -37 -49 -58.5t-13 -44.5q0 -21 12 -33t31 -12q30 0 52 25l145 -195q-40 -43 -110 -67.5t-156 -24.5q-128 0 -207.5 65t-79.5 173q0 124 135 244q-199 31 -306.5 161t-107.5 340v596h422v-614q0 -53 31 -86
t86 -33t86 33t31 86v614z" />
    <glyph glyph-name="uring.ss01" horiz-adv-x="1204" 
d="M602 1141q-143 0 -234.5 86t-91.5 223q0 134 92 220.5t234 86.5q144 0 234 -86.5t90 -220.5q0 -138 -89.5 -223.5t-234.5 -85.5zM602 1368q37 0 60.5 22.5t23.5 59.5q0 35 -23.5 57.5t-60.5 22.5q-38 0 -62 -22.5t-24 -57.5q0 -37 24 -59.5t62 -22.5zM602 -29
q-257 0 -398 135.5t-141 376.5v596h422v-614q0 -53 31 -86t86 -33t86 33t31 86v614h422v-596q0 -241 -141 -376.5t-398 -135.5z" />
    <glyph glyph-name="utilde.ss01" horiz-adv-x="1204" 
d="M774 1229q-45 0 -87 14.5t-69 32.5t-58.5 32.5t-57.5 14.5q-30 0 -54 -19.5t-34 -58.5l-283 121q11 46 27 86.5t41.5 81t57.5 69t76.5 46.5t96.5 18q45 0 86.5 -14.5t68 -32.5t59 -32.5t61.5 -14.5q27 0 49 19.5t32 58.5l285 -121q-81 -301 -297 -301zM602 -29
q-257 0 -398 135.5t-141 376.5v596h422v-614q0 -53 31 -86t86 -33t86 33t31 86v614h422v-596q0 -241 -141 -376.5t-398 -135.5z" />
    <glyph glyph-name="y.ss01" horiz-adv-x="1212" 
d="M717 1079h422v-964q0 -238 -142 -374t-403 -136q-193 0 -323.5 75.5t-198.5 206.5l354 136q54 -97 168 -97q69 0 109 40t40 112v78q-121 -93 -272 -93q-197 0 -302.5 121.5t-105.5 309.5v585h422v-528q0 -48 31.5 -80.5t85.5 -32.5q112 0 115 117v524z" />
    <glyph glyph-name="yacute.ss01" horiz-adv-x="1212" 
d="M971 1450l-565 -322l-168 269l544 360zM717 1079h422v-964q0 -238 -142 -374t-403 -136q-193 0 -323.5 75.5t-198.5 206.5l354 136q54 -97 168 -97q69 0 109 40t40 112v78q-121 -93 -272 -93q-197 0 -302.5 121.5t-105.5 309.5v585h422v-528q0 -48 31.5 -80.5t85.5 -32.5
q112 0 115 117v524z" />
    <glyph glyph-name="ycircumflex.ss01" horiz-adv-x="1212" 
d="M612 1399l-110 -185h-361l297 465h363l284 -465h-358zM717 1079h422v-964q0 -238 -142 -374t-403 -136q-193 0 -323.5 75.5t-198.5 206.5l354 136q54 -97 168 -97q69 0 109 40t40 112v78q-121 -93 -272 -93q-197 0 -302.5 121.5t-105.5 309.5v585h422v-528
q0 -48 31.5 -80.5t85.5 -32.5q112 0 115 117v524z" />
    <glyph glyph-name="ydieresis.ss01" horiz-adv-x="1212" 
d="M332 1208q-99 0 -168.5 68t-69.5 174q0 104 70.5 168.5t175.5 64.5q101 0 168 -68t67 -173q0 -102 -69.5 -168t-173.5 -66zM889 1208q-101 0 -170.5 67.5t-69.5 174.5q0 104 70.5 168.5t175.5 64.5q101 0 169.5 -68t68.5 -173q0 -102 -70 -168t-174 -66zM717 1079h422
v-964q0 -238 -142 -374t-403 -136q-193 0 -323.5 75.5t-198.5 206.5l354 136q54 -97 168 -97q69 0 109 40t40 112v78q-121 -93 -272 -93q-197 0 -302.5 121.5t-105.5 309.5v585h422v-528q0 -48 31.5 -80.5t85.5 -32.5q112 0 115 117v524z" />
    <glyph glyph-name="ygrave.ss01" horiz-adv-x="1212" 
d="M965 1397l-168 -269l-566 322l189 307zM717 1079h422v-964q0 -238 -142 -374t-403 -136q-193 0 -323.5 75.5t-198.5 206.5l354 136q54 -97 168 -97q69 0 109 40t40 112v78q-121 -93 -272 -93q-197 0 -302.5 121.5t-105.5 309.5v585h422v-528q0 -48 31.5 -80.5t85.5 -32.5
q112 0 115 117v524z" />
    <glyph glyph-name="uni1EF9.ss01" horiz-adv-x="1212" 
d="M514 1323q-30 0 -54 -19.5t-34 -58.5l-283 121q11 46 27 86.5t41.5 81t57.5 69t76.5 46.5t96.5 18q45 0 86.5 -14.5t68 -32.5t59 -32.5t61.5 -14.5q27 0 49.5 19.5t32.5 58.5l284 -121q-81 -301 -297 -301q-45 0 -87 14.5t-69 32.5t-58.5 32.5t-57.5 14.5zM717 1079h422
v-964q0 -238 -142 -374t-403 -136q-193 0 -323.5 75.5t-198.5 206.5l354 136q54 -97 168 -97q69 0 109 40t40 112v78q-121 -93 -272 -93q-197 0 -302.5 121.5t-105.5 309.5v585h422v-528q0 -48 31.5 -80.5t85.5 -32.5q112 0 115 117v524z" />
    <glyph glyph-name="zero.osf" horiz-adv-x="1320" 
d="M659 -29q-172 0 -310 73.5t-216 204.5t-78 296q0 254 169.5 407.5t434.5 153.5q176 0 313 -68t215.5 -196t78.5 -297q0 -164 -79 -295.5t-217.5 -205t-310.5 -73.5zM659 346q84 0 136.5 51.5t52.5 143.5q0 88 -53 139t-136 51q-81 0 -133.5 -51.5t-52.5 -138.5
q0 -90 52 -142.5t134 -52.5z" />
    <glyph glyph-name="one.osf" horiz-adv-x="1019" 
d="M772 358h203v-358h-887v358h264v363h-274v358h694v-721z" />
    <glyph glyph-name="two.osf" horiz-adv-x="1169" 
d="M768 330h340v-330h-1051v266q172 78 284 139.5t167.5 107t75.5 78t20 66.5q0 36 -18.5 56t-53.5 20q-72 0 -100 -88l-379 123q35 147 178.5 242.5t333.5 95.5q215 0 339 -100t124 -277q0 -120 -60.5 -215t-199.5 -184z" />
    <glyph glyph-name="three.osf" horiz-adv-x="1177" 
d="M795 547q147 -29 240 -140t93 -262q0 -196 -156 -324t-405 -128q-207 0 -357 91.5t-196 242.5l385 153q22 -54 66 -83t104 -29q62 0 99 31t37 79t-35 78.5t-99 30.5h-280v270l205 164h-402v358h928v-327z" />
    <glyph glyph-name="four.osf" horiz-adv-x="1208" 
d="M1151 297v-307h-113v-232h-420v232h-579v313l584 776h415v-782h113zM623 297v262l-195 -262h195z" />
    <glyph glyph-name="five.osf" horiz-adv-x="1157" 
d="M555 592q269 0 412 -112t143 -320q0 -206 -151 -336.5t-414 -130.5q-202 0 -341 85t-204 257l385 153q15 -56 59 -88t105 -32q64 0 100.5 32t36.5 76q0 48 -34 79.5t-91 31.5h-422l45 792h820v-358h-465l-9 -129h25z" />
    <glyph glyph-name="six.osf" horiz-adv-x="1206" 
d="M737 938q198 -28 313 -152t115 -313q0 -223 -154 -362.5t-401 -139.5q-245 0 -401 136t-156 354q0 70 15.5 135t46.5 122.5t48 84t48 69.5l354 480h488zM610 330q61 0 99.5 38.5t38.5 100.5q0 63 -37.5 101t-100.5 38t-101 -37.5t-38 -101.5q0 -61 38.5 -100t100.5 -39z
" />
    <glyph glyph-name="seven.osf" horiz-adv-x="1060" 
d="M33 1079h987v-315l-406 -1034h-471l406 999h-516v350z" />
    <glyph glyph-name="eight.osf" horiz-adv-x="1232" 
d="M944 705q112 -43 173 -131.5t61 -198.5q0 -185 -151 -294.5t-411 -109.5t-410.5 109.5t-150.5 294.5q0 114 57 202t167 130q-78 42 -124 115t-46 173q0 169 131.5 277t375.5 108t375 -108t131 -277q0 -101 -47.5 -175t-130.5 -115zM616 1042q-48 0 -78 -25.5t-30 -70.5
t30 -71.5t78 -26.5t77.5 26.5t29.5 71.5t-29.5 70.5t-77.5 25.5zM616 309q64 0 104 32.5t40 86.5q0 48 -39.5 79.5t-104.5 31.5t-104 -31.5t-39 -79.5q0 -54 39 -86.5t104 -32.5z" />
    <glyph glyph-name="nine.osf" horiz-adv-x="1181" 
d="M586 1108q156 0 281.5 -58t199.5 -170t74 -259q0 -62 -12.5 -118t-37.5 -106t-40 -74.5t-43 -64.5l-379 -530h-488l308 417q-193 32 -306.5 151.5t-113.5 309.5q0 153 74 268t200 174.5t283 59.5zM586 750q-61 0 -100.5 -39t-39.5 -101q0 -63 39.5 -100t100.5 -37t99 37
t38 100t-38.5 101.5t-98.5 38.5z" />
    <glyph glyph-name="uni030C.alt" 
d="M-473 881l41 563h295l-68 -563h-268z" />
    <glyph glyph-name="caron.alt" horiz-adv-x="538" 
d="M104 881l41 563h295l-67 -563h-269z" />
    <glyph glyph-name="uni0308.case" 
d="M-893 1513q-104 0 -176 70.5t-72 181.5q0 108 73.5 176t182.5 68q105 0 175.5 -71.5t70.5 -180.5q0 -106 -73 -175t-181 -69zM-315 1513q-105 0 -177.5 70t-72.5 182q0 108 73.5 176t182.5 68q105 0 176.5 -71.5t71.5 -180.5q0 -106 -73 -175t-181 -69z" />
    <glyph glyph-name="uni0307.case" 
d="M-315 1513q-104 0 -177 71t-73 181q0 108 74 176t182 68q106 0 177 -70.5t71 -181.5q0 -105 -73 -174.5t-181 -69.5z" />
    <glyph glyph-name="gravecomb.case" 
d="M-154 1503l-690 180l103 345l680 -222z" />
    <glyph glyph-name="acutecomb.case" 
d="M-752 1503l-92 303l680 222l103 -345z" />
    <glyph glyph-name="uni030B.case" 
d="M-934 1499l-256 187l293 419l289 -213zM-387 1499l-256 187l293 419l289 -213z" />
    <glyph glyph-name="uni0302.case" 
d="M-61 1540h-369l-123 156l-123 -156h-371l328 442h342z" />
    <glyph glyph-name="uni030C.case" 
d="M-430 1982h369l-316 -442h-342l-328 442h371l123 -155z" />
    <glyph glyph-name="uni0306.case" 
d="M-508 1540q-202 0 -322 122t-120 320h342q0 -63 27 -99t73 -36t73 36t27 99h342q0 -198 -120 -320t-322 -122z" />
    <glyph glyph-name="uni030A.case" 
d="M-385 1376q-143 0 -234.5 86.5t-91.5 223.5q0 134 92 220.5t234 86.5q144 0 234 -86.5t90 -220.5q0 -138 -89.5 -224t-234.5 -86zM-385 1604q37 0 60.5 22.5t23.5 59.5q0 35 -23.5 57t-60.5 22q-38 0 -62 -22t-24 -57q0 -37 24 -59.5t62 -22.5z" />
    <glyph glyph-name="tildecomb.case" 
d="M-393 1542q-49 0 -92.5 14.5t-69.5 32.5t-59 32.5t-62 14.5q-72 0 -92 -77l-285 120q14 55 40.5 106t66.5 96t99 72t128 27q49 0 93.5 -14.5t72 -32.5t60 -32.5t59.5 -14.5q65 0 88 78l285 -121q-16 -60 -43.5 -111.5t-67.5 -95.5t-97 -69t-124 -25z" />
    <glyph glyph-name="uni0304.case" 
d="M-907 1591v342h846v-342h-846z" />
    <glyph glyph-name="uni0326.case" 
d="M-248 -96q83 0 137 -52.5t54 -136.5q0 -64 -25 -123.5t-94 -162.5l-64 -97l-186 72l68 109l18 34q-46 24 -74 69t-28 103q0 82 55.5 133.5t138.5 51.5z" />
    <glyph glyph-name="uni0337.case" 
d="M-862 383l-84 262l801 264l84 -262z" />
    <glyph glyph-name="uni0338.case" 
d="M-614 1225l311 317l242 -235l-316 -322zM-1159 190l-227 -231l-244 229l229 234z" />
    <glyph glyph-name="dieresis.case" horiz-adv-x="1081" 
d="M309 1513q-104 0 -176 70.5t-72 181.5q0 108 73.5 176t182.5 68q105 0 175.5 -71.5t70.5 -180.5q0 -106 -73 -175t-181 -69zM887 1513q-105 0 -177.5 70t-72.5 182q0 108 73.5 176t182.5 68q105 0 176.5 -71.5t71.5 -180.5q0 -106 -73 -175t-181 -69z" />
    <glyph glyph-name="dotaccent.case" horiz-adv-x="446" 
d="M311 1513q-104 0 -177 71t-73 181q0 108 74 176t182 68q106 0 177 -70.5t71 -181.5q0 -105 -73 -174.5t-181 -69.5z" />
    <glyph glyph-name="grave.case" horiz-adv-x="821" 
d="M752 1503l-691 180l103 345l680 -222z" />
    <glyph glyph-name="acute.case" horiz-adv-x="821" 
d="M154 1503l-93 303l680 222l103 -345z" />
    <glyph glyph-name="hungarumlaut.case" horiz-adv-x="1288" 
d="M317 1499l-256 187l293 419l289 -213zM864 1499l-256 187l293 419l289 -213z" />
    <glyph glyph-name="circumflex.case" horiz-adv-x="1062" 
d="M1047 1540h-369l-123 156l-123 -156h-371l328 442h342z" />
    <glyph glyph-name="caron.case" horiz-adv-x="1062" 
d="M678 1982h369l-316 -442h-342l-328 442h371l123 -155z" />
    <glyph glyph-name="breve.case" horiz-adv-x="960" 
d="M504 1540q-202 0 -322.5 122t-120.5 320h342q0 -63 27.5 -99t73.5 -36t73 36t27 99h342q0 -198 -120 -320t-322 -122z" />
    <glyph glyph-name="ring.case" horiz-adv-x="686" 
d="M387 1376q-143 0 -234.5 86.5t-91.5 223.5q0 134 92 220.5t234 86.5q144 0 234 -86.5t90 -220.5q0 -138 -89.5 -224t-234.5 -86zM387 1604q37 0 60.5 22.5t23.5 59.5q0 35 -23.5 57t-60.5 22q-38 0 -62 -22t-24 -57q0 -37 24 -59.5t62 -22.5z" />
    <glyph glyph-name="tilde.case" horiz-adv-x="1067" 
d="M721 1542q-49 0 -92.5 14.5t-69.5 32.5t-59 32.5t-62 14.5q-72 0 -92 -77l-285 120q14 55 40.5 106t66.5 96t99 72t128 27q49 0 93.5 -14.5t72 -32.5t60 -32.5t59.5 -14.5q65 0 88 78l285 -121q-16 -60 -43.5 -111.5t-67.5 -95.5t-97 -69t-124 -25z" />
    <glyph glyph-name="macron.case" horiz-adv-x="968" 
d="M61 1591v342h846v-342h-846z" />
    <glyph glyph-name="IJacute" horiz-adv-x="1341" 
d="M764 1503l-53 176l-678 -176l-92 303l680 222l65 -218l666 218l102 -345zM98 0v1423h424v-1423h-424zM829 487v936h424v-942q0 -224 -126 -352.5t-371 -128.5h-107v377h70q110 0 110 110z" />
    <glyph glyph-name="ijacute" horiz-adv-x="1189" 
d="M541 1389l-461 -263l-168 269l545 360l180 -293l444 295l189 -307l-565 -322zM76 0v1079h422v-1079h-422zM692 119v960h422v-954q0 -237 -139.5 -372.5t-353.5 -135.5h-76l-2 358h20q58 0 93.5 38t35.5 106z" />
    </font>
</defs>
</svg>
