<?xml version="1.0" standalone="no"?>
<!DOCTYPE svg PUBLIC "-//W3C//DTD SVG 1.1//EN" "http://www.w3.org/Graphics/SVG/1.1/DTD/svg11.dtd" >
<svg xmlns="http://www.w3.org/2000/svg" xmlns:xlink="http://www.w3.org/1999/xlink" version="1.1">
<metadata>
Created by FontForge 20170731 at Tue Mar  2 19:22:38 2021
 By Aleksey,,,
Copyright (c) 2003 The Hoefler Type Foundry, Inc., dba Hoefler &#38; Frere-Jones. All Rights Reserved.
</metadata>
<defs>
<font id="GothamPro-Black" horiz-adv-x="1024" >
  <font-face 
    font-family="Gotham Pro Black"
    font-weight="400"
    font-stretch="normal"
    units-per-em="2048"
    panose-1="2 0 9 3 4 0 0 2 0 4"
    ascent="1638"
    descent="-410"
    x-height="1108"
    cap-height="1434"
    bbox="-150 -354 2580 1909"
    underline-thickness="40"
    underline-position="-312"
    unicode-range="U+0020-FB04"
  />
<missing-glyph 
d="M0 0v1434h1024v-1434h-1024zM166 100h694l-348 523zM100 197l351 520l-351 520v-1040zM922 197v1040l-351 -520zM512 809l348 522h-694z" />
    <glyph glyph-name="fi" unicode="fi" horiz-adv-x="1441" 
d="M174 0v797h-129v305h129v24q0 193 94 287q96 96 289 96q152 0 254 -30v-275q-74 23 -145 23q-111 0 -111 -105v-26h254v-299h-248v-797h-387zM940 0v1108h389v-1108h-389zM932 1208v287h405v-287h-405z" />
    <glyph glyph-name="fl" unicode="fl" horiz-adv-x="1441" 
d="M174 0v797h-129v305h129v24q0 193 94 287q96 96 289 96q152 0 254 -30v-275q-74 23 -145 23q-111 0 -111 -105v-26h254v-299h-248v-797h-387zM940 0v1495h389v-1495h-389z" />
    <glyph glyph-name="ffi" unicode="ffi" horiz-adv-x="2269" 
d="M174 0v797h-129v305h129v24q0 193 94 287q96 96 289 96q152 0 254 -30v-275q-74 23 -145 23q-111 0 -111 -105v-26h254v-299h-248v-797h-387zM1001 0v797h-131v299h131v30q0 192 95 287q93 96 288 96q152 0 254 -30v-275q-74 23 -145 23q-111 0 -111 -105v-26h254v-299
h-247v-797h-388zM1767 0v1108h390v-1108h-390zM1759 1208v287h406v-287h-406z" />
    <glyph glyph-name="ffl" unicode="ffl" horiz-adv-x="2269" 
d="M174 0v797h-129v305h129v24q0 193 94 287q96 96 289 96q152 0 254 -30v-275q-74 23 -145 23q-111 0 -111 -105v-26h254v-299h-248v-797h-387zM1001 0v797h-131v299h131v30q0 192 95 287q93 96 288 96q152 0 254 -30v-275q-74 23 -145 23q-111 0 -111 -105v-26h254v-299
h-247v-797h-388zM1767 0v1495h390v-1495h-390z" />
    <glyph glyph-name=".notdef" 
d="M0 0v1434h1024v-1434h-1024zM166 100h694l-348 523zM100 197l351 520l-351 520v-1040zM922 197v1040l-351 -520zM512 809l348 522h-694z" />
    <glyph glyph-name=".null" horiz-adv-x="0" 
 />
    <glyph glyph-name="nonmarkingreturn" horiz-adv-x="682" 
 />
    <glyph glyph-name="space" unicode=" " horiz-adv-x="567" 
 />
    <glyph glyph-name="exclam" unicode="!" horiz-adv-x="663" 
d="M129 0v348h406v-348h-406zM229 467l-118 793v174h442v-174l-119 -793h-205z" />
    <glyph glyph-name="quotedbl" unicode="&#x22;" horiz-adv-x="1099" 
d="M70 698l45 736h417v-11l-260 -725h-202zM594 698l47 736h418v-11l-260 -725h-205z" />
    <glyph glyph-name="numbersign" unicode="#" horiz-adv-x="1445" 
d="M172 0l47 276h-160v330h217l39 230h-188v329h246l45 269h297l-47 -269h260l45 269h297l-45 -269h159v-329h-217l-39 -230h189v-330h-244l-49 -276h-297l49 276h-260l-47 -276h-297zM563 598h275l41 246h-273z" />
    <glyph glyph-name="dollar" unicode="$" horiz-adv-x="1363" 
d="M604 -201v205q-151 15 -294.5 67.5t-258.5 135.5l185 272q199 -139 380 -168v246q-129 30 -218 66t-153.5 89t-95 124.5t-30.5 167.5q0 184 128.5 299.5t360.5 132.5v116h213v-122q235 -25 432 -160l-168 -275q-120 85 -274 123v-237q254 -59 371.5 -161.5t117.5 -289.5
q0 -184 -130.5 -296.5t-352.5 -133.5v-201h-213zM809 299q137 15 137 109q0 42 -29.5 67.5t-107.5 48.5v-225zM618 915v222q-139 -11 -139 -107q0 -41 29 -67t110 -48z" />
    <glyph glyph-name="percent" unicode="%" horiz-adv-x="1841" 
d="M229 0l1106 1434h277l-1106 -1434h-277zM1399 -20q-163 0 -266 112t-103 275q0 162 103 273.5t268 111.5q164 0 266 -111t102 -276q0 -160 -104 -272.5t-266 -112.5zM1401 205q52 0 85.5 45.5t33.5 116.5q0 69 -34 114t-87 45q-55 0 -87 -44t-32 -117q0 -67 35 -113.5
t86 -46.5zM440 682q-163 0 -265.5 111.5t-102.5 275.5q0 162 102.5 273.5t267.5 111.5q164 0 266.5 -112t102.5 -275q0 -162 -104 -273.5t-267 -111.5zM442 907q52 0 85.5 45.5t33.5 116.5q0 68 -34.5 114t-86.5 46q-53 0 -85.5 -45.5t-32.5 -116.5q0 -69 34.5 -114.5
t85.5 -45.5z" />
    <glyph glyph-name="ampersand" unicode="&#x26;" horiz-adv-x="1429" 
d="M1128 -29l-147 150q-192 -146 -426 -146q-225 0 -368.5 112t-143.5 306q0 271 291 402q-94 134 -94 278q0 163 123 276t327 113q192 0 309 -105t117 -267q0 -243 -280 -373l159 -156q66 96 135 227l263 -131q-96 -177 -189 -303l193 -190zM608 268q78 0 170 62l-235 239
q-103 -62 -103 -159q0 -63 47 -102.5t121 -39.5zM649 895q78 34 115 77.5t37 102.5q0 52 -30.5 83.5t-80.5 31.5q-51 0 -83 -35.5t-32 -95.5q0 -72 74 -164z" />
    <glyph glyph-name="quotesingle" unicode="'" horiz-adv-x="581" 
d="M70 698l45 736h426v-11l-260 -725h-211z" />
    <glyph glyph-name="parenleft" unicode="(" horiz-adv-x="911" 
d="M688 -289q-147 77 -255.5 164t-186.5 193.5t-117 236t-39 283.5t39 283.5t117 236t186 193t256 163.5l162 -241q-200 -138 -289.5 -286.5t-89.5 -348.5t89.5 -348.5t289.5 -286.5z" />
    <glyph glyph-name="parenright" unicode=")" horiz-adv-x="911" 
d="M223 -289l-162 242q200 138 289.5 286.5t89.5 348.5t-89.5 348.5t-289.5 286.5l162 241q148 -77 256 -163.5t186 -193t117 -236t39 -283.5t-39 -283.5t-117 -236t-186.5 -193.5t-255.5 -164z" />
    <glyph glyph-name="asterisk" unicode="*" horiz-adv-x="870" 
d="M328 694l51 271l-211 -181l-111 189l260 92l-260 92l111 191l211 -181l-51 271h215l-51 -271l210 181l111 -191l-260 -92l260 -92l-111 -189l-210 181l51 -271h-215z" />
    <glyph glyph-name="plus" unicode="+" horiz-adv-x="1310" 
d="M477 197v352h-346v344h346v352h357v-352h346v-344h-346v-352h-357z" />
    <glyph glyph-name="comma" unicode="," horiz-adv-x="581" 
d="M72 -338l-31 150q100 12 152.5 59t52.5 125v8h-158v399h406v-325q0 -217 -109 -313.5t-313 -102.5z" />
    <glyph glyph-name="hyphen" unicode="-" horiz-adv-x="835" 
d="M82 469v342h672v-342h-672z" />
    <glyph glyph-name="period" unicode="." horiz-adv-x="581" 
d="M88 0v399h406v-399h-406z" />
    <glyph glyph-name="slash" unicode="/" horiz-adv-x="1095" 
d="M-78 -262l907 1896h316l-907 -1896h-316z" />
    <glyph glyph-name="zero" unicode="0" horiz-adv-x="1495" 
d="M745 -29q-199 0 -351.5 101.5t-231 270t-78.5 374.5q0 152 47.5 287.5t132 237t211 161t275.5 59.5t274.5 -59t209.5 -160t130.5 -236.5t46.5 -289.5q0 -152 -47 -288t-131.5 -237.5t-211 -161t-276.5 -59.5zM750 324q119 0 190.5 109t71.5 284q0 171 -74.5 282
t-192.5 111t-190 -109t-72 -284q0 -173 74 -283t193 -110z" />
    <glyph glyph-name="one" unicode="1" horiz-adv-x="864" 
d="M334 0v1073l-242 -55l-76 307l420 119h289v-1444h-391z" />
    <glyph glyph-name="two" unicode="2" horiz-adv-x="1277" 
d="M68 0v299l536 410q101 76 142.5 134.5t41.5 123.5q0 67 -43.5 106t-115.5 39q-70 0 -134 -42t-151 -142l-268 223q123 160 253.5 233.5t329.5 73.5q235 0 382 -128t147 -333q0 -84 -20.5 -152.5t-66 -128t-101.5 -109t-144 -111.5l-246 -172h592v-324h-1134z" />
    <glyph glyph-name="three" unicode="3" horiz-adv-x="1271" 
d="M647 -29q-381 0 -610 254l250 250q161 -164 342 -164q85 0 134.5 40.5t49.5 109.5t-60.5 108t-172.5 39h-168l-58 207l330 297h-549v322h1036v-285l-342 -293q81 -18 145 -48.5t116.5 -78.5t81 -119t28.5 -161q0 -216 -155.5 -347t-397.5 -131z" />
    <glyph glyph-name="four" unicode="4" horiz-adv-x="1411" 
d="M786 0v279h-694l-65 280l743 885h401v-869h183v-296h-183v-279h-385zM444 573h342v412z" />
    <glyph glyph-name="five" unicode="5" horiz-adv-x="1290" 
d="M621 -29q-182 0 -322 58.5t-260 169.5l227 266q186 -156 348 -156q98 0 154.5 46t56.5 126q0 76 -58 121t-153 45q-110 0 -229 -72l-235 132l40 727h959v-328h-645l-12 -217q109 51 229 51q79 0 150.5 -17t134 -54t108 -90t72 -129.5t26.5 -168.5q0 -236 -163 -373
t-428 -137z" />
    <glyph glyph-name="six" unicode="6" horiz-adv-x="1355" 
d="M698 -29q-274 0 -438 164q-176 176 -176 541q0 169 41.5 311t122.5 249t209.5 166.5t292.5 59.5q146 0 258 -38.5t219 -118.5l-187 -281q-73 55 -138 82t-146 27q-121 0 -189 -82t-82 -224q69 52 141.5 81.5t168.5 29.5q95 0 180 -30t150.5 -86t104 -142.5t38.5 -192.5
q0 -156 -77.5 -275t-206 -180t-286.5 -61zM682 281q92 0 145.5 52.5t53.5 135.5q0 79 -55.5 131.5t-147.5 52.5t-145.5 -52.5t-53.5 -133.5q0 -80 55.5 -133t147.5 -53z" />
    <glyph glyph-name="seven" unicode="7" horiz-adv-x="1257" 
d="M127 0l631 1100h-664v334h1104v-299l-633 -1135h-438z" />
    <glyph glyph-name="eight" unicode="8" horiz-adv-x="1290" 
d="M645 -25q-260 0 -425 117.5t-165 306.5q0 239 246 344q-197 108 -197 316q0 173 151 286t390 113q240 0 390.5 -113.5t150.5 -289.5q0 -204 -197 -312q119 -56 182.5 -137t63.5 -209q0 -190 -165 -306t-425 -116zM645 272q96 0 151.5 47.5t55.5 118.5q0 69 -58 112.5
t-149 43.5t-149 -44t-58 -116q0 -68 55.5 -115t151.5 -47zM645 852q79 0 127.5 44.5t48.5 115.5q0 62 -48.5 106.5t-127.5 44.5q-80 0 -128 -44t-48 -109q0 -68 49 -113t127 -45z" />
    <glyph glyph-name="nine" unicode="9" horiz-adv-x="1355" 
d="M608 -29q-281 0 -499 170l186 275q144 -115 307 -115q120 0 188 78.5t82 220.5q-124 -117 -303 -117q-213 0 -347 123.5t-134 333.5q0 156 74.5 275.5t204 183t292.5 63.5q151 0 253 -41t188 -127q172 -169 172 -534q0 -236 -75.5 -412.5t-226.5 -276.5t-362 -100z
M678 768q92 0 146.5 53.5t54.5 136.5q0 85 -56.5 140t-148.5 55t-146.5 -54.5t-54.5 -142.5q0 -83 56 -135.5t149 -52.5z" />
    <glyph glyph-name="colon" unicode=":" horiz-adv-x="602" 
d="M98 0v399h406v-399h-406zM98 709v399h406v-399h-406z" />
    <glyph glyph-name="semicolon" unicode=";" horiz-adv-x="602" 
d="M82 -342l-31 149q100 12 152.5 59.5t52.5 125.5v8h-158v399h406v-325q0 -217 -109 -313.5t-313 -102.5zM98 709v399h406v-399h-406z" />
    <glyph glyph-name="less" unicode="&#x3c;" horiz-adv-x="1310" 
d="M1151 133l-1018 406v362l1018 406v-363l-670 -223l670 -223v-365z" />
    <glyph glyph-name="equal" unicode="=" horiz-adv-x="1310" 
d="M152 274v342h1005v-342h-1005zM152 825v342h1005v-342h-1005z" />
    <glyph glyph-name="greater" unicode="&#x3e;" horiz-adv-x="1310" 
d="M160 133v363l669 223l-669 223v365l1018 -406v-362z" />
    <glyph glyph-name="question" unicode="?" horiz-adv-x="1105" 
d="M307 0v348h404v-348h-404zM391 467l-51 342l16 18q173 15 247.5 55.5t74.5 110.5q0 53 -40.5 83t-113.5 30q-148 0 -299 -135l-205 270q215 215 531 215q229 0 370.5 -117t141.5 -317q0 -94 -29.5 -166.5t-85.5 -122t-125 -81.5t-159 -54l-25 -131h-248z" />
    <glyph glyph-name="at" unicode="@" horiz-adv-x="1976" 
d="M1006 -332q-156 0 -297.5 45t-253 127.5t-193.5 193t-126 246.5t-44 283q0 183 70 348.5t189.5 286.5t288.5 192.5t359 71.5q186 0 351.5 -65.5t281 -174.5t183 -254.5t67.5 -301.5q0 -134 -36.5 -241.5t-98 -173t-139 -100t-162.5 -34.5q-226 0 -316 155
q-131 -151 -301 -151q-162 0 -268 113t-106 298q0 144 61.5 267t166 194.5t224.5 71.5q179 0 275 -152l24 125l318 -49l-94 -528q-9 -46 -9 -90q0 -53 36 -87t97 -34q104 0 173 109.5t69 306.5q0 141 -59.5 271t-163 228t-253.5 156.5t-321 58.5q-175 0 -329 -64.5
t-261 -174t-169 -260t-62 -318.5q0 -170 61.5 -319.5t169.5 -258.5t263 -172t334 -63q147 0 264 33.5t237 103.5l41 -65q-253 -154 -542 -154zM932 397q82 0 139 69t57 167q0 71 -41.5 113t-107.5 42q-83 0 -140 -67t-57 -164q0 -75 42 -117.5t108 -42.5z" />
    <glyph glyph-name="A" unicode="A" horiz-adv-x="1628" 
d="M12 0l611 1444h383l610 -1444h-426l-105 256h-553l-102 -256h-418zM649 565h322l-160 408z" />
    <glyph glyph-name="B" unicode="B" horiz-adv-x="1464" 
d="M127 0v1434h735q262 0 391 -129q93 -93 93 -236q0 -223 -222 -319q139 -46 212 -129.5t73 -225.5q0 -185 -143.5 -290t-399.5 -105h-739zM514 319h307q91 0 141 35t50 101q0 60 -49 94.5t-146 34.5h-303v-265zM514 862h250q188 0 188 129q0 59 -46 91t-134 32h-258v-252z
" />
    <glyph glyph-name="C" unicode="C" horiz-adv-x="1495" 
d="M817 -29q-203 0 -372 95.5t-268 267t-99 383.5q0 155 57.5 292.5t157 237t240.5 157.5t301 58q383 0 602 -303l-291 -225q-133 166 -316 166q-149 0 -245.5 -110.5t-96.5 -272.5q0 -163 96.5 -273t245.5 -110q105 0 178.5 43.5t145.5 130.5l299 -213
q-73 -100 -154.5 -168t-205 -112t-275.5 -44z" />
    <glyph glyph-name="D" unicode="D" horiz-adv-x="1566" 
d="M127 0v1434h553q189 0 342 -52.5t255 -147t157 -225.5t55 -288q0 -155 -55.5 -287t-158.5 -228.5t-258 -151t-345 -54.5h-545zM524 352h162q181 0 288 96.5t107 270.5q0 170 -107.5 268t-287.5 98h-162v-733z" />
    <glyph glyph-name="E" unicode="E" horiz-adv-x="1366" 
d="M127 0v1434h1153v-338h-760v-217h688v-314h-688v-227h770v-338h-1163z" />
    <glyph glyph-name="F" unicode="F" horiz-adv-x="1327" 
d="M127 0v1434h1147v-349h-750v-243h678v-330h-678v-512h-397z" />
    <glyph glyph-name="G" unicode="G" horiz-adv-x="1574" 
d="M858 -29q-221 0 -399 94.5t-279.5 265.5t-101.5 386q0 155 58.5 292.5t160.5 237t245.5 157.5t307.5 58q182 0 322 -53t260 -156l-234 -280q-80 68 -162 101.5t-184 33.5q-155 0 -261 -115t-106 -282q0 -173 109.5 -285.5t279.5 -112.5q139 0 230 60v174h-283v291h660
v-645q-270 -222 -623 -222z" />
    <glyph glyph-name="H" unicode="H" horiz-adv-x="1558" 
d="M127 0v1434h397v-537h510v537h398v-1434h-398v545h-510v-545h-397z" />
    <glyph glyph-name="I" unicode="I" horiz-adv-x="669" 
d="M135 0v1434h400v-1434h-400z" />
    <glyph glyph-name="J" unicode="J" horiz-adv-x="1155" 
d="M512 -25q-327 0 -504 242l256 242q56 -67 108 -100t115 -33q77 0 120.5 51t43.5 149v908h396v-910q0 -261 -142 -403q-146 -146 -393 -146z" />
    <glyph glyph-name="K" unicode="K" horiz-adv-x="1495" 
d="M127 0v1434h397v-582l494 582h471l-543 -617l561 -817h-477l-360 532l-146 -161v-371h-397z" />
    <glyph glyph-name="L" unicode="L" horiz-adv-x="1261" 
d="M127 0v1434h397v-1086h695v-348h-1092z" />
    <glyph glyph-name="M" unicode="M" horiz-adv-x="1777" 
d="M127 0v1434h420l342 -555l342 555h420v-1434h-396v823l-366 -561h-8l-365 557v-819h-389z" />
    <glyph glyph-name="N" unicode="N" horiz-adv-x="1607" 
d="M127 0v1434h371l589 -758v758h394v-1434h-348l-613 786v-786h-393z" />
    <glyph glyph-name="O" unicode="O" horiz-adv-x="1701" 
d="M848 -29q-217 0 -394 99.5t-276.5 270t-99.5 376.5q0 152 59.5 289.5t161.5 237.5t246 159t307 59t306.5 -58.5t245 -158t160 -237t58.5 -291.5q0 -152 -59.5 -290t-161.5 -238t-246 -159t-307 -59zM852 330q161 0 263 112.5t102 274.5q0 159 -104 273t-265 114
q-159 0 -261 -112.5t-102 -274.5q0 -159 104 -273t263 -114z" />
    <glyph glyph-name="P" unicode="P" horiz-adv-x="1378" 
d="M127 0v1434h614q274 0 435 -134.5t161 -373.5q0 -165 -80.5 -283t-218 -175.5t-317.5 -57.5h-197v-410h-397zM524 721h189q106 0 166.5 51t60.5 139q0 91 -60.5 140t-168.5 49h-187v-379z" />
    <glyph glyph-name="Q" unicode="Q" horiz-adv-x="1701" 
d="M1442 -43l-158 141q-195 -127 -436 -127q-217 0 -394 99.5t-276.5 270t-99.5 376.5q0 152 59.5 289.5t161.5 237.5t246 159t307 59t306.5 -58.5t245 -158t160 -237t58.5 -291.5q0 -231 -127 -412l147 -125zM852 324q75 0 145 26l-198 170l200 225l195 -176q25 67 25 144
q0 161 -104.5 276t-266.5 115q-159 0 -261 -114.5t-102 -276.5q0 -160 103.5 -274.5t263.5 -114.5z" />
    <glyph glyph-name="R" unicode="R" horiz-adv-x="1472" 
d="M127 0v1434h678q313 0 467 -154q127 -127 127 -340q0 -159 -78 -270t-217 -170l342 -500h-459l-289 434h-174v-434h-397zM524 745h262q101 0 157 46.5t56 128.5q0 83 -56.5 126.5t-158.5 43.5h-260v-345z" />
    <glyph glyph-name="S" unicode="S" horiz-adv-x="1335" 
d="M690 -25q-194 0 -368 60.5t-304 177.5l222 264q215 -172 465 -172q79 0 121 26.5t42 76.5q0 46 -49.5 75t-191.5 62q-73 17 -126.5 31.5t-113.5 36.5t-102 46t-82 58t-64 73.5t-38.5 92.5t-14.5 116q0 203 150.5 331t404.5 128q353 0 590 -190l-199 -281
q-201 141 -401 141q-70 0 -107 -26.5t-37 -69.5q0 -50 49.5 -77.5t198.5 -61.5q132 -29 224 -63.5t165.5 -86.5t109.5 -126.5t36 -174.5q0 -217 -158 -342t-422 -125z" />
    <glyph glyph-name="T" unicode="T" horiz-adv-x="1351" 
d="M477 0v1085h-430v349h1258v-349h-431v-1085h-397z" />
    <glyph glyph-name="U" unicode="U" horiz-adv-x="1552" 
d="M772 -27q-315 0 -489 163.5t-174 492.5v805h403v-797q0 -151 70 -228t194 -77t194 74t70 221v807h404v-795q0 -171 -47 -299t-136 -208t-211.5 -119.5t-277.5 -39.5z" />
    <glyph glyph-name="V" unicode="V" horiz-adv-x="1556" 
d="M594 -10l-582 1444h445l325 -908l326 908h436l-581 -1444h-369z" />
    <glyph glyph-name="W" unicode="W" horiz-adv-x="2287" 
d="M510 -10l-479 1444h420l249 -830l277 834h342l276 -834l250 830h412l-479 -1444h-346l-289 825l-287 -825h-346z" />
    <glyph glyph-name="X" unicode="X" horiz-adv-x="1499" 
d="M23 0l491 729l-471 705h457l254 -404l256 404h446l-471 -701l492 -733h-457l-275 432l-276 -432h-446z" />
    <glyph glyph-name="Y" unicode="Y" horiz-adv-x="1480" 
d="M541 0v537l-545 897h453l294 -523l297 523h445l-545 -891v-543h-399z" />
    <glyph glyph-name="Z" unicode="Z" horiz-adv-x="1429" 
d="M82 0v289l719 809h-695v336h1244v-289l-719 -809h719v-336h-1268z" />
    <glyph glyph-name="bracketleft" unicode="[" horiz-adv-x="935" 
d="M135 -266v1700h709v-265h-361v-1171h361v-264h-709z" />
    <glyph glyph-name="backslash" unicode="\" horiz-adv-x="1095" 
d="M858 -262l-907 1896h315l908 -1896h-316z" />
    <glyph glyph-name="bracketright" unicode="]" horiz-adv-x="935" 
d="M92 -266v264h361v1171h-361v265h709v-1700h-709z" />
    <glyph glyph-name="asciicircum" unicode="^" 
d="M86 1010l295 422h262l295 -422h-272l-156 198l-156 -198h-268z" />
    <glyph glyph-name="underscore" unicode="_" horiz-adv-x="1228" 
d="M-4 -328v238h1237v-238h-1237z" />
    <glyph glyph-name="grave" unicode="`" 
d="M481 1202l-301 262l363 117l213 -379h-275z" />
    <glyph glyph-name="a" unicode="a" horiz-adv-x="1226" 
d="M422 -25q-164 0 -268.5 91.5t-104.5 255.5q0 168 117 258t317 90q149 0 267 -43v18q0 180 -222 180q-152 0 -305 -61l-80 274q211 86 449 86q287 0 422 -135q119 -116 119 -352v-637h-385v115q-127 -140 -326 -140zM561 219q86 0 139.5 50t53.5 132v52q-68 28 -152 28
t-131 -38t-47 -103q0 -56 38 -88.5t99 -32.5z" />
    <glyph glyph-name="b" unicode="b" horiz-adv-x="1384" 
d="M831 -25q-115 0 -194.5 43t-142.5 117v-135h-390v1495h390v-534q67 81 144 126.5t191 45.5q99 0 188 -40.5t157 -113.5t107.5 -183t39.5 -241t-39.5 -241.5t-107 -184t-156.5 -114t-187 -40.5zM711 301q97 0 162 71t65 185q0 108 -65.5 179t-161.5 71q-95 0 -160.5 -71.5
t-65.5 -182.5q0 -109 65.5 -180.5t160.5 -71.5z" />
    <glyph glyph-name="c" unicode="c" horiz-adv-x="1165" 
d="M639 -27q-163 0 -297 78.5t-208.5 211.5t-74.5 290q0 156 74.5 287.5t211.5 210.5t308 79q318 0 473 -247l-260 -189q-78 109 -200 109q-103 0 -165.5 -71.5t-62.5 -178.5q0 -108 62 -180t159 -72q65 0 112 28.5t97 88.5l265 -191q-170 -254 -494 -254z" />
    <glyph glyph-name="d" unicode="d" horiz-adv-x="1384" 
d="M553 -25q-98 0 -187 40.5t-156.5 113.5t-107 183t-39.5 241t39.5 241.5t106.5 184t155.5 114t186.5 40.5q115 0 195 -43t145 -117v522h389v-1495h-389v147q-67 -81 -145.5 -126.5t-192.5 -45.5zM672 301q95 0 160 72t65 184q0 108 -65 179t-160 71q-96 0 -162 -71
t-66 -183q0 -109 66.5 -180.5t161.5 -71.5z" />
    <glyph glyph-name="e" unicode="e" horiz-adv-x="1239" 
d="M653 -27q-173 0 -308 72t-210.5 204t-75.5 304q0 120 41.5 227t114.5 184.5t177.5 123t225.5 45.5q139 0 248 -48.5t176 -133t101.5 -192.5t34.5 -233q0 -53 -2 -80h-742q23 -89 85.5 -135.5t154.5 -46.5q130 0 246 113l215 -178q-177 -226 -482 -226zM428 645h385
q-11 93 -62 147t-130 54q-75 0 -126.5 -54.5t-66.5 -146.5z" />
    <glyph glyph-name="f" unicode="f" horiz-adv-x="827" 
d="M174 0v797h-129v305h129v24q0 193 94 287q96 96 289 96q152 0 254 -30v-275q-74 23 -145 23q-111 0 -111 -105v-26h254v-299h-248v-797h-387z" />
    <glyph glyph-name="g" unicode="g" horiz-adv-x="1384" 
d="M649 -332q-307 0 -555 127l125 258q188 -104 387 -104q145 0 218 69.5t73 202.5v43q-67 -77 -148.5 -121.5t-193.5 -44.5q-210 0 -351 141.5t-141 376.5q0 116 39 214.5t105 164t153 102t183 36.5q115 0 195.5 -40.5t152.5 -115.5v131h389v-842q0 -299 -143 -442
q-156 -156 -488 -156zM672 397q98 0 161.5 62t63.5 157q0 92 -63.5 152.5t-161.5 60.5q-100 0 -164 -62t-64 -157q0 -92 64 -152.5t164 -60.5z" />
    <glyph glyph-name="h" unicode="h" horiz-adv-x="1298" 
d="M104 0v1495h390v-539q139 177 331 177q176 0 276.5 -109t100.5 -299v-725h-389v600q0 89 -42.5 137.5t-113.5 48.5q-73 0 -118 -49t-45 -137v-600h-390z" />
    <glyph glyph-name="i" unicode="i" horiz-adv-x="614" 
d="M113 0v1108h389v-1108h-389zM104 1208v287h406v-287h-406z" />
    <glyph glyph-name="j" unicode="j" horiz-adv-x="618" 
d="M106 -334q-42 0 -159 15v258q16 -2 51 -2q59 0 87 29.5t28 99.5v1042h389v-1059q0 -204 -99.5 -293.5t-296.5 -89.5zM104 1208v287h406v-287h-406z" />
    <glyph glyph-name="k" unicode="k" horiz-adv-x="1234" 
d="M104 0v1495h390v-758l301 371h440l-385 -444l395 -664h-428l-223 377l-100 -117v-260h-390z" />
    <glyph glyph-name="l" unicode="l" horiz-adv-x="614" 
d="M113 0v1495h389v-1495h-389z" />
    <glyph glyph-name="m" unicode="m" horiz-adv-x="1988" 
d="M104 0v1108h390v-152q139 177 329 177q110 0 193 -47t127 -134q77 89 165.5 135t204.5 46q178 0 278.5 -106.5t100.5 -299.5v-727h-389v602q0 89 -40.5 136.5t-110.5 47.5q-71 0 -115.5 -48t-44.5 -136v-602h-389v602q0 89 -41 136.5t-111 47.5q-71 0 -114 -48t-43 -136
v-602h-390z" />
    <glyph glyph-name="n" unicode="n" horiz-adv-x="1298" 
d="M104 0v1108h390v-156q142 181 331 181q176 0 276.5 -109t100.5 -299v-725h-389v600q0 89 -42.5 137.5t-113.5 48.5q-73 0 -118 -49t-45 -137v-600h-390z" />
    <glyph glyph-name="o" unicode="o" horiz-adv-x="1343" 
d="M670 -27q-130 0 -244.5 46t-194.5 124t-126 185t-46 225q0 117 46.5 223.5t127 185t195.5 125t246 46.5q173 0 313.5 -78t218.5 -211t78 -291q0 -117 -46.5 -223.5t-126.5 -185t-195 -125t-246 -46.5zM674 303q103 0 167 72t64 178q0 103 -67 176.5t-168 73.5
q-103 0 -167.5 -72.5t-64.5 -177.5q0 -103 67.5 -176.5t168.5 -73.5z" />
    <glyph glyph-name="p" unicode="p" horiz-adv-x="1384" 
d="M104 -328v1436h390v-147q67 81 144 126.5t191 45.5q99 0 188 -40.5t157 -113.5t107.5 -183t39.5 -241t-39.5 -241.5t-107 -184t-156.5 -114t-187 -40.5q-115 0 -194.5 43t-142.5 117v-463h-390zM711 301q97 0 162 71t65 185q0 108 -65.5 179t-161.5 71
q-95 0 -160.5 -71.5t-65.5 -182.5q0 -109 65.5 -180.5t160.5 -71.5z" />
    <glyph glyph-name="q" unicode="q" horiz-adv-x="1384" 
d="M891 -328v475q-67 -81 -145.5 -126.5t-192.5 -45.5q-98 0 -187 40.5t-156.5 113.5t-107 183t-39.5 241t39.5 241.5t106.5 184t155.5 114t186.5 40.5q115 0 195 -43t145 -117v135h389v-1436h-389zM672 301q95 0 160 72t65 184q0 108 -65 179t-160 71q-96 0 -162 -71
t-66 -183q0 -109 66.5 -180.5t161.5 -71.5z" />
    <glyph glyph-name="r" unicode="r" horiz-adv-x="876" 
d="M104 0v1108h390v-223q104 252 350 241v-409h-33q-317 0 -317 -373v-344h-390z" />
    <glyph glyph-name="s" unicode="s" horiz-adv-x="1052" 
d="M545 -25q-297 0 -525 164l146 236q192 -127 381 -127q98 0 98 63q0 30 -40 49.5t-138 45.5q-74 20 -126 38t-106 48t-86.5 65t-53.5 88t-21 119q0 173 123 269.5t321 96.5q122 0 242 -34t215 -95l-133 -245q-86 47 -174 74.5t-154 27.5q-44 0 -67 -15t-23 -42
q0 -30 39.5 -49.5t140.5 -49.5q74 -21 126 -40t106 -49t86.5 -65t53.5 -86.5t21 -115.5q0 -179 -122 -275t-330 -96z" />
    <glyph glyph-name="t" unicode="t" horiz-adv-x="882" 
d="M545 -23q-182 0 -277.5 87.5t-95.5 279.5v451h-131v313h131v281h389v-281h258v-313h-258v-375q0 -58 26 -84.5t81 -26.5q71 0 147 37v-305q-115 -64 -270 -64z" />
    <glyph glyph-name="u" unicode="u" horiz-adv-x="1298" 
d="M473 -25q-176 0 -276.5 109t-100.5 299v725h389v-600q0 -89 43 -137.5t115 -48.5q71 0 116.5 49t45.5 137v600h389v-1108h-389v152q-139 -177 -332 -177z" />
    <glyph glyph-name="v" unicode="v" horiz-adv-x="1280" 
d="M463 -8l-443 1116h410l213 -647l213 647h404l-443 -1116h-354z" />
    <glyph glyph-name="w" unicode="w" horiz-adv-x="1763" 
d="M362 -8l-337 1116h381l145 -557l170 561h321l172 -565l150 561h375l-342 -1116h-336l-180 575l-185 -575h-334z" />
    <glyph glyph-name="x" unicode="x" horiz-adv-x="1206" 
d="M16 0l373 559l-366 549h419l164 -272l164 272h412l-365 -547l373 -561h-418l-172 285l-174 -285h-410z" />
    <glyph glyph-name="y" unicode="y" horiz-adv-x="1282" 
d="M432 -334q-184 0 -356 96l121 273q99 -60 170 -60q58 0 90 45l-434 1088h407l221 -668l209 668h400l-406 -1081q-73 -197 -166 -279t-256 -82z" />
    <glyph glyph-name="z" unicode="z" horiz-adv-x="1153" 
d="M66 0v256l512 543h-494v309h1010v-256l-514 -543h514v-309h-1028z" />
    <glyph glyph-name="braceleft" unicode="{" horiz-adv-x="1003" 
d="M879 -289q-203 24 -322.5 75t-169 127.5t-49.5 192.5q0 15 3 74.5t3 77.5q0 113 -58 157t-184 44h-32v258h32q126 0 184 44t58 157q0 18 -3 77t-3 74q0 116 49.5 192.5t169 127.5t322.5 75l59 -227q-109 -24 -164 -54.5t-72.5 -69.5t-17.5 -107q0 -16 3 -69t3 -75
q0 -110 -57 -176.5t-172 -97.5q115 -31 172 -98t57 -177q0 -23 -3 -75t-3 -68q0 -68 17.5 -107t72.5 -69.5t164 -54.5z" />
    <glyph glyph-name="bar" unicode="|" horiz-adv-x="727" 
d="M215 -262v1896h297v-1896h-297z" />
    <glyph glyph-name="braceright" unicode="}" horiz-adv-x="1003" 
d="M125 -289l-59 228q82 18 132 38t77 49t35.5 61t8.5 83q0 16 -3 68t-3 75q0 110 57.5 177t172.5 98q-115 31 -172.5 97.5t-57.5 176.5q0 22 3 75t3 69q0 51 -8.5 83t-35.5 61t-77 49t-132 38l59 227q203 -24 322.5 -75t169 -127.5t49.5 -192.5q0 -15 -3.5 -74t-3.5 -77
q0 -113 58 -157t184 -44h33v-258h-33q-126 0 -184 -44t-58 -157q0 -18 3.5 -77.5t3.5 -74.5q0 -116 -49.5 -192.5t-169 -127.5t-322.5 -75z" />
    <glyph glyph-name="asciitilde" unicode="~" horiz-adv-x="1034" 
d="M272 451l-188 51q35 157 94 231t160 74q69 0 181 -40t138 -40q40 0 61.5 21t43.5 73l188 -51q-35 -157 -94 -231t-160 -74q-68 0 -181 40t-140 40q-40 0 -60.5 -21t-42.5 -73z" />
    <glyph glyph-name="uni00A0" unicode="&#xa0;" horiz-adv-x="567" 
 />
    <glyph glyph-name="exclamdown" unicode="&#xa1;" horiz-adv-x="663" 
d="M111 0v174l118 793h205l119 -793v-174h-442zM129 1085v349h406v-349h-406z" />
    <glyph glyph-name="cent" unicode="&#xa2;" horiz-adv-x="1177" 
d="M414 -12l35 200q-172 59 -277.5 205.5t-105.5 333.5q0 159 72 288.5t205 206.5t304 81l25 143h235l-30 -178q165 -61 258 -199l-238 -182q-46 56 -96 82l-94 -516q108 14 194 116l236 -172q-161 -235 -459 -243l-29 -166h-235zM518 487l92 519q-92 -13 -149.5 -93
t-57.5 -186q0 -82 30 -144t85 -96z" />
    <glyph glyph-name="sterling" unicode="&#xa3;" horiz-adv-x="1308" 
d="M90 0v236l154 59v244h-154v278h154v105q0 254 141 395t391 141q293 0 477 -207l-241 -264q-96 117 -209 117q-76 0 -120 -48.5t-44 -133.5v-105h442v-278h-442v-226h600v-313h-1149z" />
    <glyph glyph-name="currency" unicode="&#xa4;" horiz-adv-x="1396" 
d="M862 -29q-243 0 -404.5 132t-215.5 354h-166v213h139q-2 14 -2 47q0 37 2 55h-139v213h172q27 102 81 188t130.5 151t180.5 101.5t224 36.5q311 0 492 -231l-252 -236q-99 127 -238 127q-76 0 -133 -37.5t-90 -105.5h320v-207h-365q-2 -16 -2 -55q0 -31 2 -47h365v-207
h-324q73 -152 235 -152q74 0 130.5 34t111.5 101l246 -231q-188 -244 -500 -244z" />
    <glyph glyph-name="yen" unicode="&#xa5;" horiz-adv-x="1449" 
d="M528 0v190h-376v246h376v103h-376v245h282l-426 650h451l270 -471l270 471h443l-428 -650h284v-245h-376v-103h376v-246h-376v-190h-394z" />
    <glyph glyph-name="brokenbar" unicode="&#xa6;" horiz-adv-x="454" 
d="M68 -182v512h321v-512h-321zM68 842v512h321v-512h-321z" />
    <glyph glyph-name="section" unicode="&#xa7;" horiz-adv-x="1282" 
d="M633 -27q-147 0 -275.5 45t-210.5 117l158 223q78 -56 166 -88t170 -32q111 0 111 65q0 28 -45.5 49t-153.5 45q-86 18 -148 35t-126 43t-103.5 56t-64.5 72.5t-25 94.5q0 159 186 226q-96 74 -96 206q0 144 123 237t350 93q147 0 275.5 -45t210.5 -117l-158 -223
q-167 121 -336 121q-111 0 -111 -66q0 -28 44 -48.5t155 -45.5q87 -19 148 -35.5t125.5 -42.5t104 -55.5t64.5 -72.5t25 -95q0 -158 -186 -225q96 -73 96 -205q0 -144 -122.5 -238t-350.5 -94zM793 608q47 0 75.5 19.5t28.5 56.5q0 32 -50.5 55.5t-156.5 48.5
q-142 37 -203 37q-48 0 -76 -19t-28 -56q0 -32 51 -55.5t156 -49.5q145 -37 203 -37z" />
    <glyph glyph-name="dieresis" unicode="&#xa8;" 
d="M119 1202v293h338v-293h-338zM567 1202v293h338v-293h-338z" />
    <glyph glyph-name="copyright" unicode="&#xa9;" horiz-adv-x="1699" 
d="M848 -29q-153 0 -290.5 59.5t-235.5 160t-155.5 238t-57.5 288.5q0 149 58 286t157 238t237 161t291 60t290.5 -59.5t235.5 -159.5t155.5 -237.5t57.5 -288.5q0 -149 -58 -286.5t-157 -238t-237 -161t-291 -60.5zM848 53q138 0 260.5 53t209 143t137 213t50.5 259
q0 179 -84.5 330t-235 240t-333.5 89q-138 0 -260.5 -53t-209 -142.5t-137 -212.5t-50.5 -259q0 -134 50 -255.5t136 -210.5t208 -141.5t259 -52.5zM860 319q-179 0 -295 116.5t-116 291.5q0 111 52 204t148 148.5t217 55.5q115 0 194.5 -42t137.5 -120l-166 -131
q-75 92 -172 92q-81 0 -132.5 -60t-51.5 -149q0 -87 51.5 -146t132.5 -59q57 0 96.5 23.5t79.5 70.5l168 -118q-63 -85 -144 -131t-200 -46z" />
    <glyph glyph-name="ordfeminine" unicode="&#xaa;" horiz-adv-x="798" 
d="M84 553v158h612v-158h-612zM295 813q-91 0 -148 50t-57 141q0 93 64.5 141.5t175.5 48.5q78 0 145 -23v9q0 100 -123 100q-72 0 -168 -35l-43 152q113 47 246 47q158 0 234 -76q65 -62 65 -194v-349h-213v66q-68 -78 -178 -78zM371 948q46 0 76 28t30 73v26
q-49 17 -84 17q-44 0 -70 -21.5t-26 -56.5q0 -30 20.5 -48t53.5 -18z" />
    <glyph glyph-name="guillemotleft" unicode="&#xab;" horiz-adv-x="1292" 
d="M389 61l-328 439v98l328 438l281 -137l-267 -350l267 -348zM952 61l-360 480v16l360 479l279 -137l-266 -350l266 -348z" />
    <glyph glyph-name="logicalnot" unicode="&#xac;" horiz-adv-x="1310" 
d="M801 473v352h-649v342h1005v-694h-356z" />
    <glyph glyph-name="uni00AD" unicode="&#xad;" horiz-adv-x="835" 
d="M82 469v342h672v-342h-672z" />
    <glyph glyph-name="registered" unicode="&#xae;" horiz-adv-x="1699" 
d="M848 -29q-153 0 -290.5 59.5t-235.5 160t-155.5 238t-57.5 288.5q0 149 58 286t157 238t237 161t291 60t290.5 -59.5t235.5 -159.5t155.5 -237.5t57.5 -288.5q0 -149 -58 -286.5t-157 -238t-237 -161t-291 -60.5zM848 53q138 0 260.5 53t209 143t137 213t50.5 259
q0 179 -84.5 330t-235 240t-333.5 89q-138 0 -260.5 -53t-209 -142.5t-137 -212.5t-50.5 -259q0 -134 50 -255.5t136 -210.5t208 -141.5t259 -52.5zM524 344v789h367q177 0 266 -89q68 -68 68 -184q0 -174 -162 -242l188 -274h-252l-163 240h-93v-240h-219zM743 754h144
q57 0 88 25t31 71t-32 70t-89 24h-142v-190z" />
    <glyph glyph-name="macron" unicode="&#xaf;" 
d="M127 1212v238h770v-238h-770z" />
    <glyph glyph-name="degree" unicode="&#xb0;" horiz-adv-x="966" 
d="M483 721q-152 0 -262 106.5t-110 257.5q0 149 111 257t261 108q149 0 261 -109t112 -260q0 -148 -110.5 -254t-262.5 -106zM483 909q73 0 122.5 51t49.5 125q0 72 -50.5 123.5t-121.5 51.5q-72 0 -122 -52t-50 -127q0 -71 49.5 -121.5t122.5 -50.5z" />
    <glyph glyph-name="plusminus" unicode="&#xb1;" horiz-adv-x="1310" 
d="M156 -33v322h1005v-322h-1005zM477 422v270h-346v344h346v271h357v-271h346v-344h-346v-270h-357z" />
    <glyph glyph-name="twosuperior" unicode="&#xb2;" 
d="M0 0v1434h1024v-1434h-1024zM166 100h694l-348 523zM100 197l351 520l-351 520v-1040zM922 197v1040l-351 -520zM512 809l348 522h-694z" />
    <glyph glyph-name="threesuperior" unicode="&#xb3;" 
d="M0 0v1434h1024v-1434h-1024zM166 100h694l-348 523zM100 197l351 520l-351 520v-1040zM922 197v1040l-351 -520zM512 809l348 522h-694z" />
    <glyph glyph-name="acute" unicode="&#xb4;" 
d="M268 1202l213 379l363 -117l-301 -262h-275z" />
    <glyph glyph-name="mu" unicode="&#xb5;" horiz-adv-x="1306" 
d="M104 -328v1436h390v-600q0 -89 42.5 -137.5t114.5 -48.5q71 0 116.5 49t45.5 137v600h389v-1108h-389v152q-119 -156 -272 -156q-15 0 -47 4v-328h-390z" />
    <glyph glyph-name="paragraph" unicode="&#xb6;" horiz-adv-x="1220" 
d="M694 0v451h-43q-178 0 -313.5 55t-214 166.5t-78.5 267.5q0 234 162 364t438 130h449v-1434h-400z" />
    <glyph glyph-name="periodcentered" unicode="&#xb7;" horiz-adv-x="581" 
d="M88 440v400h406v-400h-406z" />
    <glyph glyph-name="cedilla" unicode="&#xb8;" 
d="M532 -354l-309 131l189 254h256z" />
    <glyph glyph-name="onesuperior" unicode="&#xb9;" 
d="M0 0v1434h1024v-1434h-1024zM166 100h694l-348 523zM100 197l351 520l-351 520v-1040zM922 197v1040l-351 -520zM512 809l348 522h-694z" />
    <glyph glyph-name="ordmasculine" unicode="&#xba;" horiz-adv-x="798" 
d="M104 553v158h590v-158h-590zM397 809q-142 0 -235.5 91.5t-93.5 225.5q0 133 95 225.5t238 92.5q142 0 236 -92t94 -226q0 -133 -95.5 -225t-238.5 -92zM401 991q55 0 88 38t33 97q0 58 -35 98t-90 40t-88 -39t-33 -99q0 -58 35 -96.5t90 -38.5z" />
    <glyph glyph-name="guillemotright" unicode="&#xbb;" horiz-adv-x="1292" 
d="M342 61l-281 138l267 350l-267 348l281 139l358 -479v-16zM903 61l-278 138l266 350l-266 348l278 139l328 -438v-98z" />
    <glyph glyph-name="onequarter" unicode="&#xbc;" 
d="M0 0v1434h1024v-1434h-1024zM166 100h694l-348 523zM100 197l351 520l-351 520v-1040zM922 197v1040l-351 -520zM512 809l348 522h-694z" />
    <glyph glyph-name="onehalf" unicode="&#xbd;" 
d="M0 0v1434h1024v-1434h-1024zM166 100h694l-348 523zM100 197l351 520l-351 520v-1040zM922 197v1040l-351 -520zM512 809l348 522h-694z" />
    <glyph glyph-name="threequarters" unicode="&#xbe;" 
d="M0 0v1434h1024v-1434h-1024zM166 100h694l-348 523zM100 197l351 520l-351 520v-1040zM922 197v1040l-351 -520zM512 809l348 522h-694z" />
    <glyph glyph-name="questiondown" unicode="&#xbf;" horiz-adv-x="1105" 
d="M555 -23q-227 0 -368.5 117.5t-141.5 317.5q0 94 29.5 166.5t85 122t124.5 81.5t160 54l23 131h248l53 -342l-18 -19q-173 -15 -247.5 -55.5t-74.5 -110.5q0 -53 41.5 -82.5t114.5 -29.5q146 0 297 135l206 -270q-216 -216 -532 -216zM395 1085v349h406v-349h-406z" />
    <glyph glyph-name="Agrave" unicode="&#xc0;" horiz-adv-x="1628" 
d="M12 0l611 1444h383l610 -1444h-426l-105 256h-553l-102 -256h-418zM649 565h322l-160 408zM702 1530l-301 262l363 117l213 -379h-275z" />
    <glyph glyph-name="Aacute" unicode="&#xc1;" horiz-adv-x="1628" 
d="M12 0l611 1444h383l610 -1444h-426l-105 256h-553l-102 -256h-418zM649 565h322l-160 408zM653 1530l213 379l363 -117l-301 -262h-275z" />
    <glyph glyph-name="Acircumflex" unicode="&#xc2;" horiz-adv-x="1628" 
d="M12 0l611 1444h383l610 -1444h-426l-105 256h-553l-102 -256h-418zM649 565h322l-160 408zM395 1530l262 338h316l262 -338h-250l-172 125l-172 -125h-246z" />
    <glyph glyph-name="Atilde" unicode="&#xc3;" horiz-adv-x="1628" 
d="M12 0l611 1444h383l610 -1444h-426l-105 256h-553l-102 -256h-418zM649 565h322l-160 408zM569 1516l-186 51q33 157 92 231t162 74q69 0 181 -40t138 -40q40 0 61.5 21t43.5 73l186 -51q-33 -157 -92 -231t-162 -74q-69 0 -181 40t-138 40q-40 0 -61.5 -21t-43.5 -73z
" />
    <glyph glyph-name="Adieresis" unicode="&#xc4;" horiz-adv-x="1628" 
d="M12 0l611 1444h383l610 -1444h-426l-105 256h-553l-102 -256h-418zM649 565h322l-160 408zM422 1530v293h338v-293h-338zM870 1530v293h338v-293h-338z" />
    <glyph glyph-name="Aring" unicode="&#xc5;" horiz-adv-x="1628" 
d="M12 0l594 1407q-63 69 -63 162q0 105 81.5 181.5t190.5 76.5q108 0 189 -77t81 -185q0 -89 -63 -158l594 -1407h-426l-105 256h-553l-102 -256h-418zM815 1430q56 0 95.5 40.5t39.5 98.5q0 54 -40 93.5t-95 39.5q-57 0 -97 -40t-40 -97q0 -56 40 -95.5t97 -39.5zM649 565
h322l-160 408z" />
    <glyph glyph-name="AE" unicode="&#xc6;" horiz-adv-x="2177" 
d="M-10 0l758 1434h1341v-338h-715v-217h643v-314h-643v-227h725v-338h-1112v256h-463l-133 -256h-401zM684 565h303v543h-24z" />
    <glyph glyph-name="Ccedilla" unicode="&#xc7;" horiz-adv-x="1495" 
d="M780 -354l-309 131l160 217q-244 61 -398.5 257.5t-154.5 465.5q0 155 57.5 292.5t157 237t240.5 157.5t301 58q392 0 608 -299l-299 -231q-66 82 -141 125t-173 43q-149 0 -245.5 -110.5t-96.5 -272.5q0 -163 96.5 -273t245.5 -110q105 0 178.5 43.5t145.5 130.5
l299 -213q-101 -139 -233.5 -221.5t-323.5 -98.5z" />
    <glyph glyph-name="Egrave" unicode="&#xc8;" horiz-adv-x="1366" 
d="M127 0v1434h1153v-338h-760v-217h688v-314h-688v-227h770v-338h-1163zM641 1530l-301 262l362 117l213 -379h-274z" />
    <glyph glyph-name="Eacute" unicode="&#xc9;" horiz-adv-x="1366" 
d="M127 0v1434h1153v-338h-760v-217h688v-314h-688v-227h770v-338h-1163zM516 1530l213 379l363 -117l-301 -262h-275z" />
    <glyph glyph-name="Ecircumflex" unicode="&#xca;" horiz-adv-x="1366" 
d="M127 0v1434h1153v-338h-760v-217h688v-314h-688v-227h770v-338h-1163zM287 1530l262 338h315l262 -338h-249l-172 125l-173 -125h-245z" />
    <glyph glyph-name="Edieresis" unicode="&#xcb;" horiz-adv-x="1366" 
d="M127 0v1434h1153v-338h-760v-217h688v-314h-688v-227h770v-338h-1163zM313 1530v293h338v-293h-338zM762 1530v293h338v-293h-338z" />
    <glyph glyph-name="Igrave" unicode="&#xcc;" horiz-adv-x="669" 
d="M135 0v1434h400v-1434h-400zM217 1530l-301 262l363 117l213 -379h-275z" />
    <glyph glyph-name="Iacute" unicode="&#xcd;" horiz-adv-x="669" 
d="M135 0v1434h400v-1434h-400zM178 1530l213 379l363 -117l-301 -262h-275z" />
    <glyph glyph-name="Icircumflex" unicode="&#xce;" horiz-adv-x="669" 
d="M135 0v1434h400v-1434h-400zM-86 1530l262 338h316l262 -338h-250l-172 125l-172 -125h-246z" />
    <glyph glyph-name="Idieresis" unicode="&#xcf;" horiz-adv-x="669" 
d="M135 0v1434h400v-1434h-400zM-59 1530v293h338v-293h-338zM389 1530v293h338v-293h-338z" />
    <glyph glyph-name="Eth" unicode="&#xd0;" horiz-adv-x="1669" 
d="M227 0v565h-164v314h164v555h553q189 0 342 -52.5t255 -147t157 -225.5t55 -288q0 -155 -55.5 -287t-158.5 -228.5t-258 -151t-345 -54.5h-545zM612 342h174q184 0 290 99t106 278q0 174 -106 273.5t-290 99.5h-174v-213h244v-314h-244v-223z" />
    <glyph glyph-name="Ntilde" unicode="&#xd1;" horiz-adv-x="1607" 
d="M127 0v1434h371l589 -758v758h394v-1434h-348l-613 786v-786h-393zM559 1516l-186 51q33 157 92 231t162 74q69 0 181 -40t138 -40q40 0 61.5 21t43.5 73l186 -51q-33 -157 -92 -231t-162 -74q-69 0 -181 40t-138 40q-40 0 -61.5 -21t-43.5 -73z" />
    <glyph glyph-name="Ograve" unicode="&#xd2;" horiz-adv-x="1701" 
d="M848 -29q-217 0 -394 99.5t-276.5 270t-99.5 376.5q0 152 59.5 289.5t161.5 237.5t246 159t307 59t306.5 -58.5t245 -158t160 -237t58.5 -291.5q0 -152 -59.5 -290t-161.5 -238t-246 -159t-307 -59zM852 330q161 0 263 112.5t102 274.5q0 159 -104 273t-265 114
q-159 0 -261 -112.5t-102 -274.5q0 -159 104 -273t263 -114zM719 1530l-301 262l362 117l213 -379h-274z" />
    <glyph glyph-name="Oacute" unicode="&#xd3;" horiz-adv-x="1701" 
d="M848 -29q-217 0 -394 99.5t-276.5 270t-99.5 376.5q0 152 59.5 289.5t161.5 237.5t246 159t307 59t306.5 -58.5t245 -158t160 -237t58.5 -291.5q0 -152 -59.5 -290t-161.5 -238t-246 -159t-307 -59zM852 330q161 0 263 112.5t102 274.5q0 159 -104 273t-265 114
q-159 0 -261 -112.5t-102 -274.5q0 -159 104 -273t263 -114zM711 1530l213 379l362 -117l-301 -262h-274z" />
    <glyph glyph-name="Ocircumflex" unicode="&#xd4;" horiz-adv-x="1701" 
d="M848 -29q-217 0 -394 99.5t-276.5 270t-99.5 376.5q0 152 59.5 289.5t161.5 237.5t246 159t307 59t306.5 -58.5t245 -158t160 -237t58.5 -291.5q0 -152 -59.5 -290t-161.5 -238t-246 -159t-307 -59zM852 330q161 0 263 112.5t102 274.5q0 159 -104 273t-265 114
q-159 0 -261 -112.5t-102 -274.5q0 -159 104 -273t263 -114zM432 1526l262 338h316l262 -338h-250l-172 125l-172 -125h-246z" />
    <glyph glyph-name="Otilde" unicode="&#xd5;" horiz-adv-x="1701" 
d="M848 -29q-217 0 -394 99.5t-276.5 270t-99.5 376.5q0 152 59.5 289.5t161.5 237.5t246 159t307 59t306.5 -58.5t245 -158t160 -237t58.5 -291.5q0 -152 -59.5 -290t-161.5 -238t-246 -159t-307 -59zM852 330q161 0 263 112.5t102 274.5q0 159 -104 273t-265 114
q-159 0 -261 -112.5t-102 -274.5q0 -159 104 -273t263 -114zM606 1516l-186 51q33 157 92 231t162 74q69 0 181 -40t138 -40q40 0 61.5 21t43.5 73l186 -51q-33 -157 -92 -231t-162 -74q-69 0 -181 40t-138 40q-40 0 -61.5 -21t-43.5 -73z" />
    <glyph glyph-name="Odieresis" unicode="&#xd6;" horiz-adv-x="1701" 
d="M848 -29q-217 0 -394 99.5t-276.5 270t-99.5 376.5q0 152 59.5 289.5t161.5 237.5t246 159t307 59t306.5 -58.5t245 -158t160 -237t58.5 -291.5q0 -152 -59.5 -290t-161.5 -238t-246 -159t-307 -59zM852 330q161 0 263 112.5t102 274.5q0 159 -104 273t-265 114
q-159 0 -261 -112.5t-102 -274.5q0 -159 104 -273t263 -114zM459 1530v293h338v-293h-338zM907 1530v293h338v-293h-338z" />
    <glyph glyph-name="multiply" unicode="&#xd7;" horiz-adv-x="1310" 
d="M330 12l-221 224l323 323l-323 324l221 223l323 -326l326 326l221 -223l-323 -324l323 -323l-221 -224l-326 324z" />
    <glyph glyph-name="Oslash" unicode="&#xd8;" horiz-adv-x="1701" 
d="M848 -29q-224 0 -406 109l-80 -90h-301l205 229q-188 207 -188 498q0 152 59.5 289.5t161.5 237.5t246 159t307 59q228 0 405 -108l80 90h301l-202 -232q186 -205 186 -495q0 -152 -59.5 -290t-161.5 -238t-246 -159t-307 -59zM852 322q164 0 267.5 115t103.5 280
q0 110 -49 198l-488 -555q74 -38 166 -38zM528 518l486 555q-73 39 -166 39q-162 0 -265.5 -115t-103.5 -280q0 -111 49 -199z" />
    <glyph glyph-name="Ugrave" unicode="&#xd9;" horiz-adv-x="1552" 
d="M772 -27q-315 0 -489 163.5t-174 492.5v805h403v-797q0 -151 70 -228t194 -77t194 74t70 221v807h404v-795q0 -171 -47 -299t-136 -208t-211.5 -119.5t-277.5 -39.5zM662 1520l-302 262l363 116l213 -378h-274z" />
    <glyph glyph-name="Uacute" unicode="&#xda;" horiz-adv-x="1552" 
d="M772 -27q-315 0 -489 163.5t-174 492.5v805h403v-797q0 -151 70 -228t194 -77t194 74t70 221v807h404v-795q0 -171 -47 -299t-136 -208t-211.5 -119.5t-277.5 -39.5zM616 1520l213 378l363 -116l-301 -262h-275z" />
    <glyph glyph-name="Ucircumflex" unicode="&#xdb;" horiz-adv-x="1552" 
d="M772 -27q-315 0 -489 163.5t-174 492.5v805h403v-797q0 -151 70 -228t194 -77t194 74t70 221v807h404v-795q0 -171 -47 -299t-136 -208t-211.5 -119.5t-277.5 -39.5zM356 1530l262 338h316l262 -338h-250l-172 125l-172 -125h-246z" />
    <glyph glyph-name="Udieresis" unicode="&#xdc;" horiz-adv-x="1552" 
d="M772 -27q-315 0 -489 163.5t-174 492.5v805h403v-797q0 -151 70 -228t194 -77t194 74t70 221v807h404v-795q0 -171 -47 -299t-136 -208t-211.5 -119.5t-277.5 -39.5zM383 1530v293h338v-293h-338zM831 1530v293h338v-293h-338z" />
    <glyph glyph-name="Yacute" unicode="&#xdd;" horiz-adv-x="1480" 
d="M541 0v537l-545 897h453l294 -523l297 523h445l-545 -891v-543h-399zM575 1526l213 379l363 -117l-301 -262h-275z" />
    <glyph glyph-name="Thorn" unicode="&#xde;" horiz-adv-x="1396" 
d="M127 0v1434h397v-205h217q275 0 435.5 -132t160.5 -370q0 -166 -80.5 -283t-217.5 -173t-318 -56h-197v-215h-397zM524 532h189q105 0 166 51.5t61 139.5q0 91 -60 138.5t-169 47.5h-187v-377z" />
    <glyph glyph-name="germandbls" unicode="&#xdf;" horiz-adv-x="1300" 
d="M692 -8q-40 0 -63 2v278q110 6 170.5 50t60.5 120q0 71 -62.5 114t-168.5 52v207q168 84 168 223q0 68 -40 109t-102 41q-74 0 -118.5 -52t-44.5 -147v-989h-388v981q0 244 145.5 388t412.5 144q234 0 373 -123t139 -309q0 -119 -58.5 -203.5t-154.5 -132.5
q55 -18 102.5 -46t90 -70t67 -102.5t24.5 -133.5q0 -187 -152 -294t-401 -107z" />
    <glyph glyph-name="agrave" unicode="&#xe0;" horiz-adv-x="1226" 
d="M422 -25q-164 0 -268.5 91.5t-104.5 255.5q0 168 117 258t317 90q149 0 267 -43v18q0 180 -222 180q-152 0 -305 -61l-80 274q211 86 449 86q287 0 422 -135q119 -116 119 -352v-637h-385v115q-127 -140 -326 -140zM561 219q86 0 139.5 50t53.5 132v52q-68 28 -152 28
t-131 -38t-47 -103q0 -56 38 -88.5t99 -32.5zM516 1206l-301 262l363 117l213 -379h-275z" />
    <glyph glyph-name="aacute" unicode="&#xe1;" horiz-adv-x="1226" 
d="M422 -25q-164 0 -268.5 91.5t-104.5 255.5q0 168 117 258t317 90q149 0 267 -43v18q0 180 -222 180q-152 0 -305 -61l-80 274q211 86 449 86q287 0 422 -135q119 -116 119 -352v-637h-385v115q-127 -140 -326 -140zM561 219q86 0 139.5 50t53.5 132v52q-68 28 -152 28
t-131 -38t-47 -103q0 -56 38 -88.5t99 -32.5zM442 1206l213 379l363 -117l-301 -262h-275z" />
    <glyph glyph-name="acircumflex" unicode="&#xe2;" horiz-adv-x="1226" 
d="M422 -25q-164 0 -268.5 91.5t-104.5 255.5q0 168 117 258t317 90q149 0 267 -43v18q0 180 -222 180q-152 0 -305 -61l-80 274q211 86 449 86q287 0 422 -135q119 -116 119 -352v-637h-385v115q-127 -140 -326 -140zM561 219q86 0 139.5 50t53.5 132v52q-68 28 -152 28
t-131 -38t-47 -103q0 -56 38 -88.5t99 -32.5zM188 1202l263 338h315l262 -338h-250l-172 125l-172 -125h-246z" />
    <glyph glyph-name="atilde" unicode="&#xe3;" horiz-adv-x="1226" 
d="M422 -25q-164 0 -268.5 91.5t-104.5 255.5q0 168 117 258t317 90q149 0 267 -43v18q0 180 -222 180q-152 0 -305 -61l-80 274q211 86 449 86q287 0 422 -135q119 -116 119 -352v-637h-385v115q-127 -140 -326 -140zM561 219q86 0 139.5 50t53.5 132v52q-68 28 -152 28
t-131 -38t-47 -103q0 -56 38 -88.5t99 -32.5zM367 1188l-187 51q33 157 92 231t162 74q69 0 181.5 -40t138.5 -40q40 0 61 21.5t43 73.5l186 -52q-33 -157 -91.5 -231t-161.5 -74q-69 0 -181.5 40t-138.5 40q-40 0 -61 -21t-43 -73z" />
    <glyph glyph-name="adieresis" unicode="&#xe4;" horiz-adv-x="1226" 
d="M422 -25q-164 0 -268.5 91.5t-104.5 255.5q0 168 117 258t317 90q149 0 267 -43v18q0 180 -222 180q-152 0 -305 -61l-80 274q211 86 449 86q287 0 422 -135q119 -116 119 -352v-637h-385v115q-127 -140 -326 -140zM561 219q86 0 139.5 50t53.5 132v52q-68 28 -152 28
t-131 -38t-47 -103q0 -56 38 -88.5t99 -32.5zM215 1206v293h338v-293h-338zM664 1206v293h337v-293h-337z" />
    <glyph glyph-name="aring" unicode="&#xe5;" horiz-adv-x="1226" 
d="M422 -25q-164 0 -268.5 91.5t-104.5 255.5q0 168 117 258t317 90q149 0 267 -43v18q0 180 -222 180q-152 0 -305 -61l-80 274q211 86 449 86q287 0 422 -135q119 -116 119 -352v-637h-385v115q-127 -140 -326 -140zM561 219q86 0 139.5 50t53.5 132v52q-68 28 -152 28
t-131 -38t-47 -103q0 -56 38 -88.5t99 -32.5zM608 1210q-108 0 -190 79t-82 186q0 105 82 181.5t190 76.5q109 0 191 -77.5t82 -185.5q0 -104 -82.5 -182t-190.5 -78zM608 1335q57 0 97 41t40 99q0 54 -40 93.5t-97 39.5t-97 -40.5t-40 -97.5q0 -56 40 -95.5t97 -39.5z" />
    <glyph glyph-name="ae" unicode="&#xe6;" horiz-adv-x="1925" 
d="M461 -25q-179 0 -295.5 90.5t-116.5 256.5q0 168 117 258t317 90q149 0 267 -43v18q0 180 -222 180q-152 0 -305 -61l-80 274q211 86 449 86q250 0 375 -125q140 134 346 134q109 0 199.5 -32t155 -88t109 -132.5t66 -166t21.5 -188.5q0 -26 -4 -80h-742
q24 -89 86.5 -135.5t153.5 -46.5q70 0 127.5 27t118.5 86l215 -178q-177 -226 -480 -226q-132 0 -243.5 43.5t-190.5 122.5q-216 -164 -444 -164zM567 223q111 0 224 90q-31 74 -39 140q-68 28 -150 28q-84 0 -131 -38t-47 -103q0 -54 40 -85.5t103 -31.5zM1114 645h385
q-11 93 -63 147t-131 54q-76 0 -126.5 -54.5t-64.5 -146.5z" />
    <glyph glyph-name="ccedilla" unicode="&#xe7;" horiz-adv-x="1165" 
d="M598 -354l-309 131l166 225q-178 57 -287 208t-109 343q0 156 74.5 287.5t211.5 210.5t308 79q318 0 473 -247l-264 -197q-42 59 -90.5 88t-116.5 29q-93 0 -155 -72.5t-62 -177.5q0 -108 62 -180t159 -72q65 0 114.5 28.5t98.5 86.5l261 -189q-74 -109 -174.5 -173
t-243.5 -77z" />
    <glyph glyph-name="egrave" unicode="&#xe8;" horiz-adv-x="1239" 
d="M653 -27q-173 0 -308 72t-210.5 204t-75.5 304q0 120 41.5 227t114.5 184.5t177.5 123t225.5 45.5q139 0 248 -48.5t176 -133t101.5 -192.5t34.5 -233q0 -53 -2 -80h-742q23 -89 85.5 -135.5t154.5 -46.5q130 0 246 113l215 -178q-177 -226 -482 -226zM428 645h385
q-11 93 -62 147t-130 54q-75 0 -126.5 -54.5t-66.5 -146.5zM500 1206l-301 262l362 117l213 -379h-274z" />
    <glyph glyph-name="eacute" unicode="&#xe9;" horiz-adv-x="1239" 
d="M653 -27q-173 0 -308 72t-210.5 204t-75.5 304q0 120 41.5 227t114.5 184.5t177.5 123t225.5 45.5q139 0 248 -48.5t176 -133t101.5 -192.5t34.5 -233q0 -53 -2 -80h-742q23 -89 85.5 -135.5t154.5 -46.5q130 0 246 113l215 -178q-177 -226 -482 -226zM428 645h385
q-11 93 -62 147t-130 54q-75 0 -126.5 -54.5t-66.5 -146.5zM467 1206l213 379l362 -117l-301 -262h-274z" />
    <glyph glyph-name="ecircumflex" unicode="&#xea;" horiz-adv-x="1239" 
d="M653 -27q-173 0 -308 72t-210.5 204t-75.5 304q0 120 41.5 227t114.5 184.5t177.5 123t225.5 45.5q139 0 248 -48.5t176 -133t101.5 -192.5t34.5 -233q0 -53 -2 -80h-742q23 -89 85.5 -135.5t154.5 -46.5q130 0 246 113l215 -178q-177 -226 -482 -226zM428 645h385
q-11 93 -62 147t-130 54q-75 0 -126.5 -54.5t-66.5 -146.5zM201 1198l262 338h315l262 -338h-249l-173 125l-172 -125h-245z" />
    <glyph glyph-name="edieresis" unicode="&#xeb;" horiz-adv-x="1239" 
d="M653 -27q-173 0 -308 72t-210.5 204t-75.5 304q0 120 41.5 227t114.5 184.5t177.5 123t225.5 45.5q139 0 248 -48.5t176 -133t101.5 -192.5t34.5 -233q0 -53 -2 -80h-742q23 -89 85.5 -135.5t154.5 -46.5q130 0 246 113l215 -178q-177 -226 -482 -226zM428 645h385
q-11 93 -62 147t-130 54q-75 0 -126.5 -54.5t-66.5 -146.5zM227 1202v293h338v-293h-338zM676 1202v293h338v-293h-338z" />
    <glyph glyph-name="igrave" unicode="&#xec;" horiz-adv-x="614" 
d="M113 0v1108h389v-1108h-389zM195 1202l-301 262l362 117l213 -379h-274z" />
    <glyph glyph-name="iacute" unicode="&#xed;" horiz-adv-x="614" 
d="M113 0v1108h389v-1108h-389zM150 1202l212 379l363 -117l-301 -262h-274z" />
    <glyph glyph-name="icircumflex" unicode="&#xee;" horiz-adv-x="614" 
d="M113 0v1108h389v-1108h-389zM-111 1202l263 338h315l262 -338h-250l-172 125l-172 -125h-246z" />
    <glyph glyph-name="idieresis" unicode="&#xef;" horiz-adv-x="614" 
d="M113 0v1108h389v-1108h-389zM-84 1202v293h338v-293h-338zM365 1202v293h337v-293h-337z" />
    <glyph glyph-name="eth" unicode="&#xf0;" horiz-adv-x="1343" 
d="M657 -27q-258 0 -424.5 155t-166.5 386q0 198 134.5 330.5t352.5 132.5q131 0 221 -55l-164 219l-235 -90l-133 182l239 82l-131 180h414l43 -61l203 75l131 -182l-211 -72l131 -184q110 -160 154.5 -277t44.5 -264q0 -115 -43 -217t-120 -177.5t-191 -119t-249 -43.5z
M666 299q100 0 159.5 60.5t59.5 152.5q0 87 -62.5 148t-160.5 61q-101 0 -161.5 -60t-60.5 -151q0 -88 64 -149.5t162 -61.5z" />
    <glyph glyph-name="ntilde" unicode="&#xf1;" horiz-adv-x="1298" 
d="M104 0v1108h390v-156q142 181 331 181q176 0 276.5 -109t100.5 -299v-725h-389v600q0 89 -42.5 137.5t-113.5 48.5q-73 0 -118 -49t-45 -137v-600h-390zM414 1188l-187 51q33 157 92 231t162 74q69 0 181.5 -40t138.5 -40q40 0 61 21.5t43 73.5l187 -52
q-33 -157 -92 -231t-162 -74q-69 0 -181.5 40t-138.5 40q-40 0 -61 -21t-43 -73z" />
    <glyph glyph-name="ograve" unicode="&#xf2;" horiz-adv-x="1343" 
d="M670 -27q-130 0 -244.5 46t-194.5 124t-126 185t-46 225q0 117 46.5 223.5t127 185t195.5 125t246 46.5q173 0 313.5 -78t218.5 -211t78 -291q0 -117 -46.5 -223.5t-126.5 -185t-195 -125t-246 -46.5zM674 303q103 0 167 72t64 178q0 103 -67 176.5t-168 73.5
q-103 0 -167.5 -72.5t-64.5 -177.5q0 -103 67.5 -176.5t168.5 -73.5zM547 1206l-301 262l362 117l213 -379h-274z" />
    <glyph glyph-name="oacute" unicode="&#xf3;" horiz-adv-x="1343" 
d="M670 -27q-130 0 -244.5 46t-194.5 124t-126 185t-46 225q0 117 46.5 223.5t127 185t195.5 125t246 46.5q173 0 313.5 -78t218.5 -211t78 -291q0 -117 -46.5 -223.5t-126.5 -185t-195 -125t-246 -46.5zM674 303q103 0 167 72t64 178q0 103 -67 176.5t-168 73.5
q-103 0 -167.5 -72.5t-64.5 -177.5q0 -103 67.5 -176.5t168.5 -73.5zM522 1206l213 379l363 -117l-301 -262h-275z" />
    <glyph glyph-name="ocircumflex" unicode="&#xf4;" horiz-adv-x="1343" 
d="M670 -27q-130 0 -244.5 46t-194.5 124t-126 185t-46 225q0 117 46.5 223.5t127 185t195.5 125t246 46.5q173 0 313.5 -78t218.5 -211t78 -291q0 -117 -46.5 -223.5t-126.5 -185t-195 -125t-246 -46.5zM674 303q103 0 167 72t64 178q0 103 -67 176.5t-168 73.5
q-103 0 -167.5 -72.5t-64.5 -177.5q0 -103 67.5 -176.5t168.5 -73.5zM252 1198l262 338h315l263 -338h-250l-172 125l-172 -125h-246z" />
    <glyph glyph-name="otilde" unicode="&#xf5;" horiz-adv-x="1343" 
d="M670 -27q-130 0 -244.5 46t-194.5 124t-126 185t-46 225q0 117 46.5 223.5t127 185t195.5 125t246 46.5q173 0 313.5 -78t218.5 -211t78 -291q0 -117 -46.5 -223.5t-126.5 -185t-195 -125t-246 -46.5zM674 303q103 0 167 72t64 178q0 103 -67 176.5t-168 73.5
q-103 0 -167.5 -72.5t-64.5 -177.5q0 -103 67.5 -176.5t168.5 -73.5zM426 1188l-186 51q33 157 92 231t162 74q69 0 181 -40t138 -40q40 0 61.5 21.5t43.5 73.5l186 -52q-33 -157 -92 -231t-162 -74q-69 0 -181.5 40t-138.5 40q-40 0 -61 -21t-43 -73z" />
    <glyph glyph-name="odieresis" unicode="&#xf6;" horiz-adv-x="1343" 
d="M670 -27q-130 0 -244.5 46t-194.5 124t-126 185t-46 225q0 117 46.5 223.5t127 185t195.5 125t246 46.5q173 0 313.5 -78t218.5 -211t78 -291q0 -117 -46.5 -223.5t-126.5 -185t-195 -125t-246 -46.5zM674 303q103 0 167 72t64 178q0 103 -67 176.5t-168 73.5
q-103 0 -167.5 -72.5t-64.5 -177.5q0 -103 67.5 -176.5t168.5 -73.5zM279 1202v293h337v-293h-337zM727 1202v293h338v-293h-338z" />
    <glyph glyph-name="divide" unicode="&#xf7;" horiz-adv-x="1310" 
d="M467 70v358h364v-358h-364zM152 555v342h1005v-342h-1005zM467 1024v358h364v-358h-364z" />
    <glyph glyph-name="oslash" unicode="&#xf8;" horiz-adv-x="1343" 
d="M670 -27q-169 0 -312 78l-57 -61h-272l170 188q-140 159 -140 375q0 117 46.5 223.5t127 185t195.5 125t246 46.5q169 0 309 -78l59 63h273q-129 -141 -170 -188q139 -158 139 -377q0 -117 -46.5 -223.5t-126.5 -185t-195 -125t-246 -46.5zM674 287q110 0 179 77t69 189
q0 48 -21 106l-317 -356q43 -16 90 -16zM442 446l320 355q-41 18 -92 18q-110 0 -179 -77t-69 -189q0 -52 20 -107z" />
    <glyph glyph-name="ugrave" unicode="&#xf9;" horiz-adv-x="1298" 
d="M473 -25q-176 0 -276.5 109t-100.5 299v725h389v-600q0 -89 43 -137.5t115 -48.5q71 0 116.5 49t45.5 137v600h389v-1108h-389v152q-139 -177 -332 -177zM557 1202l-301 262l362 117l213 -379h-274z" />
    <glyph glyph-name="uacute" unicode="&#xfa;" horiz-adv-x="1298" 
d="M473 -25q-176 0 -276.5 109t-100.5 299v725h389v-600q0 -89 43 -137.5t115 -48.5q71 0 116.5 49t45.5 137v600h389v-1108h-389v152q-139 -177 -332 -177zM467 1202l213 379l362 -117l-301 -262h-274z" />
    <glyph glyph-name="ucircumflex" unicode="&#xfb;" horiz-adv-x="1298" 
d="M473 -25q-176 0 -276.5 109t-100.5 299v725h389v-600q0 -89 43 -137.5t115 -48.5q71 0 116.5 49t45.5 137v600h389v-1108h-389v152q-139 -177 -332 -177zM229 1202l263 338h315l262 -338h-250l-172 125l-172 -125h-246z" />
    <glyph glyph-name="udieresis" unicode="&#xfc;" horiz-adv-x="1298" 
d="M473 -25q-176 0 -276.5 109t-100.5 299v725h389v-600q0 -89 43 -137.5t115 -48.5q71 0 116.5 49t45.5 137v600h389v-1108h-389v152q-139 -177 -332 -177zM256 1202v293h338v-293h-338zM705 1202v293h337v-293h-337z" />
    <glyph glyph-name="yacute" unicode="&#xfd;" horiz-adv-x="1282" 
d="M432 -334q-184 0 -356 96l121 273q99 -60 170 -60q58 0 90 45l-434 1088h407l221 -668l209 668h400l-406 -1081q-73 -197 -166 -279t-256 -82zM463 1202l213 379l362 -117l-301 -262h-274z" />
    <glyph glyph-name="thorn" unicode="&#xfe;" horiz-adv-x="1384" 
d="M104 -328v1823h390v-534q67 81 144 126.5t191 45.5q99 0 188 -40.5t157 -113.5t107.5 -183t39.5 -241t-39.5 -241.5t-107 -184t-156.5 -114t-187 -40.5q-115 0 -194.5 43t-142.5 117v-463h-390zM711 301q97 0 162 71t65 185q0 108 -65.5 179t-161.5 71
q-95 0 -160.5 -71.5t-65.5 -182.5q0 -109 65.5 -180.5t160.5 -71.5z" />
    <glyph glyph-name="ydieresis" unicode="&#xff;" horiz-adv-x="1282" 
d="M432 -334q-184 0 -356 96l121 273q99 -60 170 -60q58 0 90 45l-434 1088h407l221 -668l209 668h400l-406 -1081q-73 -197 -166 -279t-256 -82zM246 1202v293h338v-293h-338zM694 1202v293h338v-293h-338z" />
    <glyph glyph-name="dotlessi" unicode="&#x131;" horiz-adv-x="614" 
d="M113 0v1108h389v-1108h-389z" />
    <glyph glyph-name="Lslash" unicode="&#x141;" horiz-adv-x="1349" 
d="M219 0v502l-156 -45v354l156 45v578h395v-459l363 106v-356l-363 -107v-270h693v-348h-1088z" />
    <glyph glyph-name="lslash" unicode="&#x142;" horiz-adv-x="821" 
d="M217 0v541l-168 -49v348l168 49v606h387v-496l168 50v-351l-168 -49v-649h-387z" />
    <glyph glyph-name="OE" unicode="&#x152;" horiz-adv-x="2207" 
d="M887 0q-250 0 -434.5 91.5t-279.5 252t-95 369.5q0 156 55.5 288t158.5 228.5t258 150.5t345 54h1225v-338h-715v-217h643v-314h-643v-227h725v-338h-1243zM877 346h135v741h-135q-178 0 -285 -99t-107 -273q0 -169 108 -269t284 -100z" />
    <glyph glyph-name="oe" unicode="&#x153;" horiz-adv-x="2074" 
d="M655 -27q-124 0 -234.5 46t-189.5 124t-125.5 185t-46.5 225q0 116 47 223t127 185.5t192.5 125t238.5 46.5q123 0 228.5 -44t180.5 -122q72 79 171 122.5t216 43.5q136 0 243.5 -48.5t174 -133t101 -192.5t34.5 -233q0 -26 -4 -80h-739q23 -89 84.5 -135.5t152.5 -46.5
q70 0 129 27t119 86l215 -178q-182 -226 -475 -226q-266 0 -426 166q-77 -78 -183.5 -122t-230.5 -44zM668 303q102 0 164.5 72t62.5 178q0 103 -66 176.5t-165 73.5q-100 0 -163 -73t-63 -177q0 -103 66 -176.5t164 -73.5zM1264 645h385q-11 93 -62.5 147t-130.5 54
q-76 0 -126.5 -54t-65.5 -147z" />
    <glyph glyph-name="Scaron" unicode="&#x160;" horiz-adv-x="1335" 
d="M690 -25q-194 0 -368 60.5t-304 177.5l222 264q215 -172 465 -172q79 0 121 26.5t42 76.5q0 46 -49.5 75t-191.5 62q-73 17 -126.5 31.5t-113.5 36.5t-102 46t-82 58t-64 73.5t-38.5 92.5t-14.5 116q0 203 150.5 331t404.5 128q353 0 590 -190l-199 -281
q-201 141 -401 141q-70 0 -107 -26.5t-37 -69.5q0 -50 49.5 -77.5t198.5 -61.5q132 -29 224 -63.5t165.5 -86.5t109.5 -126.5t36 -174.5q0 -217 -158 -342t-422 -125zM498 1530l-262 338h249l172 -125l172 125h246l-262 -338h-315z" />
    <glyph glyph-name="scaron" unicode="&#x161;" horiz-adv-x="1052" 
d="M545 -25q-297 0 -525 164l146 236q192 -127 381 -127q98 0 98 63q0 30 -40 49.5t-138 45.5q-74 20 -126 38t-106 48t-86.5 65t-53.5 88t-21 119q0 173 123 269.5t321 96.5q122 0 242 -34t215 -95l-133 -245q-86 47 -174 74.5t-154 27.5q-44 0 -67 -15t-23 -42
q0 -30 39.5 -49.5t140.5 -49.5q74 -21 126 -40t106 -49t86.5 -65t53.5 -86.5t21 -115.5q0 -179 -122 -275t-330 -96zM373 1202l-262 338h249l172 -125l173 125h245l-262 -338h-315z" />
    <glyph glyph-name="Ydieresis" unicode="&#x178;" horiz-adv-x="1480" 
d="M541 0v537l-545 897h453l294 -523l297 523h445l-545 -891v-543h-399zM348 1530v293h338v-293h-338zM797 1530v293h338v-293h-338z" />
    <glyph glyph-name="Zcaron" unicode="&#x17d;" horiz-adv-x="1429" 
d="M82 0v289l719 809h-695v336h1244v-289l-719 -809h719v-336h-1268zM567 1530l-262 338h250l172 -125l172 125h246l-262 -338h-316z" />
    <glyph glyph-name="zcaron" unicode="&#x17e;" horiz-adv-x="1153" 
d="M66 0v256l512 543h-494v309h1010v-256l-514 -543h514v-309h-1028zM424 1202l-262 338h250l172 -125l172 125h245l-262 -338h-315z" />
    <glyph glyph-name="florin" unicode="&#x192;" horiz-adv-x="1132" 
d="M227 -20q-86 0 -176 20v283q63 -13 96 -13q66 0 97 29.5t45 103.5l47 271h-125v295h176l27 133q32 181 140.5 266.5t305.5 85.5q129 0 225 -27v-286q-73 18 -137 18q-72 0 -110 -30t-50 -99l-10 -61h234v-295h-287l-57 -322q-35 -202 -137.5 -287t-303.5 -85z" />
    <glyph glyph-name="circumflex" unicode="&#x2c6;" 
d="M92 1202l262 338h316l262 -338h-250l-172 125l-172 -125h-246z" />
    <glyph glyph-name="caron" unicode="&#x2c7;" 
d="M354 1202l-262 338h250l172 -125l172 125h246l-262 -338h-316z" />
    <glyph glyph-name="breve" unicode="&#x2d8;" 
d="M512 1198q-172 0 -281 90.5t-122 251.5h227q41 -119 176 -119t176 119h227q-13 -161 -122 -251.5t-281 -90.5z" />
    <glyph glyph-name="dotaccent" unicode="&#x2d9;" 
d="M338 1202v293h348v-293h-348z" />
    <glyph glyph-name="ring" unicode="&#x2da;" 
d="M512 1210q-108 0 -190 79t-82 186q0 105 82 181.5t190 76.5t190 -77.5t82 -185.5q0 -104 -82 -182t-190 -78zM512 1335q57 0 97 41t40 99q0 54 -40 93.5t-97 39.5t-97 -40.5t-40 -97.5q0 -56 40 -95.5t97 -39.5z" />
    <glyph glyph-name="ogonek" unicode="&#x2db;" 
d="M668 -342q-167 0 -255.5 58.5t-88.5 164.5q0 73 38 139h250q-10 -38 -10 -69q0 -116 178 -119v-168q-61 -6 -112 -6z" />
    <glyph glyph-name="tilde" unicode="&#x2dc;" 
d="M266 1188l-186 51q33 157 92 231t162 74q69 0 181 -40t138 -40q40 0 61.5 21.5t43.5 73.5l186 -52q-33 -157 -92 -231t-162 -74q-69 0 -181 40t-138 40q-40 0 -61.5 -21t-43.5 -73z" />
    <glyph glyph-name="hungarumlaut" unicode="&#x2dd;" 
d="M61 1204l203 377l320 -111l61 111l340 -117l-293 -260h-252l121 221l-246 -221h-254z" />
    <glyph glyph-name="Omega" unicode="&#x3a9;" horiz-adv-x="1593" 
d="M104 0v297h355v39q-87 23 -155.5 73.5t-111.5 119t-65.5 150t-22.5 171.5q0 149 54.5 267t150.5 192.5t220.5 113.5t269.5 39q141 0 265 -40.5t218.5 -116t149.5 -192.5t55 -261q0 -116 -38 -222t-120.5 -188.5t-195.5 -105.5v-39h352v-297h-619v496q87 13 147.5 67
t86.5 124.5t26 150.5q0 136 -89 229.5t-240 93.5q-152 0 -240 -97.5t-88 -236.5q0 -123 65 -217.5t189 -113.5v-496h-619z" />
    <glyph glyph-name="pi" unicode="&#x3c0;" 
d="M0 0v1434h1024v-1434h-1024zM166 100h694l-348 523zM100 197l351 520l-351 520v-1040zM922 197v1040l-351 -520zM512 809l348 522h-694z" />
    <glyph glyph-name="afii10023" unicode="&#x401;" horiz-adv-x="1366" 
d="M127 0v1434h1153v-338h-760v-217h688v-314h-688v-227h770v-338h-1163zM326 1530v293h338v-293h-338zM774 1530v293h338v-293h-338z" />
    <glyph glyph-name="afii10051" unicode="&#x402;" horiz-adv-x="1761" 
d="M1159 -137q-46 0 -118.5 8t-112.5 18l43 344q25 -4 80 -4q194 0 194 172q0 80 -52.5 127t-148.5 47q-69 0 -132 -22t-99 -55v-498h-397v1085h-369v349h1258v-349h-492v-235q157 92 346 92q111 0 200.5 -31.5t157.5 -95t105 -166.5t37 -239q0 -137 -37 -242.5
t-104.5 -171.5t-158 -99.5t-200.5 -33.5z" />
    <glyph glyph-name="afii10052" unicode="&#x403;" horiz-adv-x="1200" 
d="M127 0v1434h1032v-349h-635v-1085h-397zM424 1530l213 379l362 -117l-301 -262h-274z" />
    <glyph glyph-name="afii10053" unicode="&#x404;" horiz-adv-x="1495" 
d="M817 -29q-203 0 -372 95.5t-268 267t-99 383.5q0 155 57.5 292.5t157 237t240.5 157.5t301 58q355 0 575 -268l-268 -229q-127 143 -312 143q-116 0 -202.5 -67t-124.5 -177h465v-280h-471q35 -117 122.5 -188.5t210.5 -71.5q180 0 318 155l289 -205
q-109 -145 -256.5 -224t-362.5 -79z" />
    <glyph glyph-name="afii10054" unicode="&#x405;" horiz-adv-x="1335" 
d="M690 -25q-194 0 -368 60.5t-304 177.5l222 264q215 -172 465 -172q79 0 121 26.5t42 76.5q0 46 -49.5 75t-191.5 62q-73 17 -126.5 31.5t-113.5 36.5t-102 46t-82 58t-64 73.5t-38.5 92.5t-14.5 116q0 203 150.5 331t404.5 128q353 0 590 -190l-199 -281
q-201 141 -401 141q-70 0 -107 -26.5t-37 -69.5q0 -50 49.5 -77.5t198.5 -61.5q132 -29 224 -63.5t165.5 -86.5t109.5 -126.5t36 -174.5q0 -217 -158 -342t-422 -125z" />
    <glyph glyph-name="afii10055" unicode="&#x406;" horiz-adv-x="669" 
d="M135 0v1434h400v-1434h-400z" />
    <glyph glyph-name="afii10056" unicode="&#x407;" horiz-adv-x="669" 
d="M135 0v1434h400v-1434h-400zM-57 1530v293h338v-293h-338zM391 1530v293h338v-293h-338z" />
    <glyph glyph-name="afii10057" unicode="&#x408;" horiz-adv-x="1155" 
d="M512 -25q-327 0 -504 242l256 242q56 -67 108 -100t115 -33q77 0 120.5 51t43.5 149v908h396v-910q0 -261 -142 -403q-146 -146 -393 -146z" />
    <glyph glyph-name="afii10058" unicode="&#x409;" horiz-adv-x="2265" 
d="M209 -20q-69 0 -137.5 11t-100.5 21l27 305q36 -8 92 -8q28 0 48 5.5t44.5 26.5t41.5 59t34 106.5t27.5 165t17 239t6.5 324.5v199h1102v-451h217q130 0 238.5 -31t188.5 -90.5t124.5 -153t44.5 -212.5q0 -230 -155.5 -363t-419.5 -133h-635v1085h-334v-55
q0 -185 -11.5 -333.5t-32.5 -257t-53.5 -189.5t-70.5 -132t-88 -82.5t-101 -43.5t-114 -12zM1411 334h207q99 0 154 44t55 128q0 76 -55.5 121t-151.5 45h-209v-338z" />
    <glyph glyph-name="afii10059" unicode="&#x40a;" horiz-adv-x="2285" 
d="M127 0v1434h397v-504h510v504h398v-504h237q169 0 297 -50t203.5 -155.5t75.5 -255.5q0 -221 -149.5 -345t-405.5 -124h-656v578h-510v-578h-397zM1432 334h227q90 0 139 39t49 112q0 67 -49.5 106.5t-136.5 39.5h-229v-297z" />
    <glyph glyph-name="afii10060" unicode="&#x40b;" horiz-adv-x="1761" 
d="M416 0v1085h-369v349h1258v-349h-492v-235q157 92 346 92q223 0 361.5 -124.5t138.5 -344.5v-473h-397v307q0 134 -47 201t-150 67q-166 0 -252 -77v-498h-397z" />
    <glyph glyph-name="afii10061" unicode="&#x40c;" horiz-adv-x="1495" 
d="M127 0v1434h397v-582l494 582h471l-543 -617l561 -817h-477l-360 532l-146 -161v-371h-397zM602 1530l213 379l363 -117l-301 -262h-275z" />
    <glyph glyph-name="afii10062" unicode="&#x40e;" horiz-adv-x="1507" 
d="M463 -20q-182 0 -344 96l155 286q73 -49 162 -49q71 0 125 62l-561 1059h442l326 -674l307 674h432l-559 -1094q-99 -194 -210 -277t-275 -83zM768 1526q-148 0 -242.5 82t-117.5 231l217 39q22 -60 55.5 -91.5t87.5 -31.5q55 0 89 31.5t56 91.5l217 -39
q-23 -149 -118 -231t-244 -82z" />
    <glyph glyph-name="afii10145" unicode="&#x40f;" horiz-adv-x="1538" 
d="M573 -287v287h-446v1434h397v-1086h490v1086h397v-1434h-457v-287h-381z" />
    <glyph glyph-name="afii10017" unicode="&#x410;" horiz-adv-x="1628" 
d="M12 0l611 1444h383l610 -1444h-426l-105 256h-553l-102 -256h-418zM649 565h322l-160 408z" />
    <glyph glyph-name="afii10018" unicode="&#x411;" horiz-adv-x="1433" 
d="M127 0v1434h1153v-338h-756v-166h277q126 0 230 -29t181.5 -85t120.5 -145t43 -202q0 -221 -149.5 -345t-405.5 -124h-694zM524 334h267q90 0 139 39t49 112q0 67 -49.5 106.5t-136.5 39.5h-269v-297z" />
    <glyph glyph-name="afii10019" unicode="&#x412;" horiz-adv-x="1464" 
d="M127 0v1434h735q262 0 391 -129q93 -93 93 -236q0 -223 -222 -319q139 -46 212 -129.5t73 -225.5q0 -185 -143.5 -290t-399.5 -105h-739zM514 319h307q91 0 141 35t50 101q0 60 -49 94.5t-146 34.5h-303v-265zM514 862h250q188 0 188 129q0 59 -46 91t-134 32h-258v-252z
" />
    <glyph glyph-name="afii10020" unicode="&#x413;" horiz-adv-x="1200" 
d="M127 0v1434h1032v-349h-635v-1085h-397z" />
    <glyph glyph-name="afii10021" unicode="&#x414;" horiz-adv-x="1576" 
d="M20 -287v635h127q77 209 111.5 437t34.5 612v37h1091v-1086h162l-45 -635h-336v287h-762l-26 -287h-357zM563 348h424v737h-311v-14q0 -222 -29 -390t-84 -333z" />
    <glyph glyph-name="afii10022" unicode="&#x415;" horiz-adv-x="1366" 
d="M127 0v1434h1153v-338h-760v-217h688v-314h-688v-227h770v-338h-1163z" />
    <glyph glyph-name="afii10024" unicode="&#x416;" horiz-adv-x="2244" 
d="M-12 0l528 829l-510 605h465l453 -582v582h397v-582l453 582h464l-509 -605l528 -829h-471l-328 541l-137 -160v-381h-397v381l-138 160l-327 -541h-471z" />
    <glyph glyph-name="afii10025" unicode="&#x417;" horiz-adv-x="1310" 
d="M680 -27q-157 0 -282 32.5t-205.5 81t-169.5 126.5l206 264q170 -170 404 -170q107 0 163 39t56 103q0 126 -229 126h-150v295h145q103 0 153 35.5t50 95.5q0 56 -49 90.5t-131 34.5q-93 0 -197.5 -40t-171.5 -101l-196 234q247 243 600 243q237 0 386.5 -109t149.5 -278
q0 -225 -215 -325q116 -39 184 -121.5t68 -210.5q0 -195 -154.5 -320t-414.5 -125z" />
    <glyph glyph-name="afii10026" unicode="&#x418;" horiz-adv-x="1572" 
d="M127 0v1434h393v-807l555 807h371v-1434h-393v807l-555 -807h-371z" />
    <glyph glyph-name="afii10027" unicode="&#x419;" horiz-adv-x="1572" 
d="M127 0v1434h393v-807l555 807h371v-1434h-393v807l-555 -807h-371zM799 1526q-148 0 -243 82t-118 231l217 39q45 -123 144 -123q55 0 89 31.5t56 91.5l217 -39q-23 -149 -118 -231t-244 -82z" />
    <glyph glyph-name="afii10028" unicode="&#x41a;" horiz-adv-x="1495" 
d="M127 0v1434h397v-582l494 582h471l-543 -617l561 -817h-477l-360 532l-146 -161v-371h-397z" />
    <glyph glyph-name="afii10029" unicode="&#x41b;" horiz-adv-x="1538" 
d="M209 -20q-69 0 -137.5 11t-100.5 21l27 305q36 -8 92 -8q28 0 48 5.5t44.5 26.5t41.5 59t34 106.5t27.5 165t17 239t6.5 324.5v199h1102v-1434h-397v1085h-334v-55q0 -185 -11.5 -333.5t-32.5 -257t-53.5 -189.5t-70.5 -132t-88 -82.5t-101 -43.5t-114 -12z" />
    <glyph glyph-name="afii10030" unicode="&#x41c;" horiz-adv-x="1777" 
d="M127 0v1434h420l342 -555l342 555h420v-1434h-396v823l-366 -561h-8l-365 557v-819h-389z" />
    <glyph glyph-name="afii10031" unicode="&#x41d;" horiz-adv-x="1558" 
d="M127 0v1434h397v-537h510v537h398v-1434h-398v545h-510v-545h-397z" />
    <glyph glyph-name="afii10032" unicode="&#x41e;" horiz-adv-x="1701" 
d="M848 -29q-217 0 -394 99.5t-276.5 270t-99.5 376.5q0 152 59.5 289.5t161.5 237.5t246 159t307 59t306.5 -58.5t245 -158t160 -237t58.5 -291.5q0 -152 -59.5 -290t-161.5 -238t-246 -159t-307 -59zM852 330q161 0 263 112.5t102 274.5q0 159 -104 273t-265 114
q-159 0 -261 -112.5t-102 -274.5q0 -159 104 -273t263 -114z" />
    <glyph glyph-name="afii10033" unicode="&#x41f;" horiz-adv-x="1538" 
d="M127 0v1434h1284v-1434h-397v1085h-490v-1085h-397z" />
    <glyph glyph-name="afii10034" unicode="&#x420;" horiz-adv-x="1378" 
d="M127 0v1434h614q274 0 435 -134.5t161 -373.5q0 -165 -80.5 -283t-218 -175.5t-317.5 -57.5h-197v-410h-397zM524 721h189q106 0 166.5 51t60.5 139q0 91 -60.5 140t-168.5 49h-187v-379z" />
    <glyph glyph-name="afii10035" unicode="&#x421;" horiz-adv-x="1495" 
d="M817 -29q-203 0 -372 95.5t-268 267t-99 383.5q0 155 57.5 292.5t157 237t240.5 157.5t301 58q383 0 602 -303l-291 -225q-133 166 -316 166q-149 0 -245.5 -110.5t-96.5 -272.5q0 -163 96.5 -273t245.5 -110q105 0 178.5 43.5t145.5 130.5l299 -213
q-73 -100 -154.5 -168t-205 -112t-275.5 -44z" />
    <glyph glyph-name="afii10036" unicode="&#x422;" horiz-adv-x="1351" 
d="M477 0v1085h-430v349h1258v-349h-431v-1085h-397z" />
    <glyph glyph-name="afii10037" unicode="&#x423;" horiz-adv-x="1507" 
d="M463 -20q-182 0 -344 96l155 286q73 -49 162 -49q71 0 125 62l-561 1059h442l326 -674l307 674h432l-559 -1094q-99 -194 -210 -277t-275 -83z" />
    <glyph glyph-name="afii10038" unicode="&#x424;" horiz-adv-x="1959" 
d="M780 -61v159q-171 0 -309.5 48.5t-229 134.5t-139.5 203.5t-49 256.5q0 137 49.5 252t141 198.5t229 130t307.5 46.5v127h400v-127q170 0 307.5 -46.5t229 -130t141 -198.5t49.5 -252q0 -139 -49 -256.5t-139.5 -203.5t-229 -134.5t-309.5 -48.5v-159h-400zM780 451v565
q-144 0 -231.5 -75t-87.5 -206q0 -135 87.5 -209.5t231.5 -74.5zM1180 451q144 0 231.5 74.5t87.5 209.5q0 131 -87.5 206t-231.5 75v-565z" />
    <glyph glyph-name="afii10039" unicode="&#x425;" horiz-adv-x="1499" 
d="M23 0l491 729l-471 705h457l254 -404l256 404h446l-471 -701l492 -733h-457l-275 432l-276 -432h-446z" />
    <glyph glyph-name="afii10040" unicode="&#x426;" horiz-adv-x="1581" 
d="M1192 -287v287h-1065v1434h397v-1086h490v1086h397v-1086h162l-45 -635h-336z" />
    <glyph glyph-name="afii10041" unicode="&#x427;" horiz-adv-x="1456" 
d="M932 0v502q-70 -41 -171.5 -66.5t-195.5 -25.5q-226 0 -352.5 126.5t-126.5 352.5v545h397v-433q0 -117 46 -171t151 -54q156 0 252 78v580h397v-1434h-397z" />
    <glyph glyph-name="afii10042" unicode="&#x428;" horiz-adv-x="2260" 
d="M127 0v1434h397v-1086h408v1086h397v-1086h408v1086h397v-1434h-2007z" />
    <glyph glyph-name="afii10043" unicode="&#x429;" horiz-adv-x="2304" 
d="M1915 -287v287h-1788v1434h397v-1086h408v1086h397v-1086h408v1086h397v-1086h162l-45 -635h-336z" />
    <glyph glyph-name="afii10044" unicode="&#x42a;" horiz-adv-x="1617" 
d="M367 0v1085h-326v349h723v-451h217q130 0 238.5 -31t188.5 -90.5t124.5 -153t44.5 -212.5q0 -230 -156 -363t-420 -133h-634zM764 334h207q99 0 154 44t55 128q0 76 -55.5 121t-151.5 45h-209v-338z" />
    <glyph glyph-name="afii10045" unicode="&#x42b;" horiz-adv-x="2029" 
d="M127 0v1434h397v-451h217q130 0 238.5 -31t188.5 -90.5t124.5 -153t44.5 -212.5q0 -230 -155.5 -363t-419.5 -133h-635zM524 334h207q99 0 154 44t55 128q0 76 -55.5 121t-151.5 45h-209v-338zM1505 0v1434h398v-1434h-398z" />
    <glyph glyph-name="afii10046" unicode="&#x42c;" horiz-adv-x="1378" 
d="M127 0v1434h397v-451h217q130 0 238.5 -31t188.5 -90.5t124.5 -153t44.5 -212.5q0 -230 -155.5 -363t-419.5 -133h-635zM524 334h207q99 0 154 44t55 128q0 76 -55.5 121t-151.5 45h-209v-338z" />
    <glyph glyph-name="afii10047" unicode="&#x42d;" horiz-adv-x="1495" 
d="M676 -29q-215 0 -362.5 79t-256.5 224l289 205q138 -155 318 -155q121 0 208.5 71.5t122.5 188.5h-469v280h465q-38 110 -124.5 177t-202.5 67q-185 0 -312 -143l-268 229q220 268 575 268q160 0 301 -58t240.5 -157.5t157 -237t57.5 -292.5q0 -212 -99 -383.5t-268 -267
t-372 -95.5z" />
    <glyph glyph-name="afii10048" unicode="&#x42e;" horiz-adv-x="2211" 
d="M1401 -29q-271 0 -464 160.5t-247 413.5h-166v-545h-397v1434h397v-537h168q58 249 251.5 407t461.5 158q157 0 293.5 -58.5t231 -158.5t148.5 -237t54 -291q0 -204 -92 -374t-260.5 -271t-378.5 -101zM1405 328q144 0 234 111t90 278q0 164 -92 276.5t-236 112.5
q-143 0 -232.5 -111t-89.5 -278q0 -164 91 -276.5t235 -112.5z" />
    <glyph glyph-name="afii10049" unicode="&#x42f;" horiz-adv-x="1507" 
d="M61 0l342 500q-139 59 -216.5 170.5t-77.5 273.5q0 122 46.5 217.5t128 154t187.5 88.5t231 30h678v-1434h-397v434h-174l-289 -434h-459zM721 739h262v357h-260q-101 0 -158 -47t-57 -134q0 -79 56.5 -127.5t156.5 -48.5z" />
    <glyph glyph-name="afii10065" unicode="&#x430;" horiz-adv-x="1226" 
d="M422 -25q-164 0 -268.5 91.5t-104.5 255.5q0 168 117 258t317 90q149 0 267 -43v18q0 180 -222 180q-152 0 -305 -61l-80 274q211 86 449 86q287 0 422 -135q119 -116 119 -352v-637h-385v115q-127 -140 -326 -140zM561 219q86 0 139.5 50t53.5 132v52q-68 28 -152 28
t-131 -38t-47 -103q0 -56 38 -88.5t99 -32.5z" />
    <glyph glyph-name="afii10066" unicode="&#x431;" horiz-adv-x="1343" 
d="M690 -27q-295 0 -443.5 174t-148.5 512q0 76 4.5 140.5t18 138t35.5 133.5t60 119t89 102t124 75.5t163 47.5l565 92l47 -301l-581 -106q-70 -13 -121.5 -42t-76.5 -64t-36.5 -63.5t-13.5 -53.5q12 20 40.5 45t74.5 53t116.5 46.5t149.5 18.5q105 0 201 -36t168.5 -100.5
t115.5 -160t43 -206.5q0 -153 -76 -282t-213 -205.5t-305 -76.5zM694 303q95 0 153 65.5t58 163.5q0 95 -61.5 162.5t-153.5 67.5q-95 0 -153 -66t-58 -164q0 -95 61.5 -162t153.5 -67z" />
    <glyph glyph-name="afii10067" unicode="&#x432;" horiz-adv-x="1247" 
d="M104 0v1108h658q203 0 303 -100q72 -69 72 -181q0 -172 -172 -247q106 -35 158.5 -99.5t52.5 -175.5q0 -143 -111 -224t-309 -81h-652zM483 252h160q68 0 105.5 28t37.5 76q0 44 -38 73.5t-109 29.5h-156v-207zM483 668h131q66 0 103 26.5t37 71.5q0 42 -35 68t-98 26
h-138v-192z" />
    <glyph glyph-name="afii10068" unicode="&#x433;" horiz-adv-x="960" 
d="M104 0v1108h836v-313h-446v-795h-390z" />
    <glyph glyph-name="afii10069" unicode="&#x434;" horiz-adv-x="1337" 
d="M20 -225v538h103q51 148 74.5 309.5t23.5 432.5v53h987v-795h129l-37 -538h-331v225h-580l-20 -225h-349zM520 313h297v486h-225v-19q-5 -245 -72 -467z" />
    <glyph glyph-name="afii10070" unicode="&#x435;" horiz-adv-x="1239" 
d="M653 -27q-173 0 -308 72t-210.5 204t-75.5 304q0 120 41.5 227t114.5 184.5t177.5 123t225.5 45.5q139 0 248 -48.5t176 -133t101.5 -192.5t34.5 -233q0 -53 -2 -80h-742q23 -89 85.5 -135.5t154.5 -46.5q130 0 246 113l215 -178q-177 -226 -482 -226zM428 645h385
q-11 93 -62 147t-130 54q-75 0 -126.5 -54.5t-66.5 -146.5z" />
    <glyph glyph-name="afii10072" unicode="&#x436;" horiz-adv-x="1871" 
d="M-10 0l389 653l-379 455h440l301 -412v412h389v-412l302 412h440l-381 -455l391 -653h-428l-225 379l-99 -119v-260h-389v260l-100 119l-223 -379h-428z" />
    <glyph glyph-name="afii10073" unicode="&#x437;" horiz-adv-x="1112" 
d="M500 -29q-166 0 -271 33.5t-219 120.5l154 242q63 -49 163 -80t169 -31q157 0 157 88q0 92 -153 92h-140v244h138q70 0 99.5 28t29.5 66q0 30 -35 53t-98 23q-74 0 -160 -32.5t-139 -78.5l-156 213q194 181 504 181q222 0 344.5 -84t122.5 -218q0 -175 -176 -251
q206 -71 206 -258q0 -158 -134 -254.5t-406 -96.5z" />
    <glyph glyph-name="afii10074" unicode="&#x438;" horiz-adv-x="1312" 
d="M104 0v1108h377v-555l369 555h358v-1108h-377v555l-368 -555h-359z" />
    <glyph glyph-name="afii10075" unicode="&#x439;" horiz-adv-x="1312" 
d="M104 0v1108h377v-555l369 555h358v-1108h-377v555l-368 -555h-359zM666 1198q-139 0 -227.5 79.5t-110.5 225.5l202 37q41 -119 136 -119q94 0 135 119l203 -37q-22 -146 -110.5 -225.5t-227.5 -79.5z" />
    <glyph glyph-name="afii10076" unicode="&#x43a;" horiz-adv-x="1234" 
d="M104 0v1108h390v-412l301 412h440l-379 -455l389 -653h-428l-211 354l-112 -135v-219h-390z" />
    <glyph glyph-name="afii10077" unicode="&#x43b;" horiz-adv-x="1306" 
d="M193 -14q-79 0 -173 16l17 301q43 -6 63 -6q18 0 30.5 3t29 16t27.5 37t23 68t19.5 106t12 155.5t4.5 212.5v213h956v-1108h-389v799h-205v-29q0 -196 -21 -338.5t-56 -227.5t-90.5 -134.5t-113 -66.5t-134.5 -17z" />
    <glyph glyph-name="afii10078" unicode="&#x43c;" horiz-adv-x="1513" 
d="M104 0v1108h396l256 -383l258 383h395v-1108h-389v547l-270 -377l-263 369v-539h-383z" />
    <glyph glyph-name="afii10079" unicode="&#x43d;" horiz-adv-x="1306" 
d="M104 0v1108h390v-393h319v393h389v-1108h-389v401h-319v-401h-390z" />
    <glyph glyph-name="afii10080" unicode="&#x43e;" horiz-adv-x="1343" 
d="M670 -27q-130 0 -244.5 46t-194.5 124t-126 185t-46 225q0 117 46.5 223.5t127 185t195.5 125t246 46.5q173 0 313.5 -78t218.5 -211t78 -291q0 -117 -46.5 -223.5t-126.5 -185t-195 -125t-246 -46.5zM674 303q103 0 167 72t64 178q0 103 -67 176.5t-168 73.5
q-103 0 -167.5 -72.5t-64.5 -177.5q0 -103 67.5 -176.5t168.5 -73.5z" />
    <glyph glyph-name="afii10081" unicode="&#x43f;" horiz-adv-x="1290" 
d="M104 0v1108h1082v-1108h-389v795h-303v-795h-390z" />
    <glyph glyph-name="afii10082" unicode="&#x440;" horiz-adv-x="1384" 
d="M104 -328v1436h390v-147q67 81 144 126.5t191 45.5q99 0 188 -40.5t157 -113.5t107.5 -183t39.5 -241t-39.5 -241.5t-107 -184t-156.5 -114t-187 -40.5q-115 0 -194.5 43t-142.5 117v-463h-390zM711 301q97 0 162 71t65 185q0 108 -65.5 179t-161.5 71
q-95 0 -160.5 -71.5t-65.5 -182.5q0 -109 65.5 -180.5t160.5 -71.5z" />
    <glyph glyph-name="afii10083" unicode="&#x441;" horiz-adv-x="1165" 
d="M639 -27q-163 0 -297 78.5t-208.5 211.5t-74.5 290q0 156 74.5 287.5t211.5 210.5t308 79q318 0 473 -247l-260 -189q-78 109 -200 109q-103 0 -165.5 -71.5t-62.5 -178.5q0 -108 62 -180t159 -72q65 0 112 28.5t97 88.5l265 -191q-170 -254 -494 -254z" />
    <glyph glyph-name="afii10084" unicode="&#x442;" horiz-adv-x="1077" 
d="M344 0v795h-324v313h1037v-313h-324v-795h-389z" />
    <glyph glyph-name="afii10085" unicode="&#x443;" horiz-adv-x="1282" 
d="M432 -334q-184 0 -356 96l121 273q99 -60 170 -60q58 0 90 45l-434 1088h407l221 -668l209 668h400l-406 -1081q-73 -197 -166 -279t-256 -82z" />
    <glyph glyph-name="afii10086" unicode="&#x444;" horiz-adv-x="1839" 
d="M725 -328v379q-105 -69 -215 -69q-201 0 -325 154t-124 423q0 262 125 414.5t326 152.5q113 0 213 -79v387h389v-387q96 79 213 79q201 0 326 -153.5t125 -417.5q0 -265 -124.5 -419t-324.5 -154q-115 0 -215 69v-379h-389zM631 295q53 0 94 20v476q-46 22 -94 22
q-92 0 -139.5 -71t-47.5 -189q0 -117 47.5 -187.5t139.5 -70.5zM1208 295q92 0 139.5 71t47.5 191q0 114 -47.5 185t-139.5 71q-48 0 -94 -22v-476q41 -20 94 -20z" />
    <glyph glyph-name="afii10087" unicode="&#x445;" horiz-adv-x="1206" 
d="M16 0l373 559l-366 549h419l164 -272l164 272h412l-365 -547l373 -561h-418l-172 285l-174 -285h-410z" />
    <glyph glyph-name="afii10088" unicode="&#x446;" horiz-adv-x="1314" 
d="M946 -225v225h-842v1108h390v-795h303v795h389v-795h129l-37 -538h-332z" />
    <glyph glyph-name="afii10089" unicode="&#x447;" horiz-adv-x="1255" 
d="M762 0v356q-48 -22 -129.5 -35.5t-145.5 -13.5q-174 0 -283.5 98.5t-109.5 272.5v430h391v-313q0 -86 27 -128t90 -42q104 0 160 43v440h389v-1108h-389z" />
    <glyph glyph-name="afii10090" unicode="&#x448;" horiz-adv-x="1921" 
d="M104 0v1108h390v-795h272v795h389v-795h272v795h390v-1108h-1713z" />
    <glyph glyph-name="afii10091" unicode="&#x449;" horiz-adv-x="1945" 
d="M1577 -225v225h-1473v1108h390v-795h272v795h389v-795h272v795h390v-795h129l-37 -538h-332z" />
    <glyph glyph-name="afii10092" unicode="&#x44a;" horiz-adv-x="1353" 
d="M279 0v795h-269v313h658v-348h188q204 0 330.5 -97.5t126.5 -279.5q0 -179 -119 -281t-322 -102h-593zM668 274h120q71 0 110.5 31t39.5 90q0 54 -40 84.5t-110 30.5h-120v-236z" />
    <glyph glyph-name="afii10093" unicode="&#x44b;" horiz-adv-x="1757" 
d="M1264 0v1108h389v-1108h-389zM104 0v1108h390v-348h188q204 0 330.5 -97.5t126.5 -279.5q0 -179 -119 -281t-322 -102h-594zM494 274h120q71 0 110.5 31t39.5 90q0 54 -40 84.5t-110 30.5h-120v-236z" />
    <glyph glyph-name="afii10094" unicode="&#x44c;" horiz-adv-x="1179" 
d="M104 0v1108h390v-348h188q204 0 330.5 -97.5t126.5 -279.5q0 -179 -119 -281t-322 -102h-594zM494 274h120q71 0 110.5 31t39.5 90q0 54 -40 84.5t-110 30.5h-120v-236z" />
    <glyph glyph-name="afii10095" unicode="&#x44d;" horiz-adv-x="1142" 
d="M504 -27q-313 0 -484 240l242 178q50 -56 101 -83t120 -27q77 0 136 43t86 116h-299v224h299q-27 72 -85.5 115.5t-132.5 43.5q-140 0 -225 -110l-231 190q156 227 458 227q171 0 308 -79t211.5 -210.5t74.5 -287.5q0 -157 -74.5 -290t-208 -211.5t-296.5 -78.5z" />
    <glyph glyph-name="afii10096" unicode="&#x44e;" horiz-adv-x="1851" 
d="M1200 -27q-219 0 -370.5 121.5t-200.5 315.5h-135v-410h-390v1108h390v-401h139q53 189 204 307.5t367 118.5q130 0 241 -46t186.5 -124.5t118 -184.5t42.5 -225q0 -118 -43 -223.5t-119 -184.5t-188 -125.5t-242 -46.5zM1204 303q101 0 155 70.5t54 179.5q0 106 -57 178
t-156 72q-101 0 -155 -70.5t-54 -179.5q0 -106 57 -178t156 -72z" />
    <glyph glyph-name="afii10097" unicode="&#x44f;" horiz-adv-x="1267" 
d="M27 0l260 385q-205 97 -205 336q0 169 102 264q117 123 363 123h616v-1108h-391v319h-88l-213 -319h-444zM618 590h154v225h-154q-68 0 -105.5 -29.5t-37.5 -85.5q0 -53 37 -81.5t106 -28.5z" />
    <glyph glyph-name="afii10071" unicode="&#x451;" horiz-adv-x="1239" 
d="M653 -27q-173 0 -308 72t-210.5 204t-75.5 304q0 120 41.5 227t114.5 184.5t177.5 123t225.5 45.5q139 0 248 -48.5t176 -133t101.5 -192.5t34.5 -233q0 -53 -2 -80h-742q23 -89 85.5 -135.5t154.5 -46.5q130 0 246 113l215 -178q-177 -226 -482 -226zM428 645h385
q-11 93 -62 147t-130 54q-75 0 -126.5 -54.5t-66.5 -146.5zM225 1202v293h338v-293h-338zM674 1202v293h338v-293h-338z" />
    <glyph glyph-name="afii10099" unicode="&#x452;" horiz-adv-x="1298" 
d="M825 -29q-120 0 -219 29l21 313q10 -2 30 -2q71 0 113.5 49t42.5 138t-42.5 137.5t-113.5 48.5q-73 0 -118 -49t-45 -137v-498h-390v1108h-129v262h129v125h390v-125h321v-262h-321v-254q138 176 331 176q177 0 277 -108.5t100 -298.5v-244q0 -190 -100.5 -299
t-276.5 -109z" />
    <glyph glyph-name="afii10100" unicode="&#x453;" horiz-adv-x="960" 
d="M104 0v1108h836v-313h-446v-795h-390zM295 1202l213 379l362 -117l-301 -262h-274z" />
    <glyph glyph-name="afii10101" unicode="&#x454;" horiz-adv-x="1142" 
d="M639 -27q-163 0 -297 78.5t-208.5 211.5t-74.5 290q0 156 74.5 287.5t211.5 210.5t308 79q303 0 459 -227l-231 -190q-85 110 -226 110q-75 0 -133 -43.5t-86 -115.5h301v-224h-301q27 -73 86 -116t137 -43q69 0 120.5 27t101.5 83l241 -178q-171 -240 -483 -240z" />
    <glyph glyph-name="afii10102" unicode="&#x455;" horiz-adv-x="1052" 
d="M545 -25q-297 0 -525 164l146 236q192 -127 381 -127q98 0 98 63q0 30 -40 49.5t-138 45.5q-74 20 -126 38t-106 48t-86.5 65t-53.5 88t-21 119q0 173 123 269.5t321 96.5q122 0 242 -34t215 -95l-133 -245q-86 47 -174 74.5t-154 27.5q-44 0 -67 -15t-23 -42
q0 -30 39.5 -49.5t140.5 -49.5q74 -21 126 -40t106 -49t86.5 -65t53.5 -86.5t21 -115.5q0 -179 -122 -275t-330 -96z" />
    <glyph glyph-name="afii10103" unicode="&#x456;" horiz-adv-x="614" 
d="M113 0v1108h389v-1108h-389zM104 1208v287h406v-287h-406z" />
    <glyph glyph-name="afii10104" unicode="&#x457;" horiz-adv-x="614" 
d="M-86 1202v293h338v-293h-338zM362 1202v293h338v-293h-338zM113 0v1108h389v-1108h-389z" />
    <glyph glyph-name="afii10105" unicode="&#x458;" horiz-adv-x="618" 
d="M106 -334q-42 0 -159 15v258q16 -2 51 -2q59 0 87 29.5t28 99.5v1042h389v-1059q0 -204 -99.5 -293.5t-296.5 -89.5zM104 1208v287h406v-287h-406z" />
    <glyph glyph-name="afii10106" unicode="&#x459;" horiz-adv-x="1888" 
d="M813 0v799h-205v-29q0 -196 -21 -338.5t-56 -227.5t-90.5 -134.5t-113 -66.5t-134.5 -17q-79 0 -173 16l17 301q43 -6 63 -6q18 0 30.5 3t29 16t27.5 37t23 68t19.5 106t12 155.5t4.5 212.5v213h956v-348h189q204 0 330 -97.5t126 -279.5q0 -179 -119 -281t-321 -102
h-594zM1202 274h121q71 0 110.5 31t39.5 90q0 54 -40 84.5t-110 30.5h-121v-236z" />
    <glyph glyph-name="afii10107" unicode="&#x45a;" horiz-adv-x="1888" 
d="M104 0v1108h390v-352h319v352h389v-352h178q137 0 240.5 -39.5t165 -125.5t61.5 -210q0 -181 -121 -281t-329 -100h-584v463h-319v-463h-390zM1202 279h121q150 0 150 110q0 105 -150 105h-121v-215z" />
    <glyph glyph-name="afii10108" unicode="&#x45b;" horiz-adv-x="1298" 
d="M104 0v1108h-129v262h129v125h390v-125h321v-262h-321v-254q138 176 331 176q177 0 277 -108.5t100 -298.5v-623h-389v498q0 89 -42.5 137.5t-113.5 48.5q-73 0 -118 -49t-45 -137v-498h-390z" />
    <glyph glyph-name="afii10109" unicode="&#x45c;" horiz-adv-x="1234" 
d="M104 0v1108h390v-412l301 412h440l-379 -455l389 -653h-428l-211 354l-112 -135v-219h-390zM432 1202l213 379l363 -117l-301 -262h-275z" />
    <glyph glyph-name="afii10110" unicode="&#x45e;" horiz-adv-x="1282" 
d="M432 -334q-184 0 -356 96l121 273q99 -60 170 -60q58 0 90 45l-434 1088h407l221 -668l209 668h400l-406 -1081q-73 -197 -166 -279t-256 -82zM651 1198q-139 0 -227.5 79.5t-110.5 225.5l203 37q41 -119 135 -119t135 119l203 -37q-22 -146 -110.5 -225.5t-227.5 -79.5z
" />
    <glyph glyph-name="afii10193" unicode="&#x45f;" horiz-adv-x="1290" 
d="M459 -225v225h-355v1108h390v-795h303v795h389v-1108h-359v-225h-368z" />
    <glyph glyph-name="afii10050" unicode="&#x490;" horiz-adv-x="1200" 
d="M127 0v1434h651v286h336l45 -635h-635v-1085h-397z" />
    <glyph glyph-name="afii10098" unicode="&#x491;" horiz-adv-x="960" 
d="M104 0v1108h467v225h332l37 -538h-446v-795h-390z" />
    <glyph glyph-name="endash" unicode="&#x2013;" horiz-adv-x="1081" 
d="M82 473v334h917v-334h-917z" />
    <glyph glyph-name="emdash" unicode="&#x2014;" horiz-adv-x="1839" 
d="M82 473v334h1675v-334h-1675z" />
    <glyph glyph-name="quoteleft" unicode="&#x2018;" horiz-adv-x="581" 
d="M82 702v326q0 217 108 313.5t312 102.5l33 -150q-99 -12 -152 -58t-53 -122v-12h155v-400h-403z" />
    <glyph glyph-name="quoteright" unicode="&#x2019;" horiz-adv-x="581" 
d="M80 692l-33 150q98 11 151.5 57.5t53.5 122.5v12h-156v400h404v-326q0 -217 -108 -313.5t-312 -102.5z" />
    <glyph glyph-name="quotesinglbase" unicode="&#x201a;" horiz-adv-x="581" 
d="M72 -342l-31 149q100 12 152.5 59.5t52.5 125.5v8h-158v399h406v-325q0 -217 -109 -313.5t-313 -102.5z" />
    <glyph glyph-name="quotedblleft" unicode="&#x201c;" horiz-adv-x="1120" 
d="M82 702v326q0 214 107 312t309 104l30 -150q-198 -24 -198 -178v-14h151v-400h-399zM625 702v326q0 214 107 312t308 104l33 -150q-201 -24 -201 -182v-10h152v-400h-399z" />
    <glyph glyph-name="quotedblright" unicode="&#x201d;" horiz-adv-x="1120" 
d="M80 692l-33 150q99 10 150 57t51 125v10h-152v400h400v-326q0 -215 -107 -312.5t-309 -103.5zM625 692l-33 150q99 10 150 57t51 125v10h-154v400h399v-326q0 -215 -106 -312.5t-307 -103.5z" />
    <glyph glyph-name="quotedblbase" unicode="&#x201e;" horiz-adv-x="1118" 
d="M72 -342l-31 149q199 24 199 179v14h-152v399h399v-325q0 -215 -106.5 -312.5t-308.5 -103.5zM616 -342l-30 149q198 24 198 179v14h-151v399h399v-325q0 -215 -107 -312.5t-309 -103.5z" />
    <glyph glyph-name="dagger" unicode="&#x2020;" horiz-adv-x="839" 
d="M317 457l21 553l-256 -27v213l254 -27l-31 265h230l-31 -265l254 27v-213l-256 27l20 -553h-205z" />
    <glyph glyph-name="daggerdbl" unicode="&#x2021;" horiz-adv-x="880" 
d="M326 0l30 264l-254 -26v213l258 -27l-26 293l26 293l-258 -27v213l254 -27l-30 265h229l-31 -265l254 27v-213l-258 27l27 -293l-27 -293l258 27v-213l-254 26l31 -264h-229z" />
    <glyph glyph-name="bullet" unicode="&#x2022;" 
d="M512 375q-143 0 -244.5 101t-101.5 247q0 142 101.5 243t244.5 101t244.5 -101t101.5 -247q0 -142 -101.5 -243t-244.5 -101z" />
    <glyph glyph-name="ellipsis" unicode="&#x2026;" horiz-adv-x="1720" 
d="M88 0v393h397v-393h-397zM662 0v393h397v-393h-397zM1235 0v393h397v-393h-397z" />
    <glyph glyph-name="perthousand" unicode="&#x2030;" horiz-adv-x="2652" 
d="M229 0l1106 1434h277l-1106 -1434h-277zM1399 -20q-163 0 -266 112t-103 275q0 162 103 273.5t268 111.5q164 0 266 -111t102 -276q0 -160 -104 -272.5t-266 -112.5zM1401 205q52 0 85.5 45.5t33.5 116.5q0 69 -34 114t-87 45q-55 0 -87 -44t-32 -117q0 -67 35 -113.5
t86 -46.5zM2210 -20q-163 0 -266 112t-103 275q0 162 103 273.5t268 111.5q164 0 266 -111t102 -276q0 -160 -104 -272.5t-266 -112.5zM2212 205q52 0 85.5 45.5t33.5 116.5q0 69 -34 114t-87 45q-55 0 -87 -44t-32 -117q0 -67 35 -113.5t86 -46.5zM440 682
q-163 0 -265.5 111.5t-102.5 275.5q0 162 102.5 273.5t267.5 111.5q164 0 266.5 -112t102.5 -275q0 -162 -104 -273.5t-267 -111.5zM442 907q52 0 85.5 45.5t33.5 116.5q0 68 -34.5 114t-86.5 46q-53 0 -85.5 -45.5t-32.5 -116.5q0 -69 34.5 -114.5t85.5 -45.5z" />
    <glyph glyph-name="guilsinglleft" unicode="&#x2039;" horiz-adv-x="731" 
d="M389 61l-328 439v98l328 438l281 -137l-267 -350l267 -348z" />
    <glyph glyph-name="guilsinglright" unicode="&#x203a;" horiz-adv-x="731" 
d="M342 61l-281 138l267 350l-267 348l281 139l328 -438v-98z" />
    <glyph glyph-name="fraction" unicode="&#x2044;" horiz-adv-x="1026" 
d="M-150 -201l955 1753h323l-952 -1753h-326z" />
    <glyph glyph-name="Euro" unicode="&#x20ac;" horiz-adv-x="1396" 
d="M862 -29q-243 0 -404.5 132t-215.5 354h-166v213h139q-2 14 -2 47q0 37 2 55h-139v213h172q27 102 81 188t130.5 151t180.5 101.5t224 36.5q311 0 492 -231l-252 -236q-99 127 -238 127q-76 0 -133 -37.5t-90 -105.5h320v-207h-365q-2 -16 -2 -55q0 -31 2 -47h365v-207
h-324q73 -152 235 -152q74 0 130.5 34t111.5 101l246 -231q-188 -244 -500 -244z" />
    <glyph glyph-name="afii61352" unicode="&#x2116;" horiz-adv-x="2248" 
d="M127 0v1434h371l446 -717v717h414v-1434h-348l-469 745v-745h-414zM1528 225v240h618v-240h-618zM1835 559q-145 0 -236.5 99t-91.5 243q0 148 91 248t239 100q146 0 237 -99.5t91 -242.5q0 -147 -92.5 -247.5t-237.5 -100.5zM1837 760q44 0 73 41t29 104q0 60 -30 102
t-74 42q-45 0 -73.5 -41t-28.5 -105q0 -61 30 -102t74 -41z" />
    <glyph glyph-name="published" unicode="&#x2117;" horiz-adv-x="1699" 
d="M848 -29q-153 0 -290.5 59.5t-235.5 160t-155.5 238t-57.5 288.5q0 149 58 286t157 238t237 161t291 60t290.5 -59.5t235.5 -159.5t155.5 -237.5t57.5 -288.5q0 -149 -58 -286.5t-157 -238t-237 -161t-291 -60.5zM848 53q138 0 260.5 53t209 143t137 213t50.5 259
q0 179 -84.5 330t-235 240t-333.5 89q-138 0 -260.5 -53t-209 -142.5t-137 -212.5t-50.5 -259q0 -134 50 -255.5t136 -210.5t208 -141.5t259 -52.5zM559 336v788h338q153 0 241.5 -74t88.5 -208q0 -133 -94 -207t-244 -74h-109v-225h-221zM780 733h101q59 0 92 28t33 77
q0 50 -33 76t-92 26h-101v-207z" />
    <glyph glyph-name="trademark" unicode="&#x2122;" horiz-adv-x="1423" 
d="M221 803v477h-188v154h553v-154h-189v-477h-176zM684 803v631h186l150 -244l151 244h185v-631h-174v368l-160 -249h-6l-160 249v-368h-172z" />
    <glyph glyph-name="partialdiff" unicode="&#x2202;" 
d="M0 0v1434h1024v-1434h-1024zM166 100h694l-348 523zM100 197l351 520l-351 520v-1040zM922 197v1040l-351 -520zM512 809l348 522h-694z" />
    <glyph glyph-name="Delta" unicode="&#x2206;" horiz-adv-x="1556" 
d="M12 0l582 1434h369l581 -1434h-1532zM582 348h401l-201 600z" />
    <glyph glyph-name="product" unicode="&#x220f;" 
d="M0 0v1434h1024v-1434h-1024zM166 100h694l-348 523zM100 197l351 520l-351 520v-1040zM922 197v1040l-351 -520zM512 809l348 522h-694z" />
    <glyph glyph-name="summation" unicode="&#x2211;" 
d="M0 0v1434h1024v-1434h-1024zM166 100h694l-348 523zM100 197l351 520l-351 520v-1040zM922 197v1040l-351 -520zM512 809l348 522h-694z" />
    <glyph glyph-name="minus" unicode="&#x2212;" horiz-adv-x="1310" 
d="M152 551v342h1005v-342h-1005z" />
    <glyph glyph-name="radical" unicode="&#x221a;" horiz-adv-x="1220" 
d="M578 -262l-367 719h-217v241h358l197 -379l549 1315h274z" />
    <glyph glyph-name="infinity" unicode="&#x221e;" horiz-adv-x="1820" 
d="M518 276q-195 0 -310.5 127.5t-115.5 325.5q0 195 111 316.5t305 121.5q70 0 128 -18.5t106.5 -57.5t84.5 -79t82 -103q44 63 80.5 105t85.5 79.5t107.5 55.5t130.5 18q194 0 305 -121.5t111 -316.5q0 -197 -111 -325t-305 -128q-124 0 -221 64t-183 178
q-41 -55 -79 -95.5t-86 -75.5t-105 -53t-121 -18zM512 559q123 0 236 160q-47 67 -110.5 117.5t-127.5 50.5q-67 0 -107.5 -48.5t-40.5 -117.5q0 -71 40.5 -116.5t109.5 -45.5zM1309 559q71 0 110 46t39 118q0 70 -43 117t-112 47q-113 0 -232 -168q113 -160 238 -160z" />
    <glyph glyph-name="integral" unicode="&#x222b;" 
d="M0 0v1434h1024v-1434h-1024zM166 100h694l-348 523zM100 197l351 520l-351 520v-1040zM922 197v1040l-351 -520zM512 809l348 522h-694z" />
    <glyph glyph-name="approxequal" unicode="&#x2248;" horiz-adv-x="1310" 
d="M276 250l-202 53q8 68 32 134.5t63 124.5t97.5 94t126.5 36q67 0 165 -30t187 -60.5t136 -30.5q50 0 85.5 30.5t51.5 78.5l203 -51q-10 -70 -33 -135.5t-61 -124.5t-96.5 -95t-129.5 -36q-62 0 -166 30.5t-198 61t-131 30.5q-43 0 -79.5 -33t-50.5 -77zM276 764l-202 53
q8 68 32 134.5t63 124.5t97.5 94t126.5 36q67 0 165 -30t187 -60.5t136 -30.5q50 0 85.5 30.5t51.5 78.5l203 -51q-10 -70 -33 -135.5t-61 -124.5t-96.5 -95t-129.5 -36q-62 0 -166 30.5t-198 61t-131 30.5q-43 0 -79.5 -33t-50.5 -77z" />
    <glyph glyph-name="notequal" unicode="&#x2260;" horiz-adv-x="1308" 
d="M471 -23l-283 140l78 157h-114v342h282l103 209h-385v342h553l147 297l281 -139l-78 -158h102v-342h-270l-103 -209h373v-342h-541z" />
    <glyph glyph-name="lessequal" unicode="&#x2264;" horiz-adv-x="1310" 
d="M156 -33v322h1005v-322h-1005zM1159 338l-1001 344v362l1001 345v-363l-670 -162l670 -162v-364z" />
    <glyph glyph-name="greaterequal" unicode="&#x2265;" horiz-adv-x="1310" 
d="M158 -33v322h1005v-322h-1005zM160 338v364l669 162l-669 162v363l1001 -345v-362z" />
    <glyph glyph-name="lozenge" unicode="&#x25ca;" horiz-adv-x="1310" 
d="M508 -72l-397 801l401 801h287l401 -801l-401 -801h-291zM655 256l213 473l-213 473l-215 -473z" />
    <glyph glyph-name="cyrBreve" unicode="&#xf6d1;" 
d="M512 1198q-148 0 -242.5 82t-117.5 231l217 39q22 -60 55.5 -91.5t87.5 -31.5q55 0 89 31.5t56 91.5l217 -39q-23 -149 -118 -231t-244 -82z" />
    <glyph glyph-name="cyrbreve" unicode="&#xf6d4;" 
d="M512 1198q-139 0 -227.5 79.5t-110.5 225.5l203 37q41 -119 135 -119t135 119l203 -37q-22 -146 -110.5 -225.5t-227.5 -79.5z" />
    <glyph glyph-name="apple" unicode="&#xf8ff;" 
d="M0 0v1434h1024v-1434h-1024zM166 100h694l-348 523zM100 197l351 520l-351 520v-1040zM922 197v1040l-351 -520zM512 809l348 522h-694z" />
    <glyph glyph-name="ff" unicode="&#xfb00;" horiz-adv-x="1654" 
d="M174 0v797h-129v305h129v24q0 193 94 287q96 96 289 96q152 0 254 -30v-275q-74 23 -145 23q-111 0 -111 -105v-26h254v-299h-248v-797h-387zM1001 0v797h-131v299h131v30q0 192 95 287q93 96 288 96q152 0 254 -30v-275q-74 23 -145 23q-111 0 -111 -105v-26h254v-299
h-247v-797h-388z" />
    <glyph glyph-name="nbspace" horiz-adv-x="567" 
 />
    </font>
</defs>
</svg>
