<?xml version="1.0" standalone="no"?>
<!DOCTYPE svg PUBLIC "-//W3C//DTD SVG 1.1//EN" "http://www.w3.org/Graphics/SVG/1.1/DTD/svg11.dtd" >
<svg xmlns="http://www.w3.org/2000/svg" xmlns:xlink="http://www.w3.org/1999/xlink" version="1.1">
<metadata>
Created by FontForge 20170731 at Mon Dec 19 16:45:35 2022
 By Aleksey,,,
Copyright (c) 2019 by Daniel Hernandez &#38; Rodrigo Fuenzalida. All rights reserved.
</metadata>
<defs>
<font id="Biennale-Light" horiz-adv-x="0" >
  <font-face 
    font-family="Biennale Light"
    font-weight="350"
    font-stretch="normal"
    units-per-em="2048"
    panose-1="0 0 4 0 0 0 0 0 0 0"
    ascent="1638"
    descent="-410"
    x-height="1079"
    cap-height="1423"
    bbox="-1440 -502 4520 1913"
    underline-thickness="102"
    underline-position="-307"
    unicode-range="U+0020-FB02"
  />
<missing-glyph horiz-adv-x="1290" 
d="M205 1495h880v-1495h-880v1495zM338 1423l307 -587l307 587h-614zM600 748l-313 598v-1196zM692 748l312 -598v1196zM645 659l-307 -587h614z" />
    <glyph glyph-name="fi" unicode="fi" horiz-adv-x="976" 
d="M592 1434q-116 0 -183 -72.5t-67 -204.5v-78h471v-1079h-102v989h-369v-989h-100v989h-215v90h215v70q0 176 93 272.5t257 96.5h221v-84h-221z" />
    <glyph glyph-name="fl" unicode="fl" horiz-adv-x="1009" 
d="M844 1497v-1497h-101v1413h-151q-116 0 -183 -72.5t-67 -205.5v-60h250v-86h-250v-989h-100v989h-215v90h215v49q0 174 93.5 271.5t256.5 97.5h252z" />
    <glyph glyph-name=".notdef" horiz-adv-x="1290" 
d="M205 1495h880v-1495h-880v1495zM338 1423l307 -587l307 587h-614zM600 748l-313 598v-1196zM692 748l312 -598v1196zM645 659l-307 -587h614z" />
    <glyph glyph-name=".null" 
 />
    <glyph glyph-name="nonmarkingreturn" horiz-adv-x="682" 
 />
    <glyph glyph-name="space" unicode=" " horiz-adv-x="495" 
 />
    <glyph glyph-name="exclam" unicode="!" horiz-adv-x="471" 
d="M193 387l-19 1110h121l-16 -1110h-86zM236 -18q-39 0 -65 25t-26 63t26.5 64t64.5 26t63 -26t25 -64t-25 -63t-63 -25z" />
    <glyph glyph-name="quotedbl" unicode="&#x22;" horiz-adv-x="581" 
d="M127 1083l-8 381h96l-8 -381h-80zM375 1083l-8 381h96l-8 -381h-80z" />
    <glyph glyph-name="numbersign" unicode="#" horiz-adv-x="1390" 
d="M1329 940h-268l-123 -448h254v-84h-277l-110 -408h-90l110 408h-426l-110 -408h-90l110 408h-248v84h273l121 448h-252v84h276l109 399h88l-109 -399h428l109 399h88l-109 -399h246v-84zM850 492l121 448h-426l-123 -448h428z" />
    <glyph glyph-name="dollar" unicode="$" horiz-adv-x="948" 
d="M864 350q0 -138 -91 -226.5t-247 -103.5v-184h-86v182q-143 8 -243 83t-136 208l93 35q28 -116 111 -178t210 -62q131 0 211 66t80 176q0 62 -22 111t-59.5 81.5t-86 59t-101.5 48.5t-106.5 44t-102 51.5t-86 66.5t-59.5 92.5t-22 125.5q0 129 88.5 213.5t239.5 93.5v185
h86v-185q120 -12 199.5 -76t113.5 -176l-92 -34q-60 202 -275 202q-125 0 -194.5 -59.5t-69.5 -155.5q0 -59 22 -104.5t59.5 -75.5t86 -55t102 -46t107.5 -43.5t102.5 -53.5t86 -70.5t59.5 -99.5t22 -136z" />
    <glyph glyph-name="percent" unicode="%" horiz-adv-x="1497" 
d="M375 788q-136 0 -225 93t-89 231q0 135 89.5 229.5t224.5 94.5q136 0 224.5 -94t88.5 -230q0 -138 -88 -231t-225 -93zM285 0l833 1423h90l-835 -1423h-88zM375 860q101 0 170 72.5t69 179.5q0 104 -69.5 178t-169.5 74q-102 0 -171 -74t-69 -178q0 -107 68.5 -179.5
t171.5 -72.5zM1122 -12q-136 0 -224.5 92.5t-88.5 230.5q0 135 89 229.5t224 94.5t224.5 -94.5t89.5 -229.5q0 -137 -89 -230t-225 -93zM1122 59q101 0 169.5 72.5t68.5 179.5q0 104 -69 178t-169 74q-102 0 -170.5 -74t-68.5 -178q0 -108 68 -180t171 -72z" />
    <glyph glyph-name="ampersand" unicode="&#x26;" horiz-adv-x="1318" 
d="M1253 0h-123l-131 133q-150 -153 -417 -153q-131 0 -242.5 52.5t-178.5 148.5t-67 214q0 98 35.5 177t88 129t130.5 96q-64 75 -91.5 144t-27.5 157q0 143 105.5 241.5t277.5 98.5t278 -89.5t130 -240.5h-109q-20 104 -96.5 168.5t-202.5 64.5q-124 0 -201 -74t-77 -175
q0 -44 10 -82.5t24 -69t46.5 -72t61 -72.5t83.5 -89l434 -443q61 72 101 195.5t41 265.5l98 -39q-3 -159 -50 -286.5t-120 -204.5zM582 72q221 0 350 129l-465 467l-64 63q-47 -29 -80.5 -58t-64 -68t-46 -90.5t-15.5 -113.5q0 -140 114 -234.5t271 -94.5z" />
    <glyph glyph-name="quotesingle" unicode="'" horiz-adv-x="333" 
d="M127 1083l-8 381h96l-8 -381h-80z" />
    <glyph glyph-name="parenleft" unicode="(" horiz-adv-x="620" 
d="M535 -199q-84 54 -158.5 132.5t-139.5 186.5t-103 252.5t-38 305.5t38 305.5t103 252t139.5 186t158.5 132.5l61 -71q-78 -51 -146 -124.5t-126.5 -172.5t-92.5 -230.5t-34 -277.5t34 -277.5t92.5 -230.5t126.5 -172.5t146 -124.5z" />
    <glyph glyph-name="parenright" unicode=")" horiz-adv-x="620" 
d="M88 -199l-63 72q78 51 146 124.5t126.5 172.5t92.5 230.5t34 277.5t-34 277.5t-92.5 230.5t-126.5 172.5t-146 124.5l63 71q83 -54 157 -132.5t138.5 -186t102.5 -252t38 -305.5t-38 -305.5t-102.5 -252.5t-138.5 -186.5t-157 -132.5z" />
    <glyph glyph-name="asterisk" unicode="*" horiz-adv-x="819" 
d="M365 836l12 258l-223 -142l-45 82l245 125l-245 123l45 82l223 -143l-12 276h92l-15 -276l224 143l45 -82l-244 -123l244 -125l-45 -82l-224 142l15 -258h-92z" />
    <glyph glyph-name="plus" unicode="+" horiz-adv-x="987" 
d="M922 668v-93h-381v-423h-95v423h-380v93h380v403h95v-403h381z" />
    <glyph glyph-name="comma" unicode="," horiz-adv-x="378" 
d="M190 160q38 0 63.5 -26t25.5 -66q0 -42 -33 -107l-74 -149h-74l86 172q-37 2 -60.5 25t-23.5 61q0 39 25.5 64.5t64.5 25.5z" />
    <glyph glyph-name="hyphen" unicode="-" horiz-adv-x="761" 
d="M135 477v86h492v-86h-492z" />
    <glyph glyph-name="period" unicode="." horiz-adv-x="393" 
d="M197 -18q-38 0 -63 25t-25 63t25 64t63 26t63 -26t25 -64t-25 -63t-63 -25z" />
    <glyph glyph-name="slash" unicode="/" horiz-adv-x="657" 
d="M84 -102l393 1558h94l-393 -1558h-94z" />
    <glyph glyph-name="zero" unicode="0" horiz-adv-x="1400" 
d="M702 -20q-271 0 -430 195.5t-159 535.5q0 341 158.5 535t430.5 194q271 0 428.5 -194.5t157.5 -534.5q0 -339 -157.5 -535t-428.5 -196zM702 78q219 0 350.5 169.5t131.5 461.5q0 293 -131.5 462.5t-350.5 169.5q-222 0 -353.5 -168.5t-131.5 -463.5q0 -294 131.5 -462.5
t353.5 -168.5z" />
    <glyph glyph-name="one" unicode="1" horiz-adv-x="684" 
d="M434 88h205v-88h-549v88h244v1057h-238v88h238v190h100v-1335z" />
    <glyph glyph-name="two" unicode="2" horiz-adv-x="1071" 
d="M231 90h750v-90h-899v68l536 573q43 45 75 83.5t72.5 97t62.5 122t22 125.5q0 124 -87.5 203.5t-227.5 79.5q-126 0 -222.5 -68.5t-130.5 -193.5l-98 32q41 147 163.5 233.5t287.5 86.5q186 0 301.5 -103.5t115.5 -267.5q0 -57 -16 -115.5t-40 -106t-60 -98t-68 -86.5
t-72 -77z" />
    <glyph glyph-name="three" unicode="3" horiz-adv-x="1120" 
d="M584 823q189 0 311.5 -115t122.5 -298q0 -186 -131 -309.5t-342 -123.5q-181 0 -312.5 88.5t-169.5 223.5l95 37q32 -111 136.5 -183.5t248.5 -72.5q168 0 268 97t100 249t-101.5 243t-246.5 91h-147v73l465 514h-760v86h876v-84l-465 -516h52z" />
    <glyph glyph-name="four" unicode="4" horiz-adv-x="1163" 
d="M1102 449v-84h-199v-365h-100v365h-762v67l762 989h100v-972h199zM803 449v833l-643 -833h643z" />
    <glyph glyph-name="five" unicode="5" horiz-adv-x="1097" 
d="M532 850q212 0 345 -121t133 -313q0 -194 -133 -316.5t-347 -122.5q-172 0 -294 84t-168 234l94 37q34 -122 133 -192t235 -70q166 0 270.5 97t104.5 249q0 151 -105.5 249.5t-269.5 98.5h-344l35 659h711v-84h-621l-28 -489h249z" />
    <glyph glyph-name="six" unicode="6" horiz-adv-x="1134" 
d="M578 934q208 0 345.5 -133.5t137.5 -341.5q0 -209 -138 -345.5t-345 -136.5q-212 0 -355 138t-143 342q0 181 123 336l495 630h123l-407 -516q85 27 164 27zM578 70q164 0 271 109t107 278t-107 279t-271 110q-168 0 -281 -111t-113 -278q0 -165 113 -276t281 -111z" />
    <glyph glyph-name="seven" unicode="7" horiz-adv-x="956" 
d="M29 1423h882v-82l-528 -1341h-113l527 1333h-768v90z" />
    <glyph glyph-name="eight" unicode="8" horiz-adv-x="1128" 
d="M721 764q124 -35 211.5 -139t87.5 -248q0 -173 -128.5 -286.5t-326.5 -113.5q-199 0 -327.5 113t-128.5 287q0 145 86 248.5t208 138.5q-103 36 -170 121t-67 205q0 150 111 250t288 100q174 0 286 -100t112 -253q0 -119 -67.5 -203t-174.5 -120zM266 1079
q0 -116 84.5 -195t214.5 -79q129 0 213 79t84 195q0 118 -82.5 195.5t-214.5 77.5q-133 0 -216 -77.5t-83 -195.5zM565 66q160 0 256.5 90.5t96.5 232.5q0 144 -98.5 238t-254.5 94q-157 0 -255.5 -94t-98.5 -238q0 -142 96 -232.5t258 -90.5z" />
    <glyph glyph-name="nine" unicode="9" horiz-adv-x="1128" 
d="M557 1446q211 0 354.5 -137.5t143.5 -341.5q0 -178 -125 -336l-494 -631h-123l408 518q-83 -29 -164 -29q-210 0 -346.5 133.5t-136.5 342.5q0 210 137.5 345.5t345.5 135.5zM557 578q168 0 280.5 111t112.5 278q0 166 -113 276.5t-280 110.5q-164 0 -271.5 -109
t-107.5 -278t107.5 -279t271.5 -110z" />
    <glyph glyph-name="colon" unicode=":" horiz-adv-x="446" 
d="M223 748q-38 0 -63 25t-25 63t25 64t63 26t63 -26t25 -64t-25 -63t-63 -25zM223 -18q-38 0 -63 25t-25 63t25 64t63 26t63 -26t25 -64t-25 -63t-63 -25z" />
    <glyph glyph-name="semicolon" unicode=";" horiz-adv-x="450" 
d="M225 731q-38 0 -64 25t-26 63t26 64t64 26t63 -26t25 -64t-25 -63t-63 -25zM227 160q39 0 64.5 -25.5t25.5 -66.5q0 -39 -32 -107l-74 -149h-74l86 172q-36 2 -60 25.5t-24 60.5q0 39 25.5 64.5t62.5 25.5z" />
    <glyph glyph-name="less" unicode="&#x3c;" horiz-adv-x="827" 
d="M719 1053v-101l-551 -362l551 -363v-102l-651 424v80z" />
    <glyph glyph-name="equal" unicode="=" horiz-adv-x="1136" 
d="M143 786v93h850v-93h-850zM143 303v92h850v-92h-850z" />
    <glyph glyph-name="greater" unicode="&#x3e;" horiz-adv-x="827" 
d="M109 1053l653 -424v-80l-653 -424v100l550 363l-550 362v103z" />
    <glyph glyph-name="question" unicode="?" horiz-adv-x="882" 
d="M317 387v96q0 76 21 140t55 109.5t75 85.5t82.5 77t75.5 75.5t55 89.5t21 111q0 119 -67.5 183.5t-185.5 64.5q-110 0 -190 -69.5t-101 -175.5l-99 28q26 141 136 228.5t260 87.5q166 0 260 -90t94 -248q0 -70 -22 -129.5t-57 -102.5t-77.5 -83t-85.5 -79t-78 -81
t-57 -99t-22 -123v-96h-93zM369 -18q-38 0 -63 25t-25 63t25 64t63 26t64 -26t26 -64t-26 -63t-64 -25z" />
    <glyph glyph-name="at" unicode="@" horiz-adv-x="1599" 
d="M1051 817h69v-481q0 -117 107 -117q90 0 143 68.5t53 197.5q0 174 -80 317.5t-223.5 226.5t-320.5 83q-178 0 -322.5 -82.5t-225.5 -227t-81 -323.5q0 -284 176.5 -454t462.5 -170q126 0 227 40.5t156 116.5l51 -53q-65 -84 -179.5 -131t-254.5 -47q-325 0 -521 192
t-196 506q0 202 89 362.5t250.5 251.5t367.5 91q205 0 366 -92t248.5 -251t87.5 -356q0 -154 -78 -248t-196 -94q-77 0 -123.5 41.5t-52.5 118.5q-38 -82 -111.5 -129t-175.5 -47q-141 0 -235.5 101t-94.5 251t95 252.5t235 102.5q99 0 173.5 -47.5t113.5 -131.5v162z
M774 203q116 0 189 77.5t73 198.5q0 123 -72.5 201t-189.5 78q-108 0 -183 -79.5t-75 -199.5t73.5 -198t184.5 -78z" />
    <glyph glyph-name="A" unicode="A" horiz-adv-x="1249" 
d="M1120 0l-176 465h-639l-176 -465h-102l536 1423h121l539 -1423h-103zM338 551h573l-286 760z" />
    <glyph glyph-name="B" unicode="B" horiz-adv-x="1257" 
d="M862 754q139 -36 216 -130.5t77 -234.5q0 -182 -117.5 -285.5t-328.5 -103.5h-521v1423h527q192 0 291.5 -94.5t99.5 -251.5q0 -115 -66.5 -200t-177.5 -123zM1006 1063q0 124 -78 199t-223 75h-416v-549h405q132 0 222 75.5t90 199.5zM700 86q169 0 262 81.5t93 227.5
q0 143 -97 224t-260 81h-409v-614h411z" />
    <glyph glyph-name="C" unicode="C" horiz-adv-x="1488" 
d="M803 -23q-149 0 -279.5 54.5t-223.5 150.5t-146.5 233t-53.5 296q0 212 91 380.5t249.5 261.5t354.5 93q237 0 394 -118.5t234 -326.5l-98 -40q-68 186 -201 286.5t-331 100.5q-166 0 -300 -80t-211 -226t-77 -331q0 -279 169 -457t427 -178q384 0 524 387l98 -41
q-164 -445 -620 -445z" />
    <glyph glyph-name="D" unicode="D" horiz-adv-x="1464" 
d="M682 1423q194 0 348 -87.5t243 -250t89 -372.5q0 -158 -51.5 -291.5t-142 -226t-216 -144t-270.5 -51.5h-494v1423h494zM680 92q165 0 295.5 76t206 218t75.5 327q0 275 -163.5 446.5t-413.5 171.5h-391v-1239h391z" />
    <glyph glyph-name="E" unicode="E" horiz-adv-x="1132" 
d="M289 90h764v-90h-865v1423h850v-90h-749v-545h686v-90h-686v-608z" />
    <glyph glyph-name="F" unicode="F" horiz-adv-x="1087" 
d="M1036 1333h-747v-547h682v-92h-682v-694h-101v1423h848v-90z" />
    <glyph glyph-name="G" unicode="G" horiz-adv-x="1570" 
d="M1485 723q0 -165 -52.5 -305.5t-144.5 -236.5t-219.5 -150t-273.5 -54q-196 0 -354.5 93.5t-248.5 261.5t-90 379q0 159 52.5 296.5t144.5 233.5t220.5 150.5t275.5 54.5q234 0 391 -116t235 -322l-98 -41q-69 187 -203 284t-327 97q-125 0 -233 -47t-186 -130
t-122.5 -202.5t-44.5 -259.5q0 -280 167.5 -458.5t426.5 -178.5q237 0 397.5 155t185.5 414h-591v82h692z" />
    <glyph glyph-name="H" unicode="H" horiz-adv-x="1400" 
d="M1112 1423h102v-1423h-102v698h-823v-698h-101v1423h101v-632h823v632z" />
    <glyph glyph-name="I" unicode="I" horiz-adv-x="477" 
d="M188 0v1423h101v-1423h-101z" />
    <glyph glyph-name="J" unicode="J" horiz-adv-x="657" 
d="M31 0v90h102q115 0 181.5 73.5t66.5 205.5v1054h100v-1054q0 -174 -91.5 -271.5t-252.5 -97.5h-106z" />
    <glyph glyph-name="K" unicode="K" horiz-adv-x="1216" 
d="M1233 0h-131l-813 719v-719h-101v1423h101v-649l733 649h125l-750 -673z" />
    <glyph glyph-name="L" unicode="L" horiz-adv-x="1069" 
d="M289 92h751v-92h-852v1423h101v-1331z" />
    <glyph glyph-name="M" unicode="M" horiz-adv-x="1683" 
d="M1540 0h-96l-82 1266l-475 -1203h-88l-475 1203l-82 -1266h-97l91 1423h98v-2l16 2l494 -1241l491 1241l17 -2v2h96z" />
    <glyph glyph-name="N" unicode="N" horiz-adv-x="1400" 
d="M1112 1423h102v-1423h-86l-839 1245v-1245h-101v1423h86l838 -1243v1243z" />
    <glyph glyph-name="O" unicode="O" horiz-adv-x="1609" 
d="M805 -23q-199 0 -360 93.5t-253 261.5t-92 379q0 212 92 380t252.5 261.5t360.5 93.5q199 0 359.5 -93.5t252.5 -262t92 -379.5q0 -210 -92 -378.5t-253 -262t-359 -93.5zM805 76q259 0 429.5 178.5t170.5 456.5q0 184 -78 330t-215 226.5t-307 80.5q-171 0 -308 -80.5
t-214.5 -226t-77.5 -330.5q0 -184 77.5 -329t214.5 -225.5t308 -80.5z" />
    <glyph glyph-name="P" unicode="P" horiz-adv-x="1193" 
d="M686 1423q205 0 324.5 -106.5t119.5 -288.5q0 -181 -120 -288t-324 -107h-397v-633h-101v1423h498zM682 725q163 0 253.5 82t90.5 221t-90.5 222t-253.5 83h-393v-608h393z" />
    <glyph glyph-name="Q" unicode="Q" horiz-adv-x="1609" 
d="M1509 711q0 -212 -92.5 -379.5t-253.5 -259.5l297 -291l-69 -76l-326 320q-124 -48 -260 -48q-199 0 -360 93.5t-253 261.5t-92 379q0 212 92 380t252.5 261.5t360.5 93.5q199 0 359.5 -93.5t252.5 -262t92 -379.5zM205 711q0 -184 77.5 -329t214.5 -225.5t308 -80.5
q259 0 429.5 178.5t170.5 456.5q0 184 -78 330t-215 226.5t-307 80.5q-171 0 -308 -80.5t-214.5 -226t-77.5 -330.5z" />
    <glyph glyph-name="R" unicode="R" horiz-adv-x="1214" 
d="M686 666h-115l559 -666h-120l-553 666h-168v-666h-101v1423h498q204 0 324 -104.5t120 -274.5t-120.5 -274t-323.5 -104zM289 1333v-588h395q163 0 253.5 80t90.5 213q0 132 -91 213.5t-253 81.5h-395z" />
    <glyph glyph-name="S" unicode="S" horiz-adv-x="1091" 
d="M541 -18q-184 0 -307 84.5t-166 238.5l98 37q32 -128 131 -198t248 -70q158 0 253 73t95 197q0 70 -26 124.5t-70 91t-101 66t-120 54l-126 49t-120 57t-101 73.5t-70 102t-26 139q0 152 114 247t304 95q168 0 275 -72.5t149 -208.5l-98 -37q-37 117 -118 172.5
t-212 55.5q-145 0 -228 -67t-83 -173q0 -66 26 -117t70 -85t101 -62t120 -51.5t126.5 -48.5t120.5 -59.5t101 -78t70 -110t26 -150.5q0 -168 -125.5 -268t-330.5 -100z" />
    <glyph glyph-name="T" unicode="T" horiz-adv-x="1085" 
d="M1057 1423v-92h-463v-1331h-102v1331h-463v92h1028z" />
    <glyph glyph-name="U" unicode="U" horiz-adv-x="1370" 
d="M1098 1423h100v-909q0 -88 -20 -167.5t-61.5 -147t-101.5 -117t-144 -77.5t-185 -28q-126 0 -225.5 42.5t-161.5 116.5t-94.5 170t-32.5 208v909h102v-907q0 -126 44.5 -224t139 -158t228.5 -60q197 0 304.5 125t107.5 317v907z" />
    <glyph glyph-name="V" unicode="V" horiz-adv-x="1257" 
d="M1126 1423h107l-543 -1423h-123l-542 1423h104l500 -1302z" />
    <glyph glyph-name="W" unicode="W" horiz-adv-x="1742" 
d="M1595 1423h103l-350 -1423h-109l-367 1280l-368 -1280h-109l-350 1423h100l308 -1278l364 1278h109l364 -1282z" />
    <glyph glyph-name="X" unicode="X" horiz-adv-x="1232" 
d="M1221 0h-119l-490 657l-483 -657h-119l545 733l-514 692h119l463 -620l452 620h117l-512 -698z" />
    <glyph glyph-name="Y" unicode="Y" horiz-adv-x="1214" 
d="M1194 1423l-537 -837v-586h-100v592l-532 831h114l471 -747l469 747h115z" />
    <glyph glyph-name="Z" unicode="Z" horiz-adv-x="1087" 
d="M1040 92l2 -92h-993v74l850 1259h-827v90h952v-75l-850 -1256h866z" />
    <glyph glyph-name="bracketleft" unicode="[" horiz-adv-x="573" 
d="M530 1464h-247v-1573h247v-90h-346v1753h346v-90z" />
    <glyph glyph-name="backslash" unicode="\" horiz-adv-x="657" 
d="M479 -102l-395 1558h94l397 -1558h-96z" />
    <glyph glyph-name="bracketright" unicode="]" horiz-adv-x="573" 
d="M45 1554h346v-1753h-346v90h246v1573h-246v90z" />
    <glyph glyph-name="asciicircum" unicode="^" horiz-adv-x="886" 
d="M797 793h-105l-254 432l-241 -432h-103l307 540h70z" />
    <glyph glyph-name="underscore" unicode="_" horiz-adv-x="958" 
d="M49 -137v86h858v-86h-858z" />
    <glyph glyph-name="grave" unicode="`" horiz-adv-x="524" 
d="M459 1247l-398 234l48 75l393 -241z" />
    <glyph glyph-name="a" unicode="a" horiz-adv-x="1325" 
d="M1063 1079h96v-1079h-96v262q-61 -133 -177.5 -209t-267.5 -76q-228 0 -378 161t-150 403q0 239 150.5 397t377.5 158q152 0 268 -74t177 -205v262zM627 70q191 0 312.5 132t121.5 339t-121 338t-313 131q-186 0 -310 -134.5t-124 -334.5q0 -203 123.5 -337t310.5 -134z
" />
    <glyph glyph-name="b" unicode="b" horiz-adv-x="1325" 
d="M707 1100q149 0 270 -73t189.5 -201t68.5 -285q0 -242 -151 -403t-379 -161q-150 0 -266.5 75.5t-178.5 207.5v-260h-94v1497h100v-663q64 125 179 195.5t262 70.5zM698 70q187 0 311 134t124 337q0 200 -124.5 334.5t-310.5 134.5q-192 0 -313 -131t-121 -338t121 -339
t313 -132z" />
    <glyph glyph-name="c" unicode="c" horiz-adv-x="1175" 
d="M637 -23q-237 0 -392 159.5t-155 402.5q0 159 70 287.5t194.5 201t278.5 72.5q175 0 302 -91.5t173 -236.5l-92 -37q-40 129 -140.5 201t-240.5 72q-191 0 -316.5 -132t-125.5 -337t125.5 -337t318.5 -132q141 0 243 71.5t142 200.5l92 -37q-46 -145 -173 -236.5
t-304 -91.5z" />
    <glyph glyph-name="d" unicode="d" horiz-adv-x="1325" 
d="M1059 1497h100v-1497h-96v256q-62 -131 -178.5 -205t-266.5 -74q-228 0 -378 161t-150 403q0 240 150 399.5t378 159.5q147 0 262 -71.5t179 -197.5v666zM627 70q191 0 312.5 132t121.5 339t-121 338t-313 131q-186 0 -310 -134.5t-124 -334.5q0 -203 123.5 -337
t310.5 -134z" />
    <glyph glyph-name="e" unicode="e" horiz-adv-x="1212" 
d="M195 512q9 -196 128 -318t302 -122q309 0 399 254l82 -47q-57 -144 -179 -223t-304 -79q-231 0 -382 160t-151 402q0 156 69 285t190.5 202.5t268.5 73.5q148 0 264.5 -71t180 -192.5t63.5 -271.5v-53h-931zM197 596h829q-9 188 -120 302t-285 114t-290.5 -115
t-133.5 -301z" />
    <glyph glyph-name="f" unicode="f" horiz-adv-x="673" 
d="M592 1434q-116 0 -183 -72.5t-67 -204.5v-78h313v-90h-313v-989h-100v989h-215v90h215v70q0 176 93 272.5t257 96.5h70v-84h-70z" />
    <glyph glyph-name="g" unicode="g" horiz-adv-x="1325" 
d="M1065 1079h96v-952q0 -237 -143.5 -376.5t-392.5 -139.5q-193 0 -321 87t-181 249l90 35q43 -138 149.5 -210.5t264.5 -72.5q202 0 320 113.5t118 308.5v153q-61 -131 -176.5 -205.5t-267.5 -74.5q-228 0 -378.5 158t-150.5 395q0 155 68.5 281.5t190 199t270.5 72.5
q151 0 267 -75t177 -206v260zM627 76q190 0 312 131.5t122 335.5t-120.5 335.5t-309.5 131.5q-187 0 -312.5 -133.5t-125.5 -333.5t124 -333.5t310 -133.5z" />
    <glyph glyph-name="h" unicode="h" horiz-adv-x="1257" 
d="M659 1102q213 0 331 -122t118 -331v-649h-102v633q0 179 -96 278.5t-269 98.5q-80 -1 -150.5 -29t-118.5 -73.5t-76.5 -104.5t-29.5 -121v-682h-100v1497h100v-610q50 94 153.5 154.5t239.5 60.5z" />
    <glyph glyph-name="i" unicode="i" horiz-adv-x="432" 
d="M215 1300q-44 0 -74 29.5t-30 73.5t30 74t74 30t74 -30t30 -74t-30 -73.5t-74 -29.5zM166 0v1079h100v-1079h-100z" />
    <glyph glyph-name="j" unicode="j" horiz-adv-x="432" 
d="M217 1300q-45 0 -74.5 28.5t-29.5 72.5t30 74t74 30t74.5 -30t30.5 -74t-30 -72.5t-75 -28.5zM-106 -369v90h22q113 0 181.5 75t68.5 194v1089h102v-1087q0 -164 -95 -262.5t-251 -98.5h-28z" />
    <glyph glyph-name="k" unicode="k" horiz-adv-x="1001" 
d="M1004 0h-123l-615 563v-563h-100v1497h100v-885l590 467h125l-604 -491z" />
    <glyph glyph-name="l" unicode="l" horiz-adv-x="432" 
d="M166 0v1497h100v-1497h-100z" />
    <glyph glyph-name="m" unicode="m" horiz-adv-x="2013" 
d="M1436 1102q197 0 312.5 -121.5t115.5 -318.5v-662h-101v647q0 164 -94 264t-250 99q-76 -1 -142.5 -29t-111.5 -72.5t-71.5 -99t-28.5 -109.5v-700h-100v647q0 164 -94 264t-250 99q-76 -1 -143 -29t-112 -72.5t-71.5 -99t-28.5 -109.5v-700h-100v1079h96v-198
q46 93 146.5 157t232.5 64q148 0 249 -68t144 -192q39 105 146.5 182.5t255.5 77.5z" />
    <glyph glyph-name="n" unicode="n" horiz-adv-x="1257" 
d="M659 1102q213 0 331 -122t118 -331v-649h-102v633q0 179 -96 278.5t-269 98.5q-80 -1 -150.5 -29t-118.5 -73.5t-76.5 -104.5t-29.5 -121v-682h-100v1079h96v-200q49 97 153.5 160t243.5 63z" />
    <glyph glyph-name="o" unicode="o" horiz-adv-x="1277" 
d="M639 -23q-240 0 -394.5 159.5t-154.5 402.5q0 160 69.5 288t195 200.5t284.5 72.5q239 0 394 -159t155 -402q0 -242 -155.5 -402t-393.5 -160zM639 70q197 0 321.5 132.5t124.5 336.5q0 206 -124.5 338.5t-321.5 132.5q-196 0 -321 -132.5t-125 -338.5q0 -203 125 -336
t321 -133z" />
    <glyph glyph-name="p" unicode="p" horiz-adv-x="1325" 
d="M707 1100q228 0 378 -159.5t150 -401.5q0 -158 -68.5 -286.5t-190 -202t-271.5 -73.5q-146 0 -260.5 71.5t-178.5 197.5v-613h-100v1446h94v-260q62 131 179.5 206t267.5 75zM698 70q186 0 310.5 134.5t124.5 334.5q0 203 -124 337t-311 134q-192 0 -313 -132t-121 -339
t121 -338t313 -131z" />
    <glyph glyph-name="q" unicode="q" horiz-adv-x="1325" 
d="M1063 1079h96v-1446h-100v613q-64 -126 -179 -197.5t-262 -71.5q-149 0 -270 73.5t-189.5 202t-68.5 286.5q0 242 150 401.5t378 159.5q149 0 266 -74.5t179 -204.5v258zM627 70q192 0 313 131t121 338t-121.5 339t-312.5 132q-187 0 -310.5 -134t-123.5 -337
q0 -200 124 -334.5t310 -134.5z" />
    <glyph glyph-name="r" unicode="r" horiz-adv-x="659" 
d="M262 885q47 92 145.5 154.5t219.5 62.5v-96q-75 -1 -142.5 -29t-115 -73t-75.5 -103t-28 -117v-684h-100v1079h96v-194z" />
    <glyph glyph-name="s" unicode="s" horiz-adv-x="956" 
d="M483 -23q-162 0 -272 65t-150 183l91 37q30 -96 115.5 -148.5t217.5 -52.5q134 0 214.5 55.5t80.5 155.5q0 57 -28.5 99.5t-75 68t-106 48.5t-122 39.5t-122 42t-106 55.5t-75 81t-28.5 117q0 129 97.5 203t260.5 74q138 0 230.5 -53.5t128.5 -157.5l-89 -35
q-63 166 -270 166q-122 0 -190 -51t-68 -140q0 -54 28.5 -94t75 -63t106.5 -44.5t122 -37t122 -42t106.5 -58t75 -85t28.5 -124.5q0 -142 -109 -223t-289 -81z" />
    <glyph glyph-name="t" unicode="t" horiz-adv-x="714" 
d="M559 0q-157 0 -243.5 90.5t-86.5 249.5v649h-202v90h123q88 0 88 90v183h96v-273h354v-90h-356v-641q0 -124 62.5 -191t178.5 -67h134v-90h-148z" />
    <glyph glyph-name="u" unicode="u" horiz-adv-x="1234" 
d="M969 1079h102v-1079h-98v193q-49 -92 -152 -154t-235 -62q-202 0 -319 121.5t-117 319.5v661h102v-651q0 -164 96 -261.5t258 -96.5q78 1 146.5 28t115 71t73.5 99t28 111v700z" />
    <glyph glyph-name="v" unicode="v" horiz-adv-x="1085" 
d="M954 1079h107l-465 -1079h-107l-464 1079h108l410 -973z" />
    <glyph glyph-name="w" unicode="w" horiz-adv-x="1548" 
d="M1403 1079h110l-305 -1079h-118l-314 958l-311 -958h-121l-305 1079h108l263 -966l309 966h117l307 -962z" />
    <glyph glyph-name="x" unicode="x" horiz-adv-x="1019" 
d="M1006 0h-117l-383 483l-385 -483h-111l439 555l-414 524h117l364 -461l358 461h113l-416 -532z" />
    <glyph glyph-name="y" unicode="y" horiz-adv-x="1087" 
d="M956 1079h107l-623 -1446h-100l158 367h-17l-456 1079h108l408 -983z" />
    <glyph glyph-name="z" unicode="z" horiz-adv-x="925" 
d="M174 86h709v-86h-834v78l684 915h-653v86h776v-82z" />
    <glyph glyph-name="braceleft" unicode="{" horiz-adv-x="581" 
d="M506 -199q-118 0 -193 78t-75 234v319q0 104 -56.5 152.5t-132.5 48.5h-29v90h29q76 0 132.5 47.5t56.5 151.5v319q0 157 75 235t193 78h26v-90h-16q-85 0 -132.5 -59.5t-47.5 -163.5v-317q0 -52 -13 -94t-31.5 -67.5t-44 -44.5t-44 -27t-37.5 -13q19 -5 37.5 -13t44 -27
t44 -44.5t31.5 -67.5t13 -94v-319q0 -102 48 -162t132 -60h16v-90h-26z" />
    <glyph glyph-name="bar" unicode="|" horiz-adv-x="452" 
d="M184 -170v1630h84v-1630h-84z" />
    <glyph glyph-name="braceright" unicode="}" horiz-adv-x="581" 
d="M49 -199v90h19q83 0 130.5 60t47.5 162v319q0 64 18.5 112.5t48.5 74.5t54.5 39t50.5 20q-26 7 -50.5 20t-54.5 39t-48.5 74.5t-18.5 112.5v317q0 104 -47 163.5t-131 59.5h-19v90h27q118 0 193 -78t75 -235v-319q0 -54 17.5 -94.5t46.5 -62.5t60.5 -32t66.5 -10h26v-90
h-26q-76 0 -133.5 -48.5t-57.5 -152.5v-319q0 -156 -75 -234t-193 -78h-27z" />
    <glyph glyph-name="asciitilde" unicode="~" horiz-adv-x="1075" 
d="M723 500q-54 0 -105.5 18t-85 39t-80 39t-92.5 18q-55 0 -102.5 -21.5t-67.5 -57.5l-57 55q30 52 88 83.5t131 31.5q54 0 105.5 -18t85 -39.5t80 -39.5t92.5 -18q55 0 101.5 22t68.5 58l57 -56q-30 -53 -87.5 -83.5t-131.5 -30.5z" />
    <glyph glyph-name="uni00A0" unicode="&#xa0;" horiz-adv-x="495" 
 />
    <glyph glyph-name="exclamdown" unicode="&#xa1;" horiz-adv-x="444" 
d="M221 920q-38 0 -63 26t-25 64t25 63t63 25t64 -25t26 -63t-26 -64t-64 -26zM160 -367l20 1057h86l15 -1057h-121z" />
    <glyph glyph-name="cent" unicode="&#xa2;" horiz-adv-x="1077" 
d="M999 473q-36 -119 -136.5 -198t-241.5 -91v-184h-86v184q-193 15 -316 153t-123 339t123.5 340.5t315.5 152.5v185h86v-185q138 -12 237 -91t137 -197l-90 -37q-35 112 -121.5 173.5t-208.5 61.5q-164 0 -272 -113.5t-108 -289.5q0 -174 109 -288t274 -114q123 0 210 62
t121 172z" />
    <glyph glyph-name="sterling" unicode="&#xa3;" horiz-adv-x="1087" 
d="M338 627v-537h653v-90h-755v627h-168v92h168v254q0 110 46 201t136.5 146.5t208.5 55.5q157 0 254.5 -78.5t136.5 -210.5l-92 -34q-68 231 -295 231q-141 0 -217 -88.5t-76 -222.5v-254h477v-92h-477z" />
    <glyph glyph-name="currency" unicode="&#xa4;" horiz-adv-x="1159" 
d="M1016 676q0 -158 -94 -279l116 -118l-59 -62l-119 119q-122 -98 -280 -98q-159 0 -281 98l-119 -119l-61 62l121 118q-95 122 -95 279q0 159 95 278l-121 121l61 62l119 -119q121 100 281 100q158 0 280 -98l117 117l61 -62l-118 -117q96 -120 96 -282zM580 322
q146 0 245 100t99 254q0 155 -99.5 255.5t-244.5 100.5q-144 0 -243 -100.5t-99 -255.5q0 -153 99 -253.5t243 -100.5z" />
    <glyph glyph-name="yen" unicode="&#xa5;" horiz-adv-x="1138" 
d="M1085 1352l-450 -760h258v-76h-277v-205h277v-73h-277v-238h-100v238h-276v73h276v205h-276v76h264l-451 760h113l403 -701l404 701h112z" />
    <glyph glyph-name="brokenbar" unicode="&#xa6;" horiz-adv-x="452" 
d="M184 817v643h84v-643h-84zM184 -170v643h84v-643h-84z" />
    <glyph glyph-name="section" unicode="&#xa7;" horiz-adv-x="997" 
d="M731 332q129 -80 129 -230q0 -145 -103.5 -226t-267.5 -81q-161 0 -262.5 63t-140.5 183l86 33q65 -201 315 -201q120 0 197.5 58t77.5 161q0 53 -22 93.5t-59.5 67t-86 47.5t-101.5 38t-106.5 34.5t-102 41.5t-86 55t-59.5 78t-22 108q0 95 56 161.5t155 96.5
q-80 39 -123 95t-43 145q0 131 96.5 206t259.5 75q267 0 342 -213l-86 -33q-34 87 -94 126.5t-162 39.5q-124 0 -192 -52t-68 -143q0 -64 35.5 -108.5t92 -70.5t124.5 -46.5t136.5 -45t125 -57t92 -91.5t35.5 -140q0 -194 -168 -268zM215 664q0 -46 19 -82.5t47.5 -59.5
t74.5 -44.5t86 -34t98 -31t95 -33.5q166 44 166 213q0 26 -6 49.5t-14.5 42t-24.5 35.5t-30.5 29.5t-39 26t-42 21.5t-47.5 19t-48.5 17.5t-51.5 17t-51 16.5q-112 -10 -171.5 -63t-59.5 -139z" />
    <glyph glyph-name="dieresis" unicode="&#xa8;" horiz-adv-x="647" 
d="M162 1305q-40 0 -70.5 28.5t-30.5 69.5q0 42 30.5 70t72.5 28q39 0 68.5 -28.5t29.5 -69.5t-30 -69.5t-70 -28.5zM522 1305q-40 0 -70 28.5t-30 69.5q0 42 29.5 70t70.5 28q42 0 71.5 -28.5t29.5 -69.5t-29.5 -69.5t-71.5 -28.5z" />
    <glyph glyph-name="copyright" unicode="&#xa9;" horiz-adv-x="1570" 
d="M786 -23q-147 0 -274 52t-217 144t-141.5 222t-51.5 281q0 146 51.5 275.5t141 223t217.5 147.5t274 54q196 0 352.5 -92.5t243 -252t86.5 -355.5q0 -202 -87 -361.5t-242.5 -248.5t-352.5 -89zM786 51q126 0 237.5 45.5t192.5 126.5t128 198.5t47 254.5q0 173 -80 317
t-219 227t-306 83q-169 0 -308.5 -83t-218.5 -226.5t-79 -317.5q0 -137 46.5 -254.5t127.5 -198.5t192.5 -126.5t239.5 -45.5zM797 276q-168 0 -279.5 115t-111.5 287t110.5 285.5t278.5 113.5q126 0 216.5 -65t123.5 -170l-80 -29q-26 89 -94 136.5t-166 47.5
q-133 0 -218 -89.5t-85 -229.5q0 -141 85 -230.5t220 -89.5q99 0 167.5 47.5t94.5 135.5l80 -29q-33 -106 -124 -171t-218 -65z" />
    <glyph glyph-name="ordfeminine" unicode="&#xaa;" horiz-adv-x="804" 
d="M612 1667h64v-588h-64v135q-74 -147 -245 -147q-121 0 -204 87t-83 220q0 132 83.5 218.5t203.5 86.5q86 0 149 -38.5t96 -106.5v133zM377 1141q99 0 160 65.5t61 167.5q0 100 -61.5 167t-159.5 67q-90 0 -154.5 -67.5t-64.5 -166.5q0 -100 63.5 -166.5t155.5 -66.5z" />
    <glyph glyph-name="guillemotleft" unicode="&#xab;" horiz-adv-x="860" 
d="M307 180l-219 338l219 338h103l-220 -338l220 -338h-103zM631 180l-219 338l219 338h102l-219 -338l219 -338h-102z" />
    <glyph glyph-name="logicalnot" unicode="&#xac;" horiz-adv-x="1128" 
d="M127 735h848v-459h-98v367h-750v92z" />
    <glyph glyph-name="registered" unicode="&#xae;" horiz-adv-x="1003" 
d="M504 1489q169 0 286 -119t117 -287q0 -169 -116.5 -287t-286.5 -118q-172 0 -290 118t-118 287q0 168 118 287t290 119zM504 731q148 0 248 101.5t100 250.5q0 147 -100.5 249t-247.5 102q-148 0 -251 -102.5t-103 -248.5q0 -149 103 -250.5t251 -101.5zM537 1079h-29
l170 -209h-62l-167 209h-23v-209h-51v455h162q63 0 101 -33t38 -90q0 -56 -38 -89.5t-101 -33.5zM426 1282v-158h106q44 0 67.5 21t23.5 57t-24 58t-67 22h-106z" />
    <glyph glyph-name="macron" unicode="&#xaf;" horiz-adv-x="591" 
d="M61 1360v86h551v-86h-551z" />
    <glyph glyph-name="degree" unicode="&#xb0;" horiz-adv-x="724" 
d="M362 895q-117 0 -193.5 75.5t-76.5 192.5t76.5 193t193.5 76t194 -76t77 -193t-77 -192.5t-194 -75.5zM362 967q83 0 139 55.5t56 140.5q0 84 -57 140.5t-138 56.5q-82 0 -138 -56.5t-56 -140.5q0 -85 55.5 -140.5t138.5 -55.5z" />
    <glyph glyph-name="plusminus" unicode="&#xb1;" horiz-adv-x="1083" 
d="M590 778h377v-92h-377v-416h-96v416h-377v92h377v396h96v-396zM117 80v92h850v-92h-850z" />
    <glyph glyph-name="uni00B2" unicode="&#xb2;" horiz-adv-x="690" 
d="M223 774h344v-63h-450v49l254 274q108 113 108 205q0 56 -38.5 92.5t-98.5 36.5q-55 0 -98 -33t-56 -92l-71 25q19 73 79.5 118.5t145.5 45.5q96 0 153.5 -52t57.5 -137q0 -115 -125 -246z" />
    <glyph glyph-name="uni00B3" unicode="&#xb3;" horiz-adv-x="663" 
d="M350 1126q91 0 151 -58t60 -150q0 -94 -65.5 -156t-169.5 -62q-92 0 -156 44t-82 110l68 29q15 -53 60.5 -85t109.5 -32q72 0 116.5 44.5t44.5 111.5q0 69 -45.5 111t-109.5 42h-78v51l213 236h-350v61h430v-61l-213 -236h16z" />
    <glyph glyph-name="acute" unicode="&#xb4;" horiz-adv-x="450" 
d="M104 1247l-43 68l394 241l47 -75z" />
    <glyph glyph-name="paragraph" unicode="&#xb6;" horiz-adv-x="1216" 
d="M1020 1423v-1628h-68v1538h-106v-1538h-68v1538h-104v-700h-170q-204 0 -324.5 107t-120.5 288q0 182 120 288.5t325 106.5h516z" />
    <glyph glyph-name="periodcentered" unicode="&#xb7;" horiz-adv-x="440" 
d="M219 561q-38 0 -63 25.5t-25 62.5q0 40 25 65t63 25q39 0 64.5 -25.5t25.5 -64.5q0 -37 -26 -62.5t-64 -25.5z" />
    <glyph glyph-name="cedilla" unicode="&#xb8;" horiz-adv-x="487" 
d="M270 -492q-133 0 -209 97l43 47q64 -76 156 -76q64 0 105 37.5t41 91.5q0 55 -42.5 93t-107.5 38h-37l-10 17l74 163h71l-61 -135q86 -1 139 -53t53 -129q0 -81 -59 -136t-156 -55z" />
    <glyph glyph-name="uni00B9" unicode="&#xb9;" horiz-adv-x="548" 
d="M340 778h121v-67h-342v67h145v479h-141v68h141v98h76v-645z" />
    <glyph glyph-name="ordmasculine" unicode="&#xba;" horiz-adv-x="763" 
d="M381 1067q-133 0 -217 87t-84 218q0 132 84 220.5t217 88.5t218 -88.5t85 -220.5t-84.5 -218.5t-218.5 -86.5zM381 1137q102 0 162.5 66.5t60.5 168.5q0 104 -60.5 171t-162.5 67q-100 0 -161.5 -67.5t-61.5 -170.5q0 -101 61.5 -168t161.5 -67z" />
    <glyph glyph-name="guillemotright" unicode="&#xbb;" horiz-adv-x="860" 
d="M127 180l219 338l-219 338h102l220 -338l-220 -338h-102zM451 180l219 338l-219 338h102l221 -338l-221 -338h-102z" />
    <glyph glyph-name="onequarter" unicode="&#xbc;" horiz-adv-x="1234" 
d="M88 711v67h145v479h-141v68h141v98h76v-645h121v-67h-342zM1014 1423h90l-809 -1423h-88zM1157 233v-59h-92v-174h-72v174h-358v53l358 486h72v-480h92zM993 233v388l-284 -388h284z" />
    <glyph glyph-name="onehalf" unicode="&#xbd;" horiz-adv-x="1300" 
d="M88 711v67h145v479h-141v68h141v98h76v-645h121v-67h-342zM1006 1423h90l-811 -1423h-88zM881 63h344v-63h-449v49l252 275q109 114 109 204q0 56 -38 92.5t-98 36.5q-56 0 -98 -32.5t-57 -92.5l-72 25q19 73 80 118.5t147 45.5q95 0 153 -52t58 -137q0 -112 -127 -245z
" />
    <glyph glyph-name="threequarters" unicode="&#xbe;" horiz-adv-x="1247" 
d="M537 918q0 -94 -66 -156t-170 -62q-92 0 -156 44t-82 110l68 29q15 -53 60.5 -85t107.5 -32q74 0 119 44.5t45 111.5q0 69 -46 111t-110 42h-78v51l213 236h-350v61h430v-61l-213 -236h17q91 0 151 -58t60 -150zM1042 1423h91l-809 -1423h-88zM1153 233v-59h-92v-174h-72
v174h-358v53l358 486h72v-480h92zM989 233v388l-284 -388h284z" />
    <glyph glyph-name="questiondown" unicode="&#xbf;" horiz-adv-x="876" 
d="M510 920q-38 0 -63 25.5t-25 62.5q0 38 25 64t63 26t63 -25.5t25 -62.5q0 -40 -25 -65t-63 -25zM426 -387q-167 0 -260.5 87.5t-93.5 240.5q0 66 22 123t57 98t77 79t84.5 76t77.5 79t57 96.5t22 121.5v76h92v-74q0 -75 -21 -138t-55 -107t-74.5 -83t-81.5 -74.5
t-75 -71.5t-55 -84.5t-21 -104.5q0 -115 67 -178.5t185 -63.5q111 0 191 69.5t102 176.5l96 -29q-26 -141 -135 -228t-258 -87z" />
    <glyph glyph-name="Agrave" unicode="&#xc0;" horiz-adv-x="1249" 
d="M868 1653l-24 -76l-467 176l29 86zM1120 0l-176 465h-639l-176 -465h-102l536 1423h121l539 -1423h-103zM338 551h573l-286 760z" />
    <glyph glyph-name="Aacute" unicode="&#xc1;" horiz-adv-x="1249" 
d="M889 1753l-465 -176l-27 76l463 186zM1120 0l-176 465h-639l-176 -465h-102l536 1423h121l539 -1423h-103zM338 551h573l-286 760z" />
    <glyph glyph-name="Acircumflex" unicode="&#xc2;" horiz-adv-x="1249" 
d="M623 1763l-195 -180h-102l256 248h84l254 -248h-103zM1120 0l-176 465h-639l-176 -465h-102l536 1423h121l539 -1423h-103zM338 551h573l-286 760z" />
    <glyph glyph-name="Atilde" unicode="&#xc3;" horiz-adv-x="1249" 
d="M500 1710q-47 0 -76 -29t-37 -75l-78 30q14 65 62 113.5t127 48.5q41 0 76.5 -17t57 -37t52.5 -37t64 -17q48 0 78 30t38 76l78 -33q-14 -65 -62 -112t-128 -47q-43 0 -79 16.5t-57 36.5t-52 36.5t-64 16.5zM1120 0l-176 465h-639l-176 -465h-102l536 1423h121l539 -1423
h-103zM338 551h573l-286 760z" />
    <glyph glyph-name="Adieresis" unicode="&#xc4;" horiz-adv-x="1249" 
d="M436 1610q-40 0 -69 28t-29 70q0 40 29.5 68t70.5 28q39 0 68 -28.5t29 -69.5t-29.5 -68.5t-69.5 -27.5zM807 1610q-40 0 -69 28t-29 70q0 40 29 68t69 28t69 -28.5t29 -69.5t-29 -68.5t-69 -27.5zM1120 0l-176 465h-639l-176 -465h-102l536 1423h121l539 -1423h-103z
M338 551h573l-286 760z" />
    <glyph glyph-name="Aring" unicode="&#xc5;" horiz-adv-x="1249" 
d="M623 1497q-79 0 -132 50t-53 126q0 75 53.5 126.5t131.5 51.5t130 -51.5t52 -126.5q0 -76 -52 -126t-130 -50zM623 1784q-49 0 -81 -31.5t-32 -79.5q0 -47 32 -78.5t81 -31.5t80.5 31t31.5 79t-31.5 79.5t-80.5 31.5zM1120 0l-176 465h-639l-176 -465h-102l536 1423h121
l539 -1423h-103zM338 551h573l-286 760z" />
    <glyph glyph-name="AE" unicode="&#xc6;" horiz-adv-x="1865" 
d="M1026 90h760v-90h-862v463h-564l-272 -463h-111l834 1423h963v-90h-748v-545h682v-90h-682v-608zM414 551h510v782h-50z" />
    <glyph glyph-name="Ccedilla" unicode="&#xc7;" horiz-adv-x="1490" 
d="M803 76q384 0 524 387l98 -41q-159 -431 -596 -445l-43 -96q86 -1 139.5 -53.5t53.5 -128.5q0 -81 -59 -136t-156 -55q-133 0 -209 97l43 47q60 -76 156 -76q64 0 104.5 37.5t40.5 91.5q0 55 -42 93t-107 38h-37l-11 17l58 127q-189 10 -339 105t-234.5 258.5
t-84.5 367.5q0 212 91 380.5t249.5 261.5t354.5 93q237 0 394 -118.5t234 -326.5l-98 -40q-68 186 -201 286.5t-331 100.5q-166 0 -300 -80t-211 -226t-77 -331q0 -279 169 -457t427 -178z" />
    <glyph glyph-name="Egrave" unicode="&#xc8;" horiz-adv-x="1132" 
d="M858 1653l-24 -76l-467 176l28 86zM289 90h764v-90h-865v1423h850v-90h-749v-545h686v-90h-686v-608z" />
    <glyph glyph-name="Eacute" unicode="&#xc9;" horiz-adv-x="1132" 
d="M879 1753l-465 -176l-27 76l463 186zM289 90h764v-90h-865v1423h850v-90h-749v-545h686v-90h-686v-608z" />
    <glyph glyph-name="Ecircumflex" unicode="&#xca;" horiz-adv-x="1132" 
d="M612 1763l-194 -180h-101l254 248h84l254 -248h-102zM289 90h764v-90h-865v1423h850v-90h-749v-545h686v-90h-686v-608z" />
    <glyph glyph-name="Edieresis" unicode="&#xcb;" horiz-adv-x="1132" 
d="M426 1610q-40 0 -69 28t-29 70q0 40 29.5 68t70.5 28q39 0 67.5 -28.5t28.5 -69.5t-29 -68.5t-69 -27.5zM797 1610q-39 0 -69 28t-30 70q0 39 30 67.5t69 28.5q41 0 70.5 -28.5t29.5 -69.5t-29.5 -68.5t-70.5 -27.5zM289 90h764v-90h-865v1423h850v-90h-749v-545h686v-90
h-686v-608z" />
    <glyph glyph-name="Igrave" unicode="&#xcc;" horiz-adv-x="477" 
d="M459 1577l-465 176l29 86l462 -186zM188 0v1423h101v-1423h-101z" />
    <glyph glyph-name="Iacute" unicode="&#xcd;" horiz-adv-x="477" 
d="M39 1577l-25 76l463 186l29 -86zM188 0v1423h101v-1423h-101z" />
    <glyph glyph-name="Icircumflex" unicode="&#xce;" horiz-adv-x="477" 
d="M283 1831l252 -248h-101l-194 180l-195 -180h-102l256 248h84zM188 0v1423h101v-1423h-101z" />
    <glyph glyph-name="Idieresis" unicode="&#xcf;" horiz-adv-x="477" 
d="M53 1610q-40 0 -69 28t-29 70q0 40 29 68t69 28t69.5 -28.5t29.5 -69.5q0 -40 -30 -68t-69 -28zM422 1610q-39 0 -67.5 28t-28.5 70q0 40 29 68t69 28t69 -28.5t29 -69.5t-29 -68.5t-71 -27.5zM188 0v1423h101v-1423h-101z" />
    <glyph glyph-name="Eth" unicode="&#xd0;" horiz-adv-x="1476" 
d="M692 1423q195 0 349 -87.5t242.5 -250t88.5 -372.5t-88.5 -373.5t-243 -251.5t-348.5 -88h-493v705h-162v77h162v641h493zM690 92q124 0 230.5 44.5t184 124.5t121.5 196.5t44 255.5q0 275 -164 446.5t-416 171.5h-389v-549h332v-77h-332v-613h389z" />
    <glyph glyph-name="Ntilde" unicode="&#xd1;" horiz-adv-x="1400" 
d="M571 1710q-48 0 -77 -29t-37 -75l-78 30q14 65 62 113.5t126 48.5q41 0 77 -17t57.5 -37t52.5 -37t63 -17q49 0 79 29.5t40 76.5l76 -33q-14 -64 -62 -111.5t-127 -47.5q-43 0 -79.5 16.5t-58 36.5t-52 36.5t-62.5 16.5zM1112 1423h102v-1423h-86l-839 1245v-1245h-101
v1423h86l838 -1243v1243z" />
    <glyph glyph-name="Ograve" unicode="&#xd2;" horiz-adv-x="1609" 
d="M1024 1577l-465 176l29 86l463 -186zM805 -23q-199 0 -360 93.5t-253 261.5t-92 379q0 212 92 380t252.5 261.5t360.5 93.5q199 0 359.5 -93.5t252.5 -262t92 -379.5q0 -210 -92 -378.5t-253 -262t-359 -93.5zM805 76q259 0 429.5 178.5t170.5 456.5q0 184 -78 330
t-215 226.5t-307 80.5q-171 0 -308 -80.5t-214.5 -226t-77.5 -330.5q0 -184 77.5 -329t214.5 -225.5t308 -80.5z" />
    <glyph glyph-name="Oacute" unicode="&#xd3;" horiz-adv-x="1609" 
d="M604 1577l-24 76l462 186l29 -86zM805 -23q-199 0 -360 93.5t-253 261.5t-92 379q0 212 92 380t252.5 261.5t360.5 93.5q199 0 359.5 -93.5t252.5 -262t92 -379.5q0 -210 -92 -378.5t-253 -262t-359 -93.5zM805 76q259 0 429.5 178.5t170.5 456.5q0 184 -78 330
t-215 226.5t-307 80.5q-171 0 -308 -80.5t-214.5 -226t-77.5 -330.5q0 -184 77.5 -329t214.5 -225.5t308 -80.5z" />
    <glyph glyph-name="Ocircumflex" unicode="&#xd4;" horiz-adv-x="1609" 
d="M805 1763l-195 -180h-102l256 248h84l254 -248h-103zM805 1446q199 0 359.5 -93.5t252.5 -262t92 -379.5q0 -210 -92 -378.5t-253 -262t-359 -93.5q-199 0 -360 93.5t-253 261.5t-92 379q0 212 92 380t252.5 261.5t360.5 93.5zM805 76q259 0 429.5 178.5t170.5 456.5
q0 184 -78 330t-215 226.5t-307 80.5q-171 0 -308 -80.5t-214.5 -226t-77.5 -330.5q0 -184 77.5 -329t214.5 -225.5t308 -80.5z" />
    <glyph glyph-name="Otilde" unicode="&#xd5;" horiz-adv-x="1609" 
d="M934 1604q-43 0 -79 16.5t-57 36.5t-52 36.5t-64 16.5q-47 0 -76 -29t-37 -75l-77 30q14 65 61.5 113.5t126.5 48.5q41 0 76.5 -17t57 -37t52.5 -37t64 -17q48 0 78.5 30t38.5 76l77 -33q-14 -65 -62 -112t-128 -47zM805 -23q-199 0 -360 93.5t-253 261.5t-92 379
q0 212 92 380t252.5 261.5t360.5 93.5q199 0 359.5 -93.5t252.5 -262t92 -379.5q0 -210 -92 -378.5t-253 -262t-359 -93.5zM805 76q259 0 429.5 178.5t170.5 456.5q0 184 -78 330t-215 226.5t-307 80.5q-171 0 -308 -80.5t-214.5 -226t-77.5 -330.5q0 -184 77.5 -329
t214.5 -225.5t308 -80.5z" />
    <glyph glyph-name="Odieresis" unicode="&#xd6;" horiz-adv-x="1609" 
d="M618 1610q-40 0 -69 28t-29 70q0 40 30 68t71 28q39 0 67.5 -28.5t28.5 -69.5t-29.5 -68.5t-69.5 -27.5zM989 1610q-40 0 -69 28t-29 70q0 40 29 68t69 28t69 -28.5t29 -69.5t-29 -68.5t-69 -27.5zM805 -23q-199 0 -360 93.5t-253 261.5t-92 379q0 212 92 380
t252.5 261.5t360.5 93.5q199 0 359.5 -93.5t252.5 -262t92 -379.5q0 -210 -92 -378.5t-253 -262t-359 -93.5zM805 76q259 0 429.5 178.5t170.5 456.5q0 184 -78 330t-215 226.5t-307 80.5q-171 0 -308 -80.5t-214.5 -226t-77.5 -330.5q0 -184 77.5 -329t214.5 -225.5
t308 -80.5z" />
    <glyph glyph-name="multiply" unicode="&#xd7;" horiz-adv-x="993" 
d="M874 926l-311 -312l311 -311l-65 -67l-311 313l-314 -313l-65 65l311 313l-311 312l65 67l314 -313l311 313z" />
    <glyph glyph-name="Oslash" unicode="&#xd8;" horiz-adv-x="1615" 
d="M1329 1221q88 -97 136 -228t48 -282q0 -210 -92 -378.5t-253 -262t-359 -93.5q-265 0 -457 162l-143 -157l-66 61l144 160q-183 205 -183 508q0 212 92 380t252.5 261.5t360.5 93.5q265 0 457 -162l141 156l63 -62zM209 711q0 -255 147 -432l842 929q-165 140 -389 140
q-171 0 -308 -80.5t-214.5 -226t-77.5 -330.5zM809 76q259 0 429.5 178.5t170.5 456.5q0 258 -149 434l-840 -930q161 -139 389 -139z" />
    <glyph glyph-name="Ugrave" unicode="&#xd9;" horiz-adv-x="1370" 
d="M932 1653l-27 -76l-465 176l29 86zM1098 1423h100v-909q0 -88 -20 -167.5t-61.5 -147t-101.5 -117t-144 -77.5t-185 -28q-126 0 -225.5 42.5t-161.5 116.5t-94.5 170t-32.5 208v909h102v-907q0 -126 44.5 -224t139 -158t228.5 -60q197 0 304.5 125t107.5 317v907z" />
    <glyph glyph-name="Uacute" unicode="&#xda;" horiz-adv-x="1370" 
d="M952 1753l-467 -176l-24 76l463 186zM1098 1423h100v-909q0 -88 -20 -167.5t-61.5 -147t-101.5 -117t-144 -77.5t-185 -28q-126 0 -225.5 42.5t-161.5 116.5t-94.5 170t-32.5 208v909h102v-907q0 -126 44.5 -224t139 -158t228.5 -60q197 0 304.5 125t107.5 317v907z" />
    <glyph glyph-name="Ucircumflex" unicode="&#xdb;" horiz-adv-x="1370" 
d="M686 1763l-194 -180h-103l256 248h84l254 -248h-102zM1098 1423h100v-909q0 -88 -20 -167.5t-61.5 -147t-101.5 -117t-144 -77.5t-185 -28q-126 0 -225.5 42.5t-161.5 116.5t-94.5 170t-32.5 208v909h102v-907q0 -126 44.5 -224t139 -158t228.5 -60q197 0 304.5 125
t107.5 317v907z" />
    <glyph glyph-name="Udieresis" unicode="&#xdc;" horiz-adv-x="1370" 
d="M500 1610q-41 0 -70 28t-29 70q0 40 30 68t71 28q39 0 67.5 -28.5t28.5 -69.5t-29 -68.5t-69 -27.5zM870 1610q-40 0 -69 28t-29 70q0 40 29 68t69 28t69.5 -28.5t29.5 -69.5t-29.5 -68.5t-69.5 -27.5zM1098 1423h100v-909q0 -88 -20 -167.5t-61.5 -147t-101.5 -117
t-144 -77.5t-185 -28q-126 0 -225.5 42.5t-161.5 116.5t-94.5 170t-32.5 208v909h102v-907q0 -126 44.5 -224t139 -158t228.5 -60q197 0 304.5 125t107.5 317v907z" />
    <glyph glyph-name="Yacute" unicode="&#xdd;" horiz-adv-x="1214" 
d="M877 1753l-467 -176l-25 76l463 186zM1194 1423l-537 -837v-586h-100v592l-532 831h114l471 -747l469 747h115z" />
    <glyph glyph-name="Thorn" unicode="&#xde;" horiz-adv-x="1220" 
d="M686 1120q205 0 324.5 -106.5t119.5 -288.5q0 -180 -120 -287.5t-324 -107.5h-397v-330h-101v1423h101v-303h397zM682 422q163 0 253.5 82.5t90.5 220.5q0 139 -90.5 222t-253.5 83h-393v-608h393z" />
    <glyph glyph-name="germandbls" unicode="&#xdf;" horiz-adv-x="1236" 
d="M821 807q146 -29 236 -144t90 -276q0 -186 -119.5 -298t-304.5 -112q-152 0 -250 76t-135 201l39 65q29 -114 114.5 -183.5t221.5 -69.5q149 0 240 92t91 239q0 157 -103 258t-292 101v92q81 0 145.5 27t102 70.5t57 94.5t19.5 105q0 129 -89 208t-239 79
q-173 0 -276 -107.5t-103 -288.5v-1036h-100v1032q0 223 131 354.5t354 131.5q195 0 309.5 -103t114.5 -262q0 -121 -66.5 -215.5t-187.5 -130.5z" />
    <glyph glyph-name="agrave" unicode="&#xe0;" horiz-adv-x="1325" 
d="M844 1315l-43 -68l-398 234l48 75zM1063 1079h96v-1079h-96v262q-61 -133 -177.5 -209t-267.5 -76q-228 0 -378 161t-150 403q0 239 150.5 397t377.5 158q152 0 268 -74t177 -205v262zM627 70q191 0 312.5 132t121.5 339t-121 338t-313 131q-186 0 -310 -134.5
t-124 -334.5q0 -203 123.5 -337t310.5 -134z" />
    <glyph glyph-name="aacute" unicode="&#xe1;" horiz-adv-x="1325" 
d="M879 1481l-398 -234l-43 68l393 241zM1063 1079h96v-1079h-96v262q-61 -133 -177.5 -209t-267.5 -76q-228 0 -378 161t-150 403q0 239 150.5 397t377.5 158q152 0 268 -74t177 -205v262zM627 70q191 0 312.5 132t121.5 339t-121 338t-313 131q-186 0 -310 -134.5
t-124 -334.5q0 -203 123.5 -337t310.5 -134z" />
    <glyph glyph-name="acircumflex" unicode="&#xe2;" horiz-adv-x="1325" 
d="M647 1477l-203 -215h-100l262 282h86l258 -282h-98zM1063 1079h96v-1079h-96v262q-61 -133 -177.5 -209t-267.5 -76q-228 0 -378 161t-150 403q0 239 150.5 397t377.5 158q152 0 268 -74t177 -205v262zM627 70q191 0 312.5 132t121.5 339t-121 338t-313 131
q-186 0 -310 -134.5t-124 -334.5q0 -203 123.5 -337t310.5 -134z" />
    <glyph glyph-name="atilde" unicode="&#xe3;" horiz-adv-x="1325" 
d="M524 1413q-47 0 -75.5 -29t-36.5 -75l-78 30q14 65 60 113.5t122 48.5q41 0 76 -17t56.5 -37t53 -37t64.5 -17q48 0 77.5 30t39.5 76l75 -33q-14 -66 -58.5 -112.5t-123.5 -46.5q-43 0 -79.5 16.5t-57.5 36.5t-52 36.5t-63 16.5zM1063 1079h96v-1079h-96v262
q-61 -133 -177.5 -209t-267.5 -76q-228 0 -378 161t-150 403q0 239 150.5 397t377.5 158q152 0 268 -74t177 -205v262zM627 70q191 0 312.5 132t121.5 339t-121 338t-313 131q-186 0 -310 -134.5t-124 -334.5q0 -203 123.5 -337t310.5 -134z" />
    <glyph glyph-name="adieresis" unicode="&#xe4;" horiz-adv-x="1325" 
d="M467 1305q-41 0 -70.5 28.5t-29.5 69.5q0 42 29 70t71 28q40 0 69 -28.5t29 -69.5t-29 -69.5t-69 -28.5zM825 1305q-39 0 -68.5 28.5t-29.5 69.5q0 42 29.5 70t70.5 28q40 0 70.5 -28.5t30.5 -69.5t-30.5 -69.5t-72.5 -28.5zM1063 1079h96v-1079h-96v262
q-61 -133 -177.5 -209t-267.5 -76q-228 0 -378 161t-150 403q0 239 150.5 397t377.5 158q152 0 268 -74t177 -205v262zM627 70q191 0 312.5 132t121.5 339t-121 338t-313 131q-186 0 -310 -134.5t-124 -334.5q0 -203 123.5 -337t310.5 -134z" />
    <glyph glyph-name="aring" unicode="&#xe5;" horiz-adv-x="1325" 
d="M647 1204q-78 0 -130 51t-52 127q0 75 52 126t130 51q79 0 131.5 -51t52.5 -126q0 -77 -52.5 -127.5t-131.5 -50.5zM647 1493q-47 0 -79.5 -32.5t-32.5 -78.5q0 -47 32.5 -79.5t79.5 -32.5q49 0 81 32t32 80q0 46 -32 78.5t-81 32.5zM1063 1079h96v-1079h-96v262
q-61 -133 -177.5 -209t-267.5 -76q-228 0 -378 161t-150 403q0 239 150.5 397t377.5 158q152 0 268 -74t177 -205v262zM627 70q191 0 312.5 132t121.5 339t-121 338t-313 131q-186 0 -310 -134.5t-124 -334.5q0 -203 123.5 -337t310.5 -134z" />
    <glyph glyph-name="ae" unicode="&#xe6;" horiz-adv-x="2197" 
d="M1169 512q9 -197 132 -323t305 -126q310 0 403 261l86 -35q-54 -148 -175 -230t-302 -82q-161 0 -280 79.5t-179 217.5v-274h-96v262q-61 -133 -177.5 -209t-267.5 -76q-228 0 -378 161t-150 403q0 157 68.5 285t189.5 201t270 73q152 0 268 -75.5t177 -207.5v262h96
v-280q60 138 179 219.5t274 81.5q146 0 260.5 -71t175.5 -192.5t61 -271.5v-53h-940zM1171 582h846q-5 194 -119 316t-294 122q-178 0 -299.5 -123t-133.5 -315zM627 70q191 0 312.5 132t121.5 339t-121 338t-313 131q-186 0 -310 -134.5t-124 -334.5q0 -203 123.5 -337
t310.5 -134z" />
    <glyph glyph-name="ccedilla" unicode="&#xe7;" horiz-adv-x="1175" 
d="M1114 305q-44 -139 -162.5 -229t-283.5 -99l-45 -96q86 -1 139 -53t53 -129q0 -81 -58.5 -136t-156.5 -55q-129 0 -209 97l45 47q60 -76 154 -76q66 0 105.5 37.5t39.5 91.5q0 55 -42 93t-107 38h-35l-12 17l57 127q-147 9 -262.5 83t-179.5 198.5t-64 277.5
q0 159 70 287.5t194.5 201t278.5 72.5q175 0 302 -91.5t173 -236.5l-92 -37q-40 129 -140.5 201t-240.5 72q-191 0 -316.5 -132t-125.5 -337t125.5 -337t318.5 -132q141 0 243 71.5t142 200.5z" />
    <glyph glyph-name="egrave" unicode="&#xe8;" horiz-adv-x="1212" 
d="M821 1313l-43 -68l-397 234l47 75zM195 512q9 -196 128 -318t302 -122q309 0 399 254l82 -47q-57 -144 -179 -223t-304 -79q-231 0 -382 160t-151 402q0 156 69 285t190.5 202.5t268.5 73.5q148 0 264.5 -71t180 -192.5t63.5 -271.5v-53h-931zM197 596h829
q-9 188 -120 302t-285 114t-290.5 -115t-133.5 -301z" />
    <glyph glyph-name="eacute" unicode="&#xe9;" horiz-adv-x="1212" 
d="M856 1479l-397 -234l-43 68l391 241zM195 512q9 -196 128 -318t302 -122q309 0 399 254l82 -47q-57 -144 -179 -223t-304 -79q-231 0 -382 160t-151 402q0 156 69 285t190.5 202.5t268.5 73.5q148 0 264.5 -71t180 -192.5t63.5 -271.5v-53h-931zM197 596h829
q-9 188 -120 302t-285 114t-290.5 -115t-133.5 -301z" />
    <glyph glyph-name="ecircumflex" unicode="&#xea;" horiz-adv-x="1212" 
d="M625 1477l-203 -217h-100l260 282h86l260 -282h-101zM195 512q9 -196 128 -318t302 -122q309 0 399 254l82 -47q-57 -144 -179 -223t-304 -79q-231 0 -382 160t-151 402q0 156 69 285t190.5 202.5t268.5 73.5q148 0 264.5 -71t180 -192.5t63.5 -271.5v-53h-931zM197 596
h829q-9 188 -120 302t-285 114t-290.5 -115t-133.5 -301z" />
    <glyph glyph-name="edieresis" unicode="&#xeb;" horiz-adv-x="1212" 
d="M442 1303q-40 0 -70 28.5t-30 69.5q0 42 30 70t72 28q40 0 69.5 -28.5t29.5 -69.5t-30.5 -69.5t-70.5 -28.5zM803 1303q-40 0 -69 28.5t-29 69.5q0 42 29 70t69 28q42 0 72 -28.5t30 -69.5t-30 -69.5t-72 -28.5zM195 512q9 -196 128 -318t302 -122q309 0 399 254l82 -47
q-57 -144 -179 -223t-304 -79q-231 0 -382 160t-151 402q0 156 69 285t190.5 202.5t268.5 73.5q148 0 264.5 -71t180 -192.5t63.5 -271.5v-53h-931zM197 596h829q-9 188 -120 302t-285 114t-290.5 -115t-133.5 -301z" />
    <glyph glyph-name="igrave" unicode="&#xec;" horiz-adv-x="432" 
d="M369 1247l-398 234l47 75l394 -241zM166 0v1079h100v-1079h-100z" />
    <glyph glyph-name="iacute" unicode="&#xed;" horiz-adv-x="432" 
d="M49 1247l-43 68l393 241l47 -75zM166 0v1079h100v-1079h-100z" />
    <glyph glyph-name="icircumflex" unicode="&#xee;" horiz-adv-x="432" 
d="M260 1544l258 -284h-100l-203 217l-203 -217h-100l260 284h88zM166 0v1079h100v-1079h-100z" />
    <glyph glyph-name="idieresis" unicode="&#xef;" horiz-adv-x="432" 
d="M33 1305q-40 0 -70.5 28.5t-30.5 69.5t30.5 69.5t72.5 28.5q40 0 69 -28.5t29 -69.5t-30 -69.5t-70 -28.5zM393 1305q-39 0 -68.5 28.5t-29.5 69.5t30 69.5t70 28.5t70.5 -28.5t30.5 -69.5t-30.5 -69.5t-72.5 -28.5zM166 0v1079h100v-1079h-100z" />
    <glyph glyph-name="eth" unicode="&#xf0;" horiz-adv-x="1284" 
d="M664 1460q242 -126 383 -363t141 -534q0 -135 -41 -246t-114 -185t-174 -114.5t-220 -40.5q-158 0 -284 72.5t-195.5 196.5t-69.5 274q0 230 155.5 386.5t391.5 156.5q276 0 412 -209q-53 182 -171.5 319t-285.5 216l-244 -244l-55 55l221 221q-180 68 -389 68l43 88
q227 0 420 -82l176 176l55 -55zM639 70q199 0 321.5 125t122.5 331q0 189 -124.5 317t-319.5 128t-320.5 -129.5t-125.5 -321.5q0 -191 126 -320.5t320 -129.5z" />
    <glyph glyph-name="ntilde" unicode="&#xf1;" horiz-adv-x="1257" 
d="M522 1411q-47 0 -75.5 -29t-36.5 -75l-78 30q14 65 60 113.5t122 48.5q41 0 76 -17t56.5 -37t53 -37t64.5 -17q47 0 77 30t38 76l77 -33q-14 -65 -59.5 -112t-124.5 -47q-42 0 -78 16.5t-57.5 36.5t-52 36.5t-62.5 16.5zM659 1102q213 0 331 -122t118 -331v-649h-102v633
q0 179 -96 278.5t-269 98.5q-80 -1 -150.5 -29t-118.5 -73.5t-76.5 -104.5t-29.5 -121v-682h-100v1079h96v-200q49 97 153.5 160t243.5 63z" />
    <glyph glyph-name="ograve" unicode="&#xf2;" horiz-adv-x="1277" 
d="M795 1245l-398 234l47 75l394 -241zM639 -23q-240 0 -394.5 159.5t-154.5 402.5q0 160 69.5 288t195 200.5t284.5 72.5q239 0 394 -159t155 -402q0 -242 -155.5 -402t-393.5 -160zM639 70q197 0 321.5 132.5t124.5 336.5q0 206 -124.5 338.5t-321.5 132.5
q-196 0 -321 -132.5t-125 -338.5q0 -203 125 -336t321 -133z" />
    <glyph glyph-name="oacute" unicode="&#xf3;" horiz-adv-x="1277" 
d="M475 1245l-43 68l393 241l47 -75zM639 -23q-240 0 -394.5 159.5t-154.5 402.5q0 160 69.5 288t195 200.5t284.5 72.5q239 0 394 -159t155 -402q0 -242 -155.5 -402t-393.5 -160zM639 70q197 0 321.5 132.5t124.5 336.5q0 206 -124.5 338.5t-321.5 132.5
q-196 0 -321 -132.5t-125 -338.5q0 -203 125 -336t321 -133z" />
    <glyph glyph-name="ocircumflex" unicode="&#xf4;" horiz-adv-x="1277" 
d="M641 1477l-203 -217h-100l260 282h88l258 -282h-100zM639 1100q239 0 394 -159t155 -402q0 -242 -155.5 -402t-393.5 -160q-240 0 -394.5 159.5t-154.5 402.5q0 160 69.5 288t195 200.5t284.5 72.5zM639 70q197 0 321.5 132.5t124.5 336.5q0 206 -124.5 338.5
t-321.5 132.5q-196 0 -321 -132.5t-125 -338.5q0 -203 125 -336t321 -133z" />
    <glyph glyph-name="otilde" unicode="&#xf5;" horiz-adv-x="1277" 
d="M768 1305q-42 0 -78 16.5t-58 36.5t-52 36.5t-62 16.5q-47 0 -75.5 -29t-36.5 -75l-78 30q14 65 60 113.5t122 48.5q41 0 76 -17t56.5 -37t53 -37t64.5 -17q47 0 76.5 30t37.5 76l78 -33q-14 -65 -59.5 -112t-124.5 -47zM639 -23q-240 0 -394.5 159.5t-154.5 402.5
q0 160 69.5 288t195 200.5t284.5 72.5q239 0 394 -159t155 -402q0 -242 -155.5 -402t-393.5 -160zM639 70q197 0 321.5 132.5t124.5 336.5q0 206 -124.5 338.5t-321.5 132.5q-196 0 -321 -132.5t-125 -338.5q0 -203 125 -336t321 -133z" />
    <glyph glyph-name="odieresis" unicode="&#xf6;" horiz-adv-x="1277" 
d="M459 1303q-40 0 -70.5 28.5t-30.5 69.5q0 42 30.5 70t72.5 28q40 0 69 -28.5t29 -69.5t-30 -69.5t-70 -28.5zM819 1303q-39 0 -68.5 28.5t-29.5 69.5q0 42 29.5 70t70.5 28q40 0 70.5 -28.5t30.5 -69.5t-30.5 -69.5t-72.5 -28.5zM639 -23q-240 0 -394.5 159.5
t-154.5 402.5q0 160 69.5 288t195 200.5t284.5 72.5q239 0 394 -159t155 -402q0 -242 -155.5 -402t-393.5 -160zM639 70q197 0 321.5 132.5t124.5 336.5q0 206 -124.5 338.5t-321.5 132.5q-196 0 -321 -132.5t-125 -338.5q0 -203 125 -336t321 -133z" />
    <glyph glyph-name="divide" unicode="&#xf7;" horiz-adv-x="1122" 
d="M567 883q-38 0 -63 25.5t-25 62.5q0 40 25 65t63 25q39 0 64.5 -25.5t25.5 -64.5q0 -37 -26 -62.5t-64 -25.5zM137 563v92h848v-92h-848zM571 129q-38 0 -63 25.5t-25 62.5q0 40 25 65t63 25t63 -25t25 -65q0 -37 -25 -62.5t-63 -25.5z" />
    <glyph glyph-name="oslash" unicode="&#xf8;" horiz-adv-x="1310" 
d="M1237 999l-137 -120q102 -142 102 -340q0 -243 -154.5 -402.5t-392.5 -159.5q-241 0 -395 160l-133 -117l-51 60l133 119q-103 144 -103 340q0 160 69.5 288t195 200.5t284.5 72.5q240 0 394 -160l135 119zM207 539q0 -154 78 -275l692 613q-123 133 -322 133
q-196 0 -322 -132.5t-126 -338.5zM1102 539q0 156 -76 274l-692 -610q123 -133 321 -133q196 0 321.5 133t125.5 336z" />
    <glyph glyph-name="ugrave" unicode="&#xf9;" horiz-adv-x="1234" 
d="M786 1315l-43 -68l-397 234l47 75zM969 1079h102v-1079h-98v193q-49 -92 -152 -154t-235 -62q-202 0 -319 121.5t-117 319.5v661h102v-651q0 -164 96 -261.5t258 -96.5q78 1 146.5 28t115 71t73.5 99t28 111v700z" />
    <glyph glyph-name="uacute" unicode="&#xfa;" horiz-adv-x="1234" 
d="M821 1481l-397 -234l-43 68l393 241zM969 1079h102v-1079h-98v193q-49 -92 -152 -154t-235 -62q-202 0 -319 121.5t-117 319.5v661h102v-651q0 -164 96 -261.5t258 -96.5q78 1 146.5 28t115 71t73.5 99t28 111v700z" />
    <glyph glyph-name="ucircumflex" unicode="&#xfb;" horiz-adv-x="1234" 
d="M590 1477l-203 -215h-100l262 282h86l258 -282h-98zM969 1079h102v-1079h-98v193q-49 -92 -152 -154t-235 -62q-202 0 -319 121.5t-117 319.5v661h102v-651q0 -164 96 -261.5t258 -96.5q78 1 146.5 28t115 71t73.5 99t28 111v700z" />
    <glyph glyph-name="udieresis" unicode="&#xfc;" horiz-adv-x="1234" 
d="M410 1305q-40 0 -70.5 28.5t-30.5 69.5q0 42 30 70t71 28q40 0 69 -28.5t29 -69.5t-29 -69.5t-69 -28.5zM768 1305q-39 0 -68.5 28.5t-29.5 69.5q0 42 29.5 70t70.5 28q40 0 70 -28.5t30 -69.5t-30 -69.5t-72 -28.5zM969 1079h102v-1079h-98v193q-49 -92 -152 -154
t-235 -62q-202 0 -319 121.5t-117 319.5v661h102v-651q0 -164 96 -261.5t258 -96.5q78 1 146.5 28t115 71t73.5 99t28 111v700z" />
    <glyph glyph-name="yacute" unicode="&#xfd;" horiz-adv-x="1087" 
d="M774 1481l-397 -234l-43 68l393 241zM956 1079h107l-623 -1446h-100l158 367h-17l-456 1079h108l408 -983z" />
    <glyph glyph-name="thorn" unicode="&#xfe;" horiz-adv-x="1325" 
d="M707 1100q228 0 378 -159.5t150 -401.5q0 -158 -68.5 -286.5t-190 -202t-271.5 -73.5q-146 0 -260.5 71.5t-178.5 197.5v-613h-100v1864h100v-666q64 126 179 197.5t262 71.5zM698 70q186 0 310.5 134.5t124.5 334.5q0 203 -124 337t-311 134q-191 0 -312.5 -132
t-121.5 -339t121 -338t313 -131z" />
    <glyph glyph-name="ydieresis" unicode="&#xff;" horiz-adv-x="1087" 
d="M362 1305q-40 0 -70 28.5t-30 69.5q0 42 29.5 70t70.5 28q40 0 69.5 -28.5t29.5 -69.5t-29.5 -69.5t-69.5 -28.5zM723 1305q-40 0 -70 28.5t-30 69.5q0 42 29.5 70t70.5 28t70.5 -28.5t29.5 -69.5t-30 -69.5t-70 -28.5zM956 1079h107l-623 -1446h-100l158 367h-17
l-456 1079h108l408 -983z" />
    <glyph glyph-name="Amacron" unicode="&#x100;" horiz-adv-x="1249" 
d="M903 1751v-86h-563v86h563zM1120 0l-176 465h-639l-176 -465h-102l536 1423h121l539 -1423h-103zM338 551h573l-286 760z" />
    <glyph glyph-name="amacron" unicode="&#x101;" horiz-adv-x="1325" 
d="M922 1446v-86h-551v86h551zM1063 1079h96v-1079h-96v262q-61 -133 -177.5 -209t-267.5 -76q-228 0 -378 161t-150 403q0 239 150.5 397t377.5 158q152 0 268 -74t177 -205v262zM627 70q191 0 312.5 132t121.5 339t-121 338t-313 131q-186 0 -310 -134.5t-124 -334.5
q0 -203 123.5 -337t310.5 -134z" />
    <glyph glyph-name="Abreve" unicode="&#x102;" horiz-adv-x="1249" 
d="M623 1583q-119 0 -192 73t-73 175h86q0 -67 49 -117.5t130 -50.5t129.5 50.5t48.5 117.5h86q0 -102 -72.5 -175t-191.5 -73zM1120 0l-176 465h-639l-176 -465h-102l536 1423h121l539 -1423h-103zM338 551h573l-286 760z" />
    <glyph glyph-name="abreve" unicode="&#x103;" horiz-adv-x="1325" 
d="M647 1262q-124 0 -200 78.5t-76 203.5h86q0 -91 52.5 -147t137.5 -56q86 0 139.5 56t53.5 147h84q0 -125 -76.5 -203.5t-200.5 -78.5zM1063 1079h96v-1079h-96v262q-61 -133 -177.5 -209t-267.5 -76q-228 0 -378 161t-150 403q0 239 150.5 397t377.5 158q152 0 268 -74
t177 -205v262zM627 70q191 0 312.5 132t121.5 339t-121 338t-313 131q-186 0 -310 -134.5t-124 -334.5q0 -203 123.5 -337t310.5 -134z" />
    <glyph glyph-name="Aogonek" unicode="&#x104;" horiz-adv-x="1249" 
d="M1249 -340l45 -51q-58 -68 -164 -68q-80 0 -129 49.5t-49 124.5q0 62 37 123t121 135l31 27h-21l-176 465h-639l-176 -465h-102l536 1423h121l539 -1423l-66 -63q-68 -70 -95.5 -117t-27.5 -92q0 -51 30.5 -82t78.5 -31q69 0 106 45zM338 551h573l-286 760z" />
    <glyph glyph-name="aogonek" unicode="&#x105;" horiz-adv-x="1325" 
d="M1188 -340l45 -51q-58 -68 -164 -68q-81 0 -129.5 49.5t-48.5 124.5q0 62 36.5 122.5t119.5 135.5l30 27h-14v262q-61 -133 -177.5 -209t-267.5 -76q-228 0 -378 161t-150 403q0 239 150.5 397t377.5 158q152 0 268 -74t177 -205v262h96v-1079l-63 -63q-69 -69 -96 -116
t-27 -93q0 -51 29.5 -82t76.5 -31q72 0 109 45zM627 70q191 0 312.5 132t121.5 339t-121 338t-313 131q-186 0 -310 -134.5t-124 -334.5q0 -203 123.5 -337t310.5 -134z" />
    <glyph glyph-name="Cacute" unicode="&#x106;" horiz-adv-x="1488" 
d="M584 1577l-27 76l463 186l29 -86zM803 -23q-149 0 -279.5 54.5t-223.5 150.5t-146.5 233t-53.5 296q0 212 91 380.5t249.5 261.5t354.5 93q237 0 394 -118.5t234 -326.5l-98 -40q-68 186 -201 286.5t-331 100.5q-166 0 -300 -80t-211 -226t-77 -331q0 -279 169 -457
t427 -178q384 0 524 387l98 -41q-164 -445 -620 -445z" />
    <glyph glyph-name="cacute" unicode="&#x107;" horiz-adv-x="1175" 
d="M471 1247l-43 68l391 241l49 -75zM637 -23q-237 0 -392 159.5t-155 402.5q0 159 70 287.5t194.5 201t278.5 72.5q175 0 302 -91.5t173 -236.5l-92 -37q-40 129 -140.5 201t-240.5 72q-191 0 -316.5 -132t-125.5 -337t125.5 -337t318.5 -132q141 0 243 71.5t142 200.5
l92 -37q-46 -145 -173 -236.5t-304 -91.5z" />
    <glyph glyph-name="Cdotaccent" unicode="&#x10a;" horiz-adv-x="1488" 
d="M782 1610q-41 0 -68.5 27.5t-27.5 70.5q0 40 28 67t70 27q40 0 67.5 -27.5t27.5 -68.5t-28 -68.5t-69 -27.5zM803 -23q-149 0 -279.5 54.5t-223.5 150.5t-146.5 233t-53.5 296q0 212 91 380.5t249.5 261.5t354.5 93q237 0 394 -118.5t234 -326.5l-98 -40
q-68 186 -201 286.5t-331 100.5q-166 0 -300 -80t-211 -226t-77 -331q0 -279 169 -457t427 -178q384 0 524 387l98 -41q-164 -445 -620 -445z" />
    <glyph glyph-name="cdotaccent" unicode="&#x10b;" horiz-adv-x="1175" 
d="M637 1303q-45 0 -75 28t-30 72t30.5 74t74.5 30t74 -30t30 -74t-29.5 -72t-74.5 -28zM637 -23q-237 0 -392 159.5t-155 402.5q0 159 70 287.5t194.5 201t278.5 72.5q175 0 302 -91.5t173 -236.5l-92 -37q-40 129 -140.5 201t-240.5 72q-191 0 -316.5 -132t-125.5 -337
t125.5 -337t318.5 -132q141 0 243 71.5t142 200.5l92 -37q-46 -145 -173 -236.5t-304 -91.5z" />
    <glyph glyph-name="Ccaron" unicode="&#x10c;" horiz-adv-x="1488" 
d="M825 1583h-84l-254 248h101l194 -178l195 178h102zM801 76q384 0 524 387l98 -41q-164 -445 -620 -445q-149 0 -279.5 54.5t-223.5 150.5t-146.5 233t-53.5 296q0 212 91 380.5t249.5 261.5t354.5 93q237 0 394 -118.5t234 -326.5l-98 -40q-68 186 -201 286.5t-331 100.5
q-166 0 -300 -80t-211 -226t-77 -331q0 -279 169 -457t427 -178z" />
    <glyph glyph-name="ccaron" unicode="&#x10d;" horiz-adv-x="1175" 
d="M680 1262h-86l-260 282h98l205 -217l203 217h100zM1022 342l92 -37q-46 -145 -173 -236.5t-304 -91.5q-237 0 -392 159.5t-155 402.5q0 159 70 287.5t194.5 201t278.5 72.5q175 0 302 -91.5t173 -236.5l-92 -37q-40 129 -140.5 201t-240.5 72q-191 0 -316.5 -132
t-125.5 -337t125.5 -337t318.5 -132q141 0 243 71.5t142 200.5z" />
    <glyph glyph-name="Dcaron" unicode="&#x10e;" horiz-adv-x="1464" 
d="M735 1583h-84l-256 248h103l194 -180l195 180h102zM682 1423q194 0 348 -87.5t243 -250t89 -372.5q0 -158 -51.5 -291.5t-142 -226t-216 -144t-270.5 -51.5h-494v1423h494zM680 92q165 0 295.5 76t206 218t75.5 327q0 275 -163.5 446.5t-413.5 171.5h-391v-1239h391z" />
    <glyph glyph-name="dcaron" unicode="&#x10f;" horiz-adv-x="1384" 
d="M1059 831v666h100v-1497h-96v256q-62 -131 -178.5 -205t-266.5 -74q-228 0 -378 161t-150 403q0 240 150 399.5t378 159.5q147 0 262 -71.5t179 -197.5zM1366 1497h80l-49 -432h-72zM627 70q191 0 312.5 132t121.5 339t-121 338t-313 131q-186 0 -310 -134.5t-124 -334.5
q0 -203 123.5 -337t310.5 -134z" />
    <glyph glyph-name="Dcroat" unicode="&#x110;" horiz-adv-x="1476" 
d="M692 1423q195 0 349 -87.5t242.5 -250t88.5 -372.5t-88.5 -373.5t-243 -251.5t-348.5 -88h-493v705h-162v77h162v641h493zM690 92q124 0 230.5 44.5t184 124.5t121.5 196.5t44 255.5q0 275 -164 446.5t-416 171.5h-389v-549h332v-77h-332v-613h389z" />
    <glyph glyph-name="dcroat" unicode="&#x111;" horiz-adv-x="1325" 
d="M1319 1313v-78h-160v-1235h-96v256q-62 -131 -178.5 -205t-266.5 -74q-228 0 -378 161t-150 403q0 240 150 399.5t378 159.5q147 0 262 -71.5t179 -197.5v404h-334v78h334v184h100v-184h160zM627 70q191 0 312.5 132t121.5 339t-121 338t-313 131q-186 0 -310 -134.5
t-124 -334.5q0 -203 123.5 -337t310.5 -134z" />
    <glyph glyph-name="Emacron" unicode="&#x112;" horiz-adv-x="1132" 
d="M895 1751v-86h-565v86h565zM289 90h764v-90h-865v1423h850v-90h-749v-545h686v-90h-686v-608z" />
    <glyph glyph-name="emacron" unicode="&#x113;" horiz-adv-x="1212" 
d="M899 1444v-86h-551v86h551zM195 512q9 -196 128 -318t302 -122q309 0 399 254l82 -47q-57 -144 -179 -223t-304 -79q-231 0 -382 160t-151 402q0 156 69 285t190.5 202.5t268.5 73.5q148 0 264.5 -71t180 -192.5t63.5 -271.5v-53h-931zM197 596h829q-9 188 -120 302
t-285 114t-290.5 -115t-133.5 -301z" />
    <glyph glyph-name="Edotaccent" unicode="&#x116;" horiz-adv-x="1132" 
d="M612 1610q-40 0 -68 28t-28 70q0 40 28.5 67t69.5 27q40 0 67.5 -27.5t27.5 -68.5t-28 -68.5t-69 -27.5zM289 90h764v-90h-865v1423h850v-90h-749v-545h686v-90h-686v-608z" />
    <glyph glyph-name="edotaccent" unicode="&#x117;" horiz-adv-x="1212" 
d="M625 1300q-45 0 -75 28.5t-30 72.5t30.5 74t74.5 30t74 -30t30 -74t-29.5 -72.5t-74.5 -28.5zM195 512q9 -196 128 -318t302 -122q309 0 399 254l82 -47q-57 -144 -179 -223t-304 -79q-231 0 -382 160t-151 402q0 156 69 285t190.5 202.5t268.5 73.5q148 0 264.5 -71
t180 -192.5t63.5 -271.5v-53h-931zM197 596h829q-9 188 -120 302t-285 114t-290.5 -115t-133.5 -301z" />
    <glyph glyph-name="Eogonek" unicode="&#x118;" horiz-adv-x="1132" 
d="M1081 -340l43 -51q-58 -68 -163 -68q-80 0 -129.5 49.5t-49.5 124.5q0 61 37.5 122t120.5 136l31 27h-783v1423h850v-90h-749v-545h686v-90h-686v-608h764v-90l-66 -63q-68 -70 -95.5 -117t-27.5 -92q0 -51 30.5 -82t78.5 -31q71 0 108 45z" />
    <glyph glyph-name="eogonek" unicode="&#x119;" horiz-adv-x="1212" 
d="M195 512q9 -196 128 -318t302 -122q309 0 399 254l82 -47q-83 -210 -297 -277l-59 -59q-69 -67 -96 -114t-27 -93q0 -51 29.5 -82t78.5 -31q70 0 107 45l45 -51q-58 -68 -164 -68q-81 0 -129.5 49.5t-48.5 125.5q0 62 36 123t119 135q-62 -5 -77 -5q-231 0 -382 160
t-151 402q0 156 69 285t190.5 202.5t268.5 73.5q148 0 264.5 -71t180 -192.5t63.5 -271.5v-53h-931zM197 596h829q-9 188 -120 302t-285 114t-290.5 -115t-133.5 -301z" />
    <glyph glyph-name="Ecaron" unicode="&#x11a;" horiz-adv-x="1132" 
d="M655 1583h-84l-254 248h101l194 -178l195 178h102zM289 90h764v-90h-865v1423h850v-90h-749v-545h686v-90h-686v-608z" />
    <glyph glyph-name="ecaron" unicode="&#x11b;" horiz-adv-x="1212" 
d="M668 1260h-86l-260 282h100l203 -217l202 217h101zM195 512q9 -196 128 -318t302 -122q309 0 399 254l82 -47q-57 -144 -179 -223t-304 -79q-231 0 -382 160t-151 402q0 156 69 285t190.5 202.5t268.5 73.5q148 0 264.5 -71t180 -192.5t63.5 -271.5v-53h-931zM197 596
h829q-9 188 -120 302t-285 114t-290.5 -115t-133.5 -301z" />
    <glyph glyph-name="Gbreve" unicode="&#x11e;" horiz-adv-x="1570" 
d="M793 1583q-119 0 -192 73t-73 175h86q0 -67 49 -117.5t130 -50.5t129.5 50.5t48.5 117.5h86q0 -102 -72.5 -175t-191.5 -73zM1485 723q0 -165 -52.5 -305.5t-144.5 -236.5t-219.5 -150t-273.5 -54q-196 0 -354.5 93.5t-248.5 261.5t-90 379q0 159 52.5 296.5t144.5 233.5
t220.5 150.5t275.5 54.5q234 0 391 -116t235 -322l-98 -41q-69 187 -203 284t-327 97q-125 0 -233 -47t-186 -130t-122.5 -202.5t-44.5 -259.5q0 -280 167.5 -458.5t426.5 -178.5q237 0 397.5 155t185.5 414h-591v82h692z" />
    <glyph glyph-name="gbreve" unicode="&#x11f;" horiz-adv-x="1325" 
d="M659 1262q-124 0 -200 78.5t-76 203.5h86q0 -91 52.5 -147t137.5 -56q86 0 139.5 56t53.5 147h84q0 -125 -76.5 -203.5t-200.5 -78.5zM1065 1079h96v-952q0 -237 -143.5 -376.5t-392.5 -139.5q-193 0 -321 87t-181 249l90 35q43 -138 149.5 -210.5t264.5 -72.5
q202 0 320 113.5t118 308.5v153q-61 -131 -176.5 -205.5t-267.5 -74.5q-228 0 -378.5 158t-150.5 395q0 155 68.5 281.5t190 199t270.5 72.5q151 0 267 -75t177 -206v260zM627 76q190 0 312 131.5t122 335.5t-120.5 335.5t-309.5 131.5q-187 0 -312.5 -133.5t-125.5 -333.5
t124 -333.5t310 -133.5z" />
    <glyph glyph-name="Gdotaccent" unicode="&#x120;" horiz-adv-x="1570" 
d="M793 1610q-42 0 -70.5 28t-28.5 70q0 40 29 67t70 27t68.5 -27.5t27.5 -68.5t-28 -68.5t-68 -27.5zM1485 723q0 -165 -52.5 -305.5t-144.5 -236.5t-219.5 -150t-273.5 -54q-196 0 -354.5 93.5t-248.5 261.5t-90 379q0 159 52.5 296.5t144.5 233.5t220.5 150.5t275.5 54.5
q234 0 391 -116t235 -322l-98 -41q-69 187 -203 284t-327 97q-125 0 -233 -47t-186 -130t-122.5 -202.5t-44.5 -259.5q0 -280 167.5 -458.5t426.5 -178.5q237 0 397.5 155t185.5 414h-591v82h692z" />
    <glyph glyph-name="gdotaccent" unicode="&#x121;" horiz-adv-x="1325" 
d="M659 1303q-45 0 -74.5 28t-29.5 72t30 74t74 30t74.5 -30t30.5 -74t-30 -72t-75 -28zM1065 1079h96v-952q0 -237 -143.5 -376.5t-392.5 -139.5q-193 0 -321 87t-181 249l90 35q43 -138 149.5 -210.5t264.5 -72.5q202 0 320 113.5t118 308.5v153q-61 -131 -176.5 -205.5
t-267.5 -74.5q-228 0 -378.5 158t-150.5 395q0 155 68.5 281.5t190 199t270.5 72.5q151 0 267 -75t177 -206v260zM627 76q190 0 312 131.5t122 335.5t-120.5 335.5t-309.5 131.5q-187 0 -312.5 -133.5t-125.5 -333.5t124 -333.5t310 -133.5z" />
    <glyph glyph-name="uni0122" unicode="&#x122;" horiz-adv-x="1570" 
d="M1485 723q0 -165 -52.5 -305.5t-144.5 -236.5t-219.5 -150t-273.5 -54q-196 0 -354.5 93.5t-248.5 261.5t-90 379q0 159 52.5 296.5t144.5 233.5t220.5 150.5t275.5 54.5q234 0 391 -116t235 -322l-98 -41q-69 187 -203 284t-327 97q-125 0 -233 -47t-186 -130
t-122.5 -202.5t-44.5 -259.5q0 -280 167.5 -458.5t426.5 -178.5q237 0 397.5 155t185.5 414h-591v82h692zM793 -102q37 0 61.5 -24.5t24.5 -63.5q0 -47 -43 -119l-80 -146l-56 21l78 145l6 15q-34 3 -56.5 27.5t-22.5 60.5q0 37 25 60.5t63 23.5z" />
    <glyph glyph-name="uni0123" unicode="&#x123;" horiz-adv-x="1325" 
d="M643 1239q-36 0 -61 25t-25 63q0 51 43 119l80 147l57 -20l-80 -148l-6 -12q36 -3 58 -27.5t22 -62.5q0 -36 -25 -60t-63 -24zM1065 1079h96v-952q0 -237 -143.5 -376.5t-392.5 -139.5q-193 0 -321 87t-181 249l90 35q43 -138 149.5 -210.5t264.5 -72.5q202 0 320 113.5
t118 308.5v153q-61 -131 -176.5 -205.5t-267.5 -74.5q-228 0 -378.5 158t-150.5 395q0 155 68.5 281.5t190 199t270.5 72.5q151 0 267 -75t177 -206v260zM627 76q190 0 312 131.5t122 335.5t-120.5 335.5t-309.5 131.5q-187 0 -312.5 -133.5t-125.5 -333.5t124 -333.5
t310 -133.5z" />
    <glyph glyph-name="Hbar" unicode="&#x126;" horiz-adv-x="1421" 
d="M1358 1163v-84h-133v-1079h-103v698h-823v-698h-102v1079h-134v84h134v260h102v-260h823v260h103v-260h133zM1122 791v288h-823v-288h823z" />
    <glyph glyph-name="hbar" unicode="&#x127;" horiz-adv-x="1257" 
d="M659 1102q213 0 331 -122t118 -331v-649h-102v633q0 179 -96 278.5t-269 98.5q-80 -1 -150.5 -29t-118.5 -73.5t-76.5 -104.5t-29.5 -121v-682h-100v1235h-160v78h160v184h100v-184h334v-78h-334v-348q50 94 153.5 154.5t239.5 60.5z" />
    <glyph glyph-name="Itilde" unicode="&#x128;" horiz-adv-x="477" 
d="M342 1604q-29 0 -54 11t-43 26.5t-34.5 31t-37 26.5t-42.5 11q-41 0 -65.5 -29t-30.5 -75l-66 30q12 65 52.5 113.5t105.5 48.5q35 0 65 -17t48 -37t44 -37t54 -17q41 0 66.5 30t31.5 76l66 -33q-12 -65 -52.5 -112t-107.5 -47zM188 0v1423h101v-1423h-101z" />
    <glyph glyph-name="itilde" unicode="&#x129;" horiz-adv-x="432" 
d="M317 1305q-34 0 -63.5 17t-46.5 37t-41.5 37t-50.5 17q-38 0 -62 -29.5t-30 -74.5l-62 30q10 65 48 113.5t100 48.5q33 0 61.5 -17t45.5 -37t42 -37t51 -17q39 0 63.5 29.5t30.5 74.5l64 -31q-12 -66 -49.5 -113.5t-100.5 -47.5zM166 0v1079h100v-1079h-100z" />
    <glyph glyph-name="Imacron" unicode="&#x12a;" horiz-adv-x="477" 
d="M18 1665v86h445v-86h-445zM188 0v1423h101v-1423h-101z" />
    <glyph glyph-name="imacron" unicode="&#x12b;" horiz-adv-x="432" 
d="M-6 1360v86h440v-86h-440zM166 0v1079h100v-1079h-100z" />
    <glyph glyph-name="Iogonek" unicode="&#x12e;" horiz-adv-x="477" 
d="M317 -340l43 -51q-55 -68 -161 -68q-82 0 -131.5 49.5t-49.5 124.5q0 61 37.5 122t120.5 136l31 27h-19v1423h101v-1423l-64 -63q-69 -69 -97 -116.5t-28 -92.5q0 -51 30.5 -82t78.5 -31q71 0 108 45z" />
    <glyph glyph-name="iogonek" unicode="&#x12f;" horiz-adv-x="436" 
d="M215 1300q-44 0 -74 29.5t-30 73.5t30 74t74 30t74 -30t30 -74t-30 -73.5t-74 -29.5zM293 -340l45 -51q-58 -68 -164 -68q-81 0 -129.5 49.5t-48.5 124.5q0 62 36.5 122.5t119.5 135.5l30 27h-16v1079h100v-1079h-2l-63 -63q-69 -69 -96 -116t-27 -93q0 -51 29.5 -82
t76.5 -31q72 0 109 45z" />
    <glyph glyph-name="Idotaccent" unicode="&#x130;" horiz-adv-x="477" 
d="M240 1610q-42 0 -70.5 28t-28.5 70q0 40 29 67t70 27q40 0 68 -27.5t28 -68.5t-28 -68.5t-68 -27.5zM188 0v1423h101v-1423h-101z" />
    <glyph glyph-name="dotlessi" unicode="&#x131;" horiz-adv-x="432" 
d="M166 0v1079h100v-1079h-100z" />
    <glyph glyph-name="IJ" unicode="&#x132;" horiz-adv-x="1153" 
d="M188 0v1423h101v-1423h-101zM526 0v90h103q115 0 181.5 73.5t66.5 205.5v1054h100v-1054q0 -174 -92.5 -271.5t-251.5 -97.5h-107z" />
    <glyph glyph-name="ij" unicode="&#x133;" horiz-adv-x="980" 
d="M215 1300q-44 0 -74 29.5t-30 73.5t30 74t74 30t74 -30t30 -74t-30 -73.5t-74 -29.5zM766 1300q-45 0 -74.5 28.5t-29.5 72.5t30 74t74 30t74 -30t30 -74t-29.5 -72.5t-74.5 -28.5zM166 0v1079h100v-1079h-100zM442 -369v90h21q113 0 182.5 75t69.5 194v1089h100v-1087
q0 -164 -94.5 -262.5t-251.5 -98.5h-27z" />
    <glyph glyph-name="uni0136" unicode="&#x136;" horiz-adv-x="1216" 
d="M397 750l836 -750h-131l-813 719v-719h-101v1423h101v-649l733 649h125zM659 -102q36 0 61 -24.5t25 -63.5q0 -47 -43 -119l-79 -146l-58 21l80 145l6 15q-35 3 -57.5 27t-22.5 61t25 60.5t63 23.5z" />
    <glyph glyph-name="uni0137" unicode="&#x137;" horiz-adv-x="1001" 
d="M377 588l627 -588h-123l-615 563v-563h-100v1497h100v-885l590 467h125zM575 -102q37 0 62 -24.5t25 -63.5q0 -51 -41 -119l-82 -146l-56 21l78 145l6 15q-34 3 -57 27.5t-23 60.5q0 37 25 60.5t63 23.5z" />
    <glyph glyph-name="kgreenlandic" unicode="&#x138;" horiz-adv-x="1001" 
d="M1004 0h-121l-617 524v-524h-100v1079h100v-504l590 504h129l-610 -526z" />
    <glyph glyph-name="Lacute" unicode="&#x139;" horiz-adv-x="1069" 
d="M477 1839l29 -86l-467 -176l-25 76zM289 92h751v-92h-852v1423h101v-1331z" />
    <glyph glyph-name="lacute" unicode="&#x13a;" horiz-adv-x="432" 
d="M16 1651l-24 75l463 187l28 -86zM166 0v1497h100v-1497h-100z" />
    <glyph glyph-name="uni013B" unicode="&#x13b;" horiz-adv-x="1069" 
d="M289 92h751v-92h-852v1423h101v-1331zM616 -102q37 0 61.5 -24.5t24.5 -63.5q0 -52 -40 -119l-82 -146l-56 21l78 145l6 15q-34 3 -57 27.5t-23 60.5q0 37 25 60.5t63 23.5z" />
    <glyph glyph-name="uni013C" unicode="&#x13c;" horiz-adv-x="432" 
d="M266 1497v-1497h-100v1497h100zM217 -102q37 0 61.5 -24.5t24.5 -63.5q0 -51 -41 -119l-82 -146l-55 21l78 145l6 15q-34 3 -57 27.5t-23 60.5q0 37 25 60.5t63 23.5z" />
    <glyph glyph-name="Lcaron" unicode="&#x13d;" horiz-adv-x="1073" 
d="M854 1444l-49 -432h-72l41 432h80zM289 92h751v-92h-852v1423h101v-1331z" />
    <glyph glyph-name="lcaron" unicode="&#x13e;" horiz-adv-x="489" 
d="M166 0v1497h100v-1497h-100zM432 1065l41 432h78l-49 -432h-70z" />
    <glyph glyph-name="Ldot" unicode="&#x13f;" horiz-adv-x="1077" 
d="M289 92h751v-92h-852v1423h101v-1331zM754 690q-38 0 -63 25t-25 63t25 64t63 26t64 -26t26 -64t-26 -63t-64 -25z" />
    <glyph glyph-name="ldot" unicode="&#x140;" horiz-adv-x="538" 
d="M166 0v1497h100v-1497h-100zM492 672q-38 0 -63.5 25t-25.5 63t25.5 64t63.5 26t64 -26t26 -64t-26 -63t-64 -25z" />
    <glyph glyph-name="Lslash" unicode="&#x141;" horiz-adv-x="1136" 
d="M358 92h752v-92h-854v657l-186 -79l-27 71l213 92v682h102v-639l211 90l27 -69l-238 -103v-610z" />
    <glyph glyph-name="lslash" unicode="&#x142;" horiz-adv-x="591" 
d="M567 862l-223 -129v-733h-100v676l-176 -103l-41 68l217 125v731h100v-674l184 107z" />
    <glyph glyph-name="Nacute" unicode="&#x143;" horiz-adv-x="1400" 
d="M958 1753l-464 -176l-25 76l461 186zM1112 1423h102v-1423h-86l-839 1245v-1245h-101v1423h86l838 -1243v1243z" />
    <glyph glyph-name="nacute" unicode="&#x144;" horiz-adv-x="1257" 
d="M877 1479l-398 -234l-43 68l393 241zM659 1102q213 0 331 -122t118 -331v-649h-102v633q0 179 -96 278.5t-269 98.5q-80 -1 -150.5 -29t-118.5 -73.5t-76.5 -104.5t-29.5 -121v-682h-100v1079h96v-200q49 97 153.5 160t243.5 63z" />
    <glyph glyph-name="uni0145" unicode="&#x145;" horiz-adv-x="1400" 
d="M1112 1423h102v-1423h-86l-839 1245v-1245h-101v1423h86l838 -1243v1243zM709 -102q37 0 61.5 -24.5t24.5 -63.5q0 -51 -41 -119l-82 -146l-56 21l78 145l6 15q-34 3 -56.5 27.5t-22.5 60.5t25.5 60t62.5 24z" />
    <glyph glyph-name="uni0146" unicode="&#x146;" horiz-adv-x="1257" 
d="M659 1102q213 0 331 -122t118 -331v-649h-102v633q0 179 -96 278.5t-269 98.5q-80 -1 -150.5 -29t-118.5 -73.5t-76.5 -104.5t-29.5 -121v-682h-100v1079h96v-200q49 97 153.5 160t243.5 63zM635 -102q37 0 61.5 -24.5t24.5 -63.5q0 -51 -41 -119l-82 -146l-55 21l78 145
q6 12 6 15q-34 3 -57 27.5t-23 60.5t25.5 60t62.5 24z" />
    <glyph glyph-name="Ncaron" unicode="&#x147;" horiz-adv-x="1400" 
d="M735 1583h-84l-254 248h101l196 -178l195 178h100zM1112 1423h102v-1423h-86l-839 1245v-1245h-101v1423h86l838 -1243v1243z" />
    <glyph glyph-name="ncaron" unicode="&#x148;" horiz-adv-x="1257" 
d="M690 1260h-88l-260 282h100l203 -215l205 215h98zM659 1102q213 0 331 -122t118 -331v-649h-102v633q0 179 -96 278.5t-269 98.5q-80 -1 -150.5 -29t-118.5 -73.5t-76.5 -104.5t-29.5 -121v-682h-100v1079h96v-200q49 97 153.5 160t243.5 63z" />
    <glyph glyph-name="napostrophe" unicode="&#x149;" horiz-adv-x="1406" 
d="M55 1069l41 434h78l-47 -434h-72zM809 1102q213 0 330.5 -121.5t117.5 -331.5v-649h-102v633q0 179 -95.5 278.5t-268.5 98.5q-80 -1 -150 -29t-118.5 -73.5t-77 -104.5t-29.5 -121v-682h-101v1079h97v-205q49 99 153.5 163.5t243.5 64.5z" />
    <glyph glyph-name="Eng" unicode="&#x14a;" horiz-adv-x="1400" 
d="M1112 1423h102v-1443q0 -173 -92 -270t-250 -97h-30v90h35q115 0 181 72.5t66 206.5v24l-835 1239v-1245h-101v1423h86l838 -1243v1243z" />
    <glyph glyph-name="eng" unicode="&#x14b;" horiz-adv-x="1257" 
d="M659 1102q213 0 331 -122t118 -331v-661q0 -161 -95.5 -259t-250.5 -98h-25v90h23q112 0 179 74t67 193v645q0 179 -96 278.5t-269 98.5q-80 -1 -150.5 -29t-118.5 -73.5t-76.5 -104.5t-29.5 -121v-682h-100v1079h96v-200q49 97 153.5 160t243.5 63z" />
    <glyph glyph-name="Omacron" unicode="&#x14c;" horiz-adv-x="1609" 
d="M522 1665v86h563v-86h-563zM805 -23q-199 0 -360 93.5t-253 261.5t-92 379q0 212 92 380t252.5 261.5t360.5 93.5q199 0 359.5 -93.5t252.5 -262t92 -379.5q0 -210 -92 -378.5t-253 -262t-359 -93.5zM805 76q259 0 429.5 178.5t170.5 456.5q0 184 -78 330t-215 226.5
t-307 80.5q-171 0 -308 -80.5t-214.5 -226t-77.5 -330.5q0 -184 77.5 -329t214.5 -225.5t308 -80.5z" />
    <glyph glyph-name="omacron" unicode="&#x14d;" horiz-adv-x="1277" 
d="M365 1358v86h550v-86h-550zM639 -23q-240 0 -394.5 159.5t-154.5 402.5q0 160 69.5 288t195 200.5t284.5 72.5q239 0 394 -159t155 -402q0 -242 -155.5 -402t-393.5 -160zM639 70q197 0 321.5 132.5t124.5 336.5q0 206 -124.5 338.5t-321.5 132.5q-196 0 -321 -132.5
t-125 -338.5q0 -203 125 -336t321 -133z" />
    <glyph glyph-name="Ohungarumlaut" unicode="&#x150;" horiz-adv-x="1609" 
d="M586 1526l-68 47l217 330l74 -52zM946 1526l-65 47l215 330l75 -52zM805 -23q-199 0 -360 93.5t-253 261.5t-92 379q0 212 92 380t252.5 261.5t360.5 93.5q199 0 359.5 -93.5t252.5 -262t92 -379.5q0 -210 -92 -378.5t-253 -262t-359 -93.5zM805 76q259 0 429.5 178.5
t170.5 456.5q0 184 -78 330t-215 226.5t-307 80.5q-171 0 -308 -80.5t-214.5 -226t-77.5 -330.5q0 -184 77.5 -329t214.5 -225.5t308 -80.5z" />
    <glyph glyph-name="ohungarumlaut" unicode="&#x151;" horiz-adv-x="1277" 
d="M440 1245l-65 45l217 297l74 -51zM786 1245l-65 45l215 297l74 -51zM639 -23q-240 0 -394.5 159.5t-154.5 402.5q0 160 69.5 288t195 200.5t284.5 72.5q239 0 394 -159t155 -402q0 -242 -155.5 -402t-393.5 -160zM639 70q197 0 321.5 132.5t124.5 336.5
q0 206 -124.5 338.5t-321.5 132.5q-196 0 -321 -132.5t-125 -338.5q0 -203 125 -336t321 -133z" />
    <glyph glyph-name="OE" unicode="&#x152;" horiz-adv-x="2347" 
d="M1505 90h762v-90h-862v344q-85 -172 -241.5 -269.5t-358.5 -97.5q-199 0 -360 93.5t-253 261.5t-92 379q0 212 92 380t252.5 261.5t360.5 93.5q203 0 359 -98t241 -271v346h850v-90h-750v-545h684v-90h-684v-608zM805 76q259 0 429.5 178.5t170.5 456.5q0 184 -78 330
t-215 226.5t-307 80.5q-171 0 -308 -80.5t-214.5 -226t-77.5 -330.5q0 -184 77.5 -329t214.5 -225.5t308 -80.5z" />
    <glyph glyph-name="oe" unicode="&#x153;" horiz-adv-x="2209" 
d="M1192 512q9 -196 128 -318t302 -122q309 0 399 254l82 -47q-57 -144 -179 -223t-304 -79q-164 0 -292 85t-191 229q-64 -143 -196.5 -228.5t-301.5 -85.5q-240 0 -394.5 159.5t-154.5 402.5q0 160 69.5 288t195 200.5t284.5 72.5q171 0 303.5 -85.5t196.5 -230.5
q62 143 190 229.5t287 86.5q148 0 264.5 -71t180 -192.5t63.5 -271.5q0 -41 -2 -53h-930zM1194 596h829q-9 188 -120 302t-285 114t-290.5 -115t-133.5 -301zM639 70q197 0 321.5 132.5t124.5 336.5q0 206 -124.5 338.5t-321.5 132.5q-196 0 -321 -132.5t-125 -338.5
q0 -203 125 -336t321 -133z" />
    <glyph glyph-name="Racute" unicode="&#x154;" horiz-adv-x="1214" 
d="M862 1753l-465 -176l-24 76l461 186zM686 666h-115l559 -666h-120l-553 666h-168v-666h-101v1423h498q204 0 324 -104.5t120 -274.5t-120.5 -274t-323.5 -104zM289 1333v-588h395q163 0 253.5 80t90.5 213q0 132 -91 213.5t-253 81.5h-395z" />
    <glyph glyph-name="racute" unicode="&#x155;" horiz-adv-x="659" 
d="M608 1479l-397 -234l-43 68l393 241zM262 885q47 92 145.5 154.5t219.5 62.5v-96q-75 -1 -142.5 -29t-115 -73t-75.5 -103t-28 -117v-684h-100v1079h96v-194z" />
    <glyph glyph-name="uni0156" unicode="&#x156;" horiz-adv-x="1214" 
d="M686 666h-115l559 -666h-120l-553 666h-168v-666h-101v1423h498q204 0 324 -104.5t120 -274.5t-120.5 -274t-323.5 -104zM289 1333v-588h395q163 0 253.5 80t90.5 213q0 132 -91 213.5t-253 81.5h-395zM602 -102q36 0 61 -24.5t25 -63.5q0 -47 -43 -119l-80 -146l-57 21
l78 145q6 12 6 15q-34 3 -57 27.5t-23 60.5q0 37 25.5 60.5t64.5 23.5z" />
    <glyph glyph-name="uni0157" unicode="&#x157;" horiz-adv-x="659" 
d="M262 885q47 92 145.5 154.5t219.5 62.5v-96q-75 -1 -142.5 -29t-115 -73t-75.5 -103t-28 -117v-684h-100v1079h96v-194zM221 -102q37 0 61.5 -24.5t24.5 -63.5q0 -51 -41 -119l-80 -146l-57 21l78 145q6 12 6 15q-34 3 -57 27.5t-23 60.5t25.5 60t62.5 24z" />
    <glyph glyph-name="Rcaron" unicode="&#x158;" horiz-adv-x="1214" 
d="M639 1583h-84l-254 248h100l197 -178l195 178h100zM686 666h-115l559 -666h-120l-553 666h-168v-666h-101v1423h498q204 0 324 -104.5t120 -274.5t-120.5 -274t-323.5 -104zM289 1333v-588h395q163 0 253.5 80t90.5 213q0 132 -91 213.5t-253 81.5h-395z" />
    <glyph glyph-name="rcaron" unicode="&#x159;" horiz-adv-x="659" 
d="M422 1260h-88l-260 282h100l203 -215l203 215h100zM262 885q47 92 145.5 154.5t219.5 62.5v-96q-75 -1 -142.5 -29t-115 -73t-75.5 -103t-28 -117v-684h-100v1079h96v-194z" />
    <glyph glyph-name="Sacute" unicode="&#x15a;" horiz-adv-x="1091" 
d="M350 1577l-26 76l462 186l29 -86zM541 -18q-184 0 -307 84.5t-166 238.5l98 37q32 -128 131 -198t248 -70q158 0 253 73t95 197q0 70 -26 124.5t-70 91t-101 66t-120 54l-126 49t-120 57t-101 73.5t-70 102t-26 139q0 152 114 247t304 95q168 0 275 -72.5t149 -208.5
l-98 -37q-37 117 -118 172.5t-212 55.5q-145 0 -228 -67t-83 -173q0 -66 26 -117t70 -85t101 -62t120 -51.5t126.5 -48.5t120.5 -59.5t101 -78t70 -110t26 -150.5q0 -168 -125.5 -268t-330.5 -100z" />
    <glyph glyph-name="sacute" unicode="&#x15b;" horiz-adv-x="956" 
d="M322 1247l-43 68l393 241l47 -75zM483 -23q-162 0 -272 65t-150 183l91 37q30 -96 115.5 -148.5t217.5 -52.5q134 0 214.5 55.5t80.5 155.5q0 57 -28.5 99.5t-75 68t-106 48.5t-122 39.5t-122 42t-106 55.5t-75 81t-28.5 117q0 129 97.5 203t260.5 74q138 0 230.5 -53.5
t128.5 -157.5l-89 -35q-63 166 -270 166q-122 0 -190 -51t-68 -140q0 -54 28.5 -94t75 -63t106.5 -44.5t122 -37t122 -42t106.5 -58t75 -85t28.5 -124.5q0 -142 -109 -223t-289 -81z" />
    <glyph glyph-name="Scedilla" unicode="&#x15e;" horiz-adv-x="1091" 
d="M997 350q0 -149 -100 -245.5t-270 -116.5l-47 -107q86 -1 139 -53t53 -129q0 -81 -59 -136t-156 -55q-133 0 -209 97l45 47q60 -76 154 -76q64 0 104.5 37.5t40.5 91.5q0 55 -42 93t-107 38h-37l-10 17l57 129h-12q-184 0 -307 84.5t-166 238.5l98 37q32 -128 131 -198
t248 -70q158 0 253 73t95 197q0 70 -26 124.5t-70 91t-101 66t-120 54l-126 49t-120 57t-101 73.5t-70 102t-26 139q0 152 114 247t304 95q168 0 275 -72.5t149 -208.5l-98 -37q-37 117 -118 172.5t-212 55.5q-145 0 -228 -67t-83 -173q0 -66 26 -117t70 -85t101 -62
t120 -51.5t126.5 -48.5t120.5 -59.5t101 -78t70 -110t26 -150.5z" />
    <glyph glyph-name="scedilla" unicode="&#x15f;" horiz-adv-x="956" 
d="M881 281q0 -136 -101.5 -217t-269.5 -87l-45 -96q86 -1 139 -53t53 -129q0 -81 -58.5 -136t-156.5 -55q-130 0 -206 97l43 47q60 -76 153 -76q66 0 106 37.5t40 91.5q0 55 -42.5 93t-107.5 38h-35l-12 17l59 127q-145 7 -243.5 71.5t-135.5 173.5l91 37
q30 -96 115.5 -148.5t217.5 -52.5q134 0 214.5 55.5t80.5 155.5q0 57 -28.5 99.5t-75 68t-106 48.5t-122 39.5t-122 42t-106 55.5t-75 81t-28.5 117q0 129 97.5 203t260.5 74q138 0 230.5 -53.5t128.5 -157.5l-89 -35q-63 166 -270 166q-122 0 -190 -51t-68 -140
q0 -54 28.5 -94t75 -63t106.5 -44.5t122 -37t122 -42t106.5 -58t75 -85t28.5 -124.5z" />
    <glyph glyph-name="Scaron" unicode="&#x160;" horiz-adv-x="1091" 
d="M616 1583h-81l-256 248h102l194 -178l195 178h100zM236 1112q0 -66 26 -117t70 -85t101 -62t120 -51.5t126.5 -48.5t120.5 -59.5t101 -78t70 -110t26 -150.5q0 -168 -125.5 -268t-330.5 -100q-184 0 -307 84.5t-166 238.5l98 37q32 -128 131 -198t248 -70q158 0 253 73
t95 197q0 70 -26 124.5t-70 91t-101 66t-120 54l-126 49t-120 57t-101 73.5t-70 102t-26 139q0 152 114 247t304 95q168 0 275 -72.5t149 -208.5l-98 -37q-37 117 -118 172.5t-212 55.5q-145 0 -228 -67t-83 -173z" />
    <glyph glyph-name="scaron" unicode="&#x161;" horiz-adv-x="956" 
d="M532 1260h-88l-260 284h101l202 -217l203 217h101zM217 829q0 -54 28.5 -94t75 -63t106.5 -44.5t122 -37t122 -42t106.5 -58t75 -85t28.5 -124.5q0 -142 -109 -223t-289 -81q-162 0 -272 65t-150 183l91 37q30 -96 115.5 -148.5t217.5 -52.5q134 0 214.5 55.5t80.5 155.5
q0 57 -28.5 99.5t-75 68t-106 48.5t-122 39.5t-122 42t-106 55.5t-75 81t-28.5 117q0 129 97.5 203t260.5 74q138 0 230.5 -53.5t128.5 -157.5l-89 -35q-63 166 -270 166q-122 0 -190 -51t-68 -140z" />
    <glyph glyph-name="uni0162" unicode="&#x162;" horiz-adv-x="1085" 
d="M594 0h-14l-60 -127q87 -3 140 -55t53 -129q0 -80 -58.5 -134.5t-156.5 -54.5q-128 0 -209 94l45 50q60 -76 153 -76q66 0 106 37t40 92t-42.5 93t-107.5 38h-34l-13 16l70 156h-14v1331h-463v92h1028v-92h-463v-1331z" />
    <glyph glyph-name="uni0163" unicode="&#x163;" horiz-adv-x="714" 
d="M559 0q-21 0 -57 4l-49 -108q86 -1 138 -53.5t52 -129.5q0 -81 -58.5 -134.5t-156.5 -53.5q-133 0 -207 94l43 49q60 -76 156 -76q65 0 105 36.5t40 90.5q0 56 -42 95t-107 39h-37l-10 16l67 147q-100 32 -153.5 116t-53.5 208v649h-202v90h123q88 0 88 90v183h96v-273
h354v-90h-356v-641q0 -124 62.5 -191t178.5 -67h134v-90h-148z" />
    <glyph glyph-name="Tcaron" unicode="&#x164;" horiz-adv-x="1085" 
d="M586 1583h-82l-256 248h100l197 -178l194 178h101zM1057 1423v-92h-463v-1331h-102v1331h-463v92h1028z" />
    <glyph glyph-name="tcaron" unicode="&#x165;" horiz-adv-x="714" 
d="M580 1145l41 434h77l-47 -434h-71zM559 0q-157 0 -243.5 90.5t-86.5 249.5v649h-202v90h123q88 0 88 90v183h96v-273h354v-90h-356v-641q0 -124 62.5 -191t178.5 -67h134v-90h-148z" />
    <glyph glyph-name="Tbar" unicode="&#x166;" horiz-adv-x="1105" 
d="M1067 1331h-463v-600h246v-78h-246v-653h-102v653h-246v78h246v600h-463v92h1028v-92z" />
    <glyph glyph-name="tbar" unicode="&#x167;" horiz-adv-x="733" 
d="M588 90h133v-90h-148q-157 0 -243 90t-86 250v203h-176v78h176v368h-203v90h123q88 0 88 90v183h96v-273h354v-90h-356v-368h305v-78h-305v-195q0 -123 62.5 -190.5t179.5 -67.5z" />
    <glyph glyph-name="Utilde" unicode="&#x168;" horiz-adv-x="1370" 
d="M563 1710q-47 0 -75.5 -29t-36.5 -75l-78 30q14 65 61.5 113.5t126.5 48.5q41 0 76.5 -17t57 -37t52.5 -37t64 -17q48 0 78.5 30t38.5 76l78 -33q-14 -64 -62 -111.5t-129 -47.5q-43 0 -79 16.5t-57 36.5t-52 36.5t-64 16.5zM1098 1423h100v-909q0 -88 -20 -167.5
t-61.5 -147t-101.5 -117t-144 -77.5t-185 -28q-126 0 -225.5 42.5t-161.5 116.5t-94.5 170t-32.5 208v909h102v-907q0 -126 44.5 -224t139 -158t228.5 -60q197 0 304.5 125t107.5 317v907z" />
    <glyph glyph-name="utilde" unicode="&#x169;" horiz-adv-x="1234" 
d="M467 1413q-47 0 -76 -29t-37 -75l-78 30q14 65 60.5 113.5t122.5 48.5q41 0 76.5 -17t57 -37t52.5 -37t64 -17q48 0 77 29.5t39 76.5l76 -33q-14 -66 -58.5 -112.5t-123.5 -46.5q-43 0 -79.5 16.5t-57.5 36.5t-52 36.5t-63 16.5zM969 1079h102v-1079h-98v193
q-49 -92 -152 -154t-235 -62q-202 0 -319 121.5t-117 319.5v661h102v-651q0 -164 96 -261.5t258 -96.5q78 1 146.5 28t115 71t73.5 99t28 111v700z" />
    <glyph glyph-name="Umacron" unicode="&#x16a;" horiz-adv-x="1370" 
d="M967 1751v-86h-564v86h564zM1098 1423h100v-909q0 -88 -20 -167.5t-61.5 -147t-101.5 -117t-144 -77.5t-185 -28q-126 0 -225.5 42.5t-161.5 116.5t-94.5 170t-32.5 208v909h102v-907q0 -126 44.5 -224t139 -158t228.5 -60q197 0 304.5 125t107.5 317v907z" />
    <glyph glyph-name="umacron" unicode="&#x16b;" horiz-adv-x="1234" 
d="M864 1446v-86h-551v86h551zM969 1079h102v-1079h-98v193q-49 -92 -152 -154t-235 -62q-202 0 -319 121.5t-117 319.5v661h102v-651q0 -164 96 -261.5t258 -96.5q78 1 146.5 28t115 71t73.5 99t28 111v700z" />
    <glyph glyph-name="Uring" unicode="&#x16e;" horiz-adv-x="1370" 
d="M686 1497q-78 0 -131 50t-53 126q0 75 53 126.5t131 51.5t130 -51.5t52 -126.5q0 -76 -52 -126t-130 -50zM686 1784q-49 0 -81 -31.5t-32 -79.5q0 -47 32 -78.5t81 -31.5t81 31.5t32 78.5q0 48 -32 79.5t-81 31.5zM1098 1423h100v-909q0 -88 -20 -167.5t-61.5 -147
t-101.5 -117t-144 -77.5t-185 -28q-126 0 -225.5 42.5t-161.5 116.5t-94.5 170t-32.5 208v909h102v-907q0 -126 44.5 -224t139 -158t228.5 -60q197 0 304.5 125t107.5 317v907z" />
    <glyph glyph-name="uring" unicode="&#x16f;" horiz-adv-x="1234" 
d="M590 1204q-78 0 -130 51t-52 127q0 75 52 126t130 51q79 0 131.5 -51t52.5 -126q0 -77 -52.5 -127.5t-131.5 -50.5zM590 1493q-47 0 -80 -32.5t-33 -78.5q0 -47 33 -79.5t80 -32.5q49 0 82 32.5t33 79.5q0 46 -33 78.5t-82 32.5zM969 1079h102v-1079h-98v193
q-49 -92 -152 -154t-235 -62q-202 0 -319 121.5t-117 319.5v661h102v-651q0 -164 96 -261.5t258 -96.5q78 1 146.5 28t115 71t73.5 99t28 111v700z" />
    <glyph glyph-name="Uhungarumlaut" unicode="&#x170;" horiz-adv-x="1370" 
d="M690 1851l-223 -325l-68 47l217 330zM1053 1851l-226 -325l-65 47l215 330zM1098 1423h100v-909q0 -88 -20 -167.5t-61.5 -147t-101.5 -117t-144 -77.5t-185 -28q-126 0 -225.5 42.5t-161.5 116.5t-94.5 170t-32.5 208v909h102v-907q0 -126 44.5 -224t139 -158t228.5 -60
q197 0 304.5 125t107.5 317v907z" />
    <glyph glyph-name="uhungarumlaut" unicode="&#x171;" horiz-adv-x="1234" 
d="M614 1538l-223 -291l-65 45l215 297zM961 1538l-226 -291l-65 45l215 297zM969 1079h102v-1079h-98v193q-49 -92 -152 -154t-235 -62q-202 0 -319 121.5t-117 319.5v661h102v-651q0 -164 96 -261.5t258 -96.5q78 1 146.5 28t115 71t73.5 99t28 111v700z" />
    <glyph glyph-name="Uogonek" unicode="&#x172;" horiz-adv-x="1370" 
d="M1098 1423h100v-909q0 -167 -71 -297.5t-207 -191.5l-66 -64q-69 -69 -96 -116t-27 -93q0 -51 29.5 -81.5t79.5 -30.5q69 0 106 45l45 -52q-57 -67 -164 -67q-81 0 -129.5 49.5t-48.5 124.5q0 59 34.5 117.5t111.5 128.5q-53 -9 -109 -9q-126 0 -225.5 42.5t-161.5 116.5
t-94.5 170t-32.5 208v909h102v-907q0 -126 44.5 -224t139 -158t228.5 -60q197 0 304.5 125t107.5 317v907z" />
    <glyph glyph-name="uogonek" unicode="&#x173;" horiz-adv-x="1234" 
d="M1100 -340l43 -51q-58 -68 -164 -68q-80 0 -129 49.5t-49 124.5q0 62 37 122.5t120 135.5l31 27h-16v193q-49 -92 -152 -154t-235 -62q-202 0 -319 121.5t-117 319.5v661h102v-651q0 -164 96 -261.5t258 -96.5q78 1 146.5 28t115 71t73.5 99t28 111v700h102v-1079
l-65 -63q-68 -70 -95.5 -117t-27.5 -92q0 -51 30 -82t78 -31q72 0 109 45z" />
    <glyph glyph-name="Wcircumflex" unicode="&#x174;" horiz-adv-x="1742" 
d="M874 1763l-196 -180h-100l256 248h81l254 -248h-100zM1595 1423h103l-350 -1423h-109l-367 1280l-368 -1280h-109l-350 1423h100l308 -1278l364 1278h109l364 -1282z" />
    <glyph glyph-name="wcircumflex" unicode="&#x175;" horiz-adv-x="1546" 
d="M772 1477l-203 -215h-100l262 282h86l258 -282h-98zM1403 1079h110l-305 -1079h-118l-314 958l-311 -958h-121l-305 1079h108l263 -966l309 966h117l307 -962z" />
    <glyph glyph-name="Ycircumflex" unicode="&#x176;" horiz-adv-x="1214" 
d="M610 1763l-194 -180h-103l256 248h84l252 -248h-100zM1194 1423l-537 -837v-586h-100v592l-532 831h114l471 -747l469 747h115z" />
    <glyph glyph-name="ycircumflex" unicode="&#x177;" horiz-adv-x="1087" 
d="M545 1479l-205 -217h-100l262 282h86l258 -282h-98zM956 1079h107l-623 -1446h-100l158 367h-17l-456 1079h108l408 -983z" />
    <glyph glyph-name="Ydieresis" unicode="&#x178;" horiz-adv-x="1214" 
d="M424 1610q-40 0 -69 28t-29 70q0 40 29 68t69 28t69 -28.5t29 -69.5q0 -40 -29.5 -68t-68.5 -28zM793 1610q-39 0 -68 28t-29 70q0 39 29.5 67.5t69.5 28.5t69 -28.5t29 -69.5t-29 -68.5t-71 -27.5zM1194 1423l-537 -837v-586h-100v592l-532 831h114l471 -747l469 747
h115z" />
    <glyph glyph-name="Zacute" unicode="&#x179;" horiz-adv-x="1087" 
d="M809 1753l-465 -176l-27 76l463 186zM1040 92l2 -92h-993v74l850 1259h-827v90h952v-75l-850 -1256h866z" />
    <glyph glyph-name="zacute" unicode="&#x17a;" horiz-adv-x="925" 
d="M694 1479l-397 -234l-41 68l391 241zM174 86h709v-86h-834v78l684 915h-653v86h776v-82z" />
    <glyph glyph-name="Zdotaccent" unicode="&#x17b;" horiz-adv-x="1087" 
d="M543 1610q-42 0 -70.5 28t-28.5 70q0 40 29 67t70 27t68.5 -27.5t27.5 -68.5t-28 -68.5t-68 -27.5zM1040 92l2 -92h-993v74l850 1259h-827v90h952v-75l-850 -1256h866z" />
    <glyph glyph-name="zdotaccent" unicode="&#x17c;" horiz-adv-x="925" 
d="M465 1300q-45 0 -75 28.5t-30 72.5t30.5 74t74.5 30q43 0 73.5 -30t30.5 -74t-30.5 -72.5t-73.5 -28.5zM174 86h709v-86h-834v78l684 915h-653v86h776v-82z" />
    <glyph glyph-name="Zcaron" unicode="&#x17d;" horiz-adv-x="1087" 
d="M586 1583h-84l-256 248h102l195 -178l194 178h103zM1040 92l2 -92h-993v74l850 1259h-827v90h952v-75l-850 -1256h866z" />
    <glyph glyph-name="zcaron" unicode="&#x17e;" horiz-adv-x="925" 
d="M508 1260h-86l-262 282h100l205 -217l203 217h100zM174 86h709v-86h-834v78l684 915h-653v86h776v-82z" />
    <glyph glyph-name="uni01EA" unicode="&#x1ea;" horiz-adv-x="1609" 
d="M1010 6l-62 -59q-68 -70 -95.5 -117t-27.5 -92q0 -51 30.5 -82t78.5 -31q69 0 108 45l43 -49q-54 -70 -161 -70q-82 0 -131.5 50t-49.5 125q0 62 37 122t121 136q-54 -7 -96 -7q-199 0 -360 93.5t-253 261.5t-92 379q0 212 92 380t252.5 261.5t360.5 93.5
q199 0 359.5 -93.5t252.5 -262t92 -379.5q0 -261 -137.5 -451t-361.5 -254zM205 711q0 -184 77.5 -329t214.5 -225.5t308 -80.5q259 0 429.5 178.5t170.5 456.5q0 184 -78 330t-215 226.5t-307 80.5q-171 0 -308 -80.5t-214.5 -226t-77.5 -330.5z" />
    <glyph glyph-name="uni01EB" unicode="&#x1eb;" horiz-adv-x="1277" 
d="M809 2l-66 -63q-68 -68 -95 -115.5t-27 -93.5q0 -50 29.5 -81.5t78.5 -31.5q68 0 107 45l45 -49q-57 -70 -164 -70q-81 0 -129.5 49.5t-48.5 124.5q0 63 36 123t119 135l6 5q-30 -3 -61 -3q-240 0 -394.5 159.5t-154.5 402.5q0 160 69.5 288t195 200.5t284.5 72.5
q239 0 394 -159t155 -402q0 -194 -104 -340t-275 -197zM193 539q0 -203 125 -336t321 -133q197 0 321.5 132.5t124.5 336.5q0 206 -124.5 338.5t-321.5 132.5q-196 0 -321 -132.5t-125 -338.5z" />
    <glyph glyph-name="AEacute" unicode="&#x1fc;" horiz-adv-x="1865" 
d="M1511 1753l-464 -176l-27 76l463 186zM1026 90h760v-90h-862v463h-564l-272 -463h-111l834 1423h963v-90h-748v-545h682v-90h-682v-608zM414 551h510v782h-50z" />
    <glyph glyph-name="aeacute" unicode="&#x1fd;" horiz-adv-x="2197" 
d="M1346 1481l-398 -234l-43 68l391 241zM1169 512q9 -197 132 -323t305 -126q310 0 403 261l86 -35q-54 -148 -175 -230t-302 -82q-161 0 -280 79.5t-179 217.5v-274h-96v262q-61 -133 -177.5 -209t-267.5 -76q-228 0 -378 161t-150 403q0 157 68.5 285t189.5 201t270 73
q152 0 268 -75.5t177 -207.5v262h96v-280q60 138 179 219.5t274 81.5q146 0 260.5 -71t175.5 -192.5t61 -271.5v-53h-940zM1171 582h846q-5 194 -119 316t-294 122q-178 0 -299.5 -123t-133.5 -315zM627 70q191 0 312.5 132t121.5 339t-121 338t-313 131q-186 0 -310 -134.5
t-124 -334.5q0 -203 123.5 -337t310.5 -134z" />
    <glyph glyph-name="Oslashacute" unicode="&#x1fe;" horiz-adv-x="1615" 
d="M1075 1753l-467 -176l-24 76l463 186zM1329 1221q88 -97 136 -228t48 -282q0 -210 -92 -378.5t-253 -262t-359 -93.5q-265 0 -457 162l-143 -157l-66 61l144 160q-183 205 -183 508q0 212 92 380t252.5 261.5t360.5 93.5q265 0 457 -162l141 156l63 -62zM209 711
q0 -255 147 -432l842 929q-165 140 -389 140q-171 0 -308 -80.5t-214.5 -226t-77.5 -330.5zM809 76q259 0 429.5 178.5t170.5 456.5q0 258 -149 434l-840 -930q161 -139 389 -139z" />
    <glyph glyph-name="oslashacute" unicode="&#x1ff;" horiz-adv-x="1310" 
d="M889 1479l-397 -234l-43 68l391 241zM1237 999l-137 -120q102 -142 102 -340q0 -243 -154.5 -402.5t-392.5 -159.5q-241 0 -395 160l-133 -117l-51 60l133 119q-103 144 -103 340q0 160 69.5 288t195 200.5t284.5 72.5q240 0 394 -160l135 119zM207 539q0 -154 78 -275
l692 613q-123 133 -322 133q-196 0 -322 -132.5t-126 -338.5zM1102 539q0 156 -76 274l-692 -610q123 -133 321 -133q196 0 321.5 133t125.5 336z" />
    <glyph glyph-name="uni0218" unicode="&#x218;" horiz-adv-x="1091" 
d="M236 1112q0 -66 26 -117t70 -85t101 -62t120 -51.5t126.5 -48.5t120.5 -59.5t101 -78t70 -110t26 -150.5q0 -168 -125.5 -268t-330.5 -100q-184 0 -307 84.5t-166 238.5l98 37q32 -128 131 -198t248 -70q158 0 253 73t95 197q0 70 -26 124.5t-70 91t-101 66t-120 54
l-126 49t-120 57t-101 73.5t-70 102t-26 139q0 152 114 247t304 95q168 0 275 -72.5t149 -208.5l-98 -37q-37 117 -118 172.5t-212 55.5q-145 0 -228 -67t-83 -173zM590 -102q37 0 61.5 -24.5t24.5 -63.5q0 -51 -41 -119l-82 -146l-55 21l77 145l7 15q-34 3 -57 27.5
t-23 60.5t25.5 60t62.5 24z" />
    <glyph glyph-name="uni0219" unicode="&#x219;" horiz-adv-x="956" 
d="M217 829q0 -54 28.5 -94t75 -63t106.5 -44.5t122 -37t122 -42t106.5 -58t75 -85t28.5 -124.5q0 -142 -109 -223t-289 -81q-162 0 -272 65t-150 183l91 37q30 -96 115.5 -148.5t217.5 -52.5q134 0 214.5 55.5t80.5 155.5q0 57 -28.5 99.5t-75 68t-106 48.5t-122 39.5
t-122 42t-106 55.5t-75 81t-28.5 117q0 129 97.5 203t260.5 74q138 0 230.5 -53.5t128.5 -157.5l-89 -35q-63 166 -270 166q-122 0 -190 -51t-68 -140zM508 -102q36 0 61 -24.5t25 -63.5q0 -47 -43 -119l-80 -146l-55 21l78 145l6 15q-34 3 -57 27.5t-23 60.5q0 37 25 60.5
t63 23.5z" />
    <glyph glyph-name="uni021A" unicode="&#x21a;" horiz-adv-x="1085" 
d="M1057 1423v-92h-463v-1331h-102v1331h-463v92h1028zM545 -102q37 0 61.5 -24.5t24.5 -63.5q0 -51 -41 -119l-80 -146l-57 21l77 145q7 14 7 15q-34 3 -57 27.5t-23 60.5t25.5 60t62.5 24z" />
    <glyph glyph-name="uni021B" unicode="&#x21b;" horiz-adv-x="714" 
d="M573 90h134v-90h-148q-157 0 -243.5 90.5t-86.5 249.5v649h-202v90h123q88 0 88 90v183h96v-273h354v-90h-356v-641q0 -124 62.5 -191t178.5 -67zM487 -86q36 0 61 -25t25 -63q0 -51 -43 -119l-79 -147l-58 20l78 148l6 12q-35 3 -57.5 28t-22.5 62q0 35 26 59.5t64 24.5
z" />
    <glyph glyph-name="uni0237" unicode="&#x237;" horiz-adv-x="432" 
d="M-106 -369v90h22q113 0 181.5 75t68.5 194v1089h102v-1087q0 -164 -95 -262.5t-251 -98.5h-28z" />
    <glyph glyph-name="circumflex" unicode="&#x2c6;" horiz-adv-x="641" 
d="M668 1262h-99l-204 215l-203 -215h-101l261 282h88z" />
    <glyph glyph-name="caron" unicode="&#x2c7;" horiz-adv-x="671" 
d="M569 1544h99l-258 -282h-88l-261 282h101l203 -215z" />
    <glyph glyph-name="breve" unicode="&#x2d8;" horiz-adv-x="604" 
d="M338 1262q-124 0 -200.5 78.5t-76.5 203.5h84q0 -91 53.5 -147t139.5 -56q85 0 137.5 56t52.5 147h86q0 -125 -76 -203.5t-200 -78.5z" />
    <glyph glyph-name="dotaccent" unicode="&#x2d9;" horiz-adv-x="239" 
d="M166 1303q-45 0 -75 28t-30 72t30.5 74t74.5 30t74 -30t30 -74t-29.5 -72t-74.5 -28z" />
    <glyph glyph-name="ring" unicode="&#x2da;" horiz-adv-x="393" 
d="M246 1204q-80 0 -132.5 51t-52.5 127q0 75 53 126t132 51q78 0 130 -51t52 -126q0 -76 -52 -127t-130 -51zM246 1270q47 0 79.5 32.5t32.5 79.5q0 46 -32.5 78.5t-79.5 32.5q-49 0 -82 -32.5t-33 -78.5q0 -47 33 -79.5t82 -32.5z" />
    <glyph glyph-name="ogonek" unicode="&#x2db;" horiz-adv-x="464" 
d="M240 -457q-80 0 -129.5 49.5t-49.5 124.5q0 62 37 123t121 135l70 62l43 -35l-66 -63q-68 -70 -95.5 -117t-27.5 -92q0 -51 30.5 -82t78.5 -31q69 0 106 45l45 -51q-58 -68 -163 -68z" />
    <glyph glyph-name="tilde" unicode="&#x2dc;" horiz-adv-x="768" 
d="M502 1307q-42 0 -78 16.5t-58 36.5t-52 36.5t-62 16.5q-47 0 -76 -29t-37 -75l-78 30q14 65 60.5 113.5t122.5 48.5q41 0 76 -17t56.5 -37t53 -37t64.5 -17q47 0 76.5 30t37.5 76l78 -33q-14 -65 -59.5 -112t-124.5 -47z" />
    <glyph glyph-name="hungarumlaut" unicode="&#x2dd;" horiz-adv-x="593" 
d="M106 1247l-65 45l215 297l74 -51zM451 1247l-66 45l215 297l76 -51z" />
    <glyph glyph-name="gravecomb" unicode="&#x300;" 
d="M-104 1247l-398 234l47 75l394 -241z" />
    <glyph glyph-name="acutecomb" unicode="&#x301;" 
d="M-459 1247l-43 68l393 241l48 -75z" />
    <glyph glyph-name="uni0302" unicode="&#x302;" 
d="M-61 1262h-99l-205 215l-202 -215h-101l260 282h89z" />
    <glyph glyph-name="tildecomb" unicode="&#x303;" 
d="M-246 1307q-42 0 -78 16.5t-58 36.5t-52 36.5t-62 16.5q-47 0 -75.5 -29t-36.5 -75l-78 30q14 65 60 113.5t122 48.5q41 0 76 -17t56.5 -37t53 -37t64.5 -17q47 0 77 30t38 76l78 -33q-14 -65 -60 -112t-125 -47z" />
    <glyph glyph-name="uni0304" unicode="&#x304;" 
d="M-612 1360v86h551v-86h-551z" />
    <glyph glyph-name="uni0306" unicode="&#x306;" 
d="M-330 1262q-124 0 -200 78.5t-76 203.5h84q0 -91 53 -147t139 -56q85 0 138 56t53 147h86q0 -125 -76.5 -203.5t-200.5 -78.5z" />
    <glyph glyph-name="uni0307" unicode="&#x307;" 
d="M-166 1303q-45 0 -74.5 28t-29.5 72t30 74t74 30t74.5 -30t30.5 -74t-30 -72t-75 -28z" />
    <glyph glyph-name="uni0308" unicode="&#x308;" 
d="M-522 1305q-40 0 -70.5 28.5t-30.5 69.5q0 42 30.5 70t72.5 28q39 0 68.5 -28.5t29.5 -69.5t-30 -69.5t-70 -28.5zM-162 1305q-40 0 -70 28.5t-30 69.5q0 42 29.5 70t70.5 28q42 0 71.5 -28.5t29.5 -69.5t-29.5 -69.5t-71.5 -28.5z" />
    <glyph glyph-name="uni030A" unicode="&#x30a;" 
d="M-244 1204q-79 0 -131.5 50.5t-52.5 127.5q0 75 52.5 126t131.5 51q78 0 130.5 -51t52.5 -126q0 -76 -52.5 -127t-130.5 -51zM-244 1270q47 0 80 32.5t33 79.5q0 46 -33 78.5t-80 32.5q-49 0 -81.5 -32.5t-32.5 -78.5q0 -48 32.5 -80t81.5 -32z" />
    <glyph glyph-name="uni030B" unicode="&#x30b;" 
d="M-631 1247l-65 45l215 297l75 -51zM-287 1247l-65 45l217 297l74 -51z" />
    <glyph glyph-name="uni030C" unicode="&#x30c;" 
d="M-160 1544h99l-258 -282h-89l-260 282h101l202 -215z" />
    <glyph glyph-name="uni0326" unicode="&#x326;" 
d="M-147 -102q37 0 61.5 -24.5t24.5 -63.5q0 -51 -41 -119l-82 -146l-56 21l78 145l6 15q-34 3 -57 27.5t-23 60.5t26 60t63 24z" />
    <glyph glyph-name="uni0327" unicode="&#x327;" 
d="M-276 -492q-133 0 -209 97l43 47q64 -76 155 -76q64 0 105 37.5t41 91.5q0 55 -42.5 93t-107.5 38h-37l-10 17l74 163h71l-61 -135q86 -1 139.5 -53.5t53.5 -128.5q0 -81 -59 -136t-156 -55z" />
    <glyph glyph-name="uni0328" unicode="&#x328;" 
d="M-225 -457q-80 0 -129 49.5t-49 124.5q0 62 36.5 123t120.5 135l70 62l43 -35l-66 -63q-68 -70 -95.5 -117t-27.5 -92q0 -51 30.5 -82t78.5 -31q70 0 107 45l45 -51q-58 -68 -164 -68z" />
    <glyph glyph-name="uni0335" unicode="&#x335;" 
d="M-655 508v78h594v-78h-594z" />
    <glyph glyph-name="uni0336" unicode="&#x336;" 
d="M-1358 582v84h1297v-84h-1297z" />
    <glyph glyph-name="uni0337" unicode="&#x337;" 
d="M-588 360l-39 68l502 289l39 -68z" />
    <glyph glyph-name="uni0338" unicode="&#x338;" 
d="M-1169 -4l-54 61l1110 977l52 -57z" />
    <glyph glyph-name="Wgrave" unicode="&#x1e80;" horiz-adv-x="1742" 
d="M1118 1653l-24 -76l-465 176l28 86zM1595 1423h103l-350 -1423h-109l-367 1280l-368 -1280h-109l-350 1423h100l308 -1278l364 1278h109l364 -1282z" />
    <glyph glyph-name="wgrave" unicode="&#x1e81;" horiz-adv-x="1546" 
d="M969 1315l-43 -68l-398 234l47 75zM1403 1079h110l-305 -1079h-118l-314 958l-311 -958h-121l-305 1079h108l263 -966l309 966h117l307 -962z" />
    <glyph glyph-name="Wacute" unicode="&#x1e82;" horiz-adv-x="1742" 
d="M1139 1753l-465 -176l-25 76l461 186zM1595 1423h103l-350 -1423h-109l-367 1280l-368 -1280h-109l-350 1423h100l308 -1278l364 1278h109l364 -1282z" />
    <glyph glyph-name="wacute" unicode="&#x1e83;" horiz-adv-x="1546" 
d="M1004 1481l-398 -234l-43 68l393 241zM1403 1079h110l-305 -1079h-118l-314 958l-311 -958h-121l-305 1079h108l263 -966l309 966h117l307 -962z" />
    <glyph glyph-name="Wdieresis" unicode="&#x1e84;" horiz-adv-x="1742" 
d="M686 1610q-39 0 -68.5 28t-29.5 70q0 39 30 67.5t70 28.5q39 0 67.5 -28.5t28.5 -69.5t-29 -68.5t-69 -27.5zM1057 1610q-39 0 -67.5 28t-28.5 70q0 40 29 68t69 28t69 -28.5t29 -69.5t-29 -68.5t-71 -27.5zM1595 1423h103l-350 -1423h-109l-367 1280l-368 -1280h-109
l-350 1423h100l308 -1278l364 1278h109l364 -1282z" />
    <glyph glyph-name="wdieresis" unicode="&#x1e85;" horiz-adv-x="1546" 
d="M592 1305q-40 0 -70 28.5t-30 69.5q0 42 29.5 70t70.5 28q40 0 69 -28.5t29 -69.5t-29 -69.5t-69 -28.5zM950 1305q-39 0 -68.5 28.5t-29.5 69.5q0 42 29.5 70t70.5 28q40 0 70.5 -28.5t30.5 -69.5t-30.5 -69.5t-72.5 -28.5zM1403 1079h110l-305 -1079h-118l-314 958
l-311 -958h-121l-305 1079h108l263 -966l309 966h117l307 -962z" />
    <glyph glyph-name="uni1E9E" unicode="&#x1e9e;" horiz-adv-x="1294" 
d="M809 772q180 -12 284.5 -118t104.5 -275q0 -180 -113 -287.5t-294 -107.5q-144 0 -243.5 69.5t-137.5 194.5l51 63q32 -114 116.5 -177.5t204.5 -63.5q138 0 225 87t87 228q0 144 -94 229.5t-257 85.5h-57v60l350 389q-51 99 -138 151t-232 52q-177 0 -284.5 -104
t-107.5 -285v-963h-102v961q0 224 136 353.5t358 129.5q190 0 305 -77.5t174 -221.5z" />
    <glyph glyph-name="Ygrave" unicode="&#x1ef2;" horiz-adv-x="1214" 
d="M856 1653l-27 -76l-464 176l28 86zM1194 1423l-537 -837v-586h-100v592l-532 831h114l471 -747l469 747h115z" />
    <glyph glyph-name="ygrave" unicode="&#x1ef3;" horiz-adv-x="1087" 
d="M739 1315l-43 -68l-397 234l49 75zM956 1079h107l-623 -1446h-100l158 367h-17l-456 1079h108l408 -983z" />
    <glyph glyph-name="uni1EF8" unicode="&#x1ef8;" horiz-adv-x="1214" 
d="M487 1710q-92 0 -114 -104l-76 30q12 64 60.5 113t127.5 49q41 0 76.5 -17t57 -37t52.5 -37t64 -17q48 0 78.5 30t38.5 76l78 -33q-16 -65 -63.5 -112t-127.5 -47q-43 0 -79.5 16.5t-57.5 36.5t-52 36.5t-63 16.5zM1194 1423l-537 -837v-586h-100v592l-532 831h114
l471 -747l469 747h115z" />
    <glyph glyph-name="uni1EF9" unicode="&#x1ef9;" horiz-adv-x="1087" 
d="M422 1413q-48 0 -77.5 -29t-37.5 -75l-78 30q14 65 60.5 113.5t122.5 48.5q41 0 76.5 -17t57 -37t52.5 -37t64 -17q48 0 77 29.5t39 76.5l76 -33q-14 -66 -58.5 -112.5t-123.5 -46.5q-43 0 -79 16.5t-57.5 36.5t-51.5 36.5t-62 16.5zM956 1079h107l-623 -1446h-100
l158 367h-17l-456 1079h108l408 -983z" />
    <glyph glyph-name="endash" unicode="&#x2013;" horiz-adv-x="1075" 
d="M135 477v86h805v-86h-805z" />
    <glyph glyph-name="emdash" unicode="&#x2014;" horiz-adv-x="1634" 
d="M135 475v86h1366v-86h-1366z" />
    <glyph glyph-name="quoteleft" unicode="&#x2018;" horiz-adv-x="372" 
d="M186 1276q38 -2 61 -24t23 -60q0 -39 -25.5 -64.5t-62.5 -25.5q-39 0 -64.5 25.5t-25.5 64.5q0 44 33 106l78 166h73z" />
    <glyph glyph-name="quoteright" unicode="&#x2019;" horiz-adv-x="366" 
d="M201 1468q37 0 62.5 -26.5t25.5 -65.5q0 -43 -31 -106l-80 -166h-72l89 188q-37 2 -60.5 25t-23.5 61t26 64t64 26z" />
    <glyph glyph-name="quotesinglbase" unicode="&#x201a;" horiz-adv-x="372" 
d="M188 156q37 0 62.5 -25.5t25.5 -64.5q0 -46 -30 -107l-80 -166h-72l88 189q-36 2 -59 24.5t-23 59.5q0 40 25 65t63 25z" />
    <glyph glyph-name="quotedblleft" unicode="&#x201c;" horiz-adv-x="628" 
d="M203 1464h73l-90 -188q38 -2 61 -24t23 -60q0 -39 -25.5 -64.5t-62.5 -25.5q-39 0 -64.5 25.5t-25.5 64.5q0 44 33 106zM442 1276q36 -2 60 -24.5t24 -59.5q0 -39 -25.5 -64.5t-64.5 -25.5q-37 0 -62.5 25.5t-25.5 64.5q0 43 31 106l80 166h71z" />
    <glyph glyph-name="quotedblright" unicode="&#x201d;" horiz-adv-x="622" 
d="M201 1468q37 0 62.5 -26.5t25.5 -65.5q0 -43 -31 -106l-80 -166h-72l89 188q-37 2 -60.5 25t-23.5 61t26 64t64 26zM455 1468q38 0 64 -26t26 -66q0 -44 -33 -106l-78 -166h-74l91 188q-36 2 -60 25.5t-24 60.5q0 38 25.5 64t62.5 26z" />
    <glyph glyph-name="quotedblbase" unicode="&#x201e;" horiz-adv-x="628" 
d="M188 156q37 0 62.5 -25.5t25.5 -64.5q0 -46 -30 -107l-80 -166h-72l88 189q-36 2 -59 24.5t-23 59.5q0 40 25 65t63 25zM444 156q37 0 62.5 -25.5t25.5 -64.5q0 -46 -30 -107l-80 -166h-74l90 189q-36 2 -60 24.5t-24 59.5q0 39 25.5 64.5t64.5 25.5z" />
    <glyph glyph-name="dagger" unicode="&#x2020;" horiz-adv-x="655" 
d="M559 1290v-78h-188v-561h-86v561h-189v78h189v207h86v-207h188z" />
    <glyph glyph-name="daggerdbl" unicode="&#x2021;" horiz-adv-x="692" 
d="M578 1229h-189v-311h189v-78h-189v-189h-86v189h-188v78h188v311h-188v78h188v190h86v-190h189v-78z" />
    <glyph glyph-name="bullet" unicode="&#x2022;" horiz-adv-x="688" 
d="M344 528q-72 0 -122 49.5t-50 120.5t50 121.5t122 50.5q70 0 120 -50.5t50 -121.5q0 -70 -50 -120t-120 -50z" />
    <glyph glyph-name="ellipsis" unicode="&#x2026;" horiz-adv-x="1089" 
d="M197 -18q-38 0 -63 25t-25 63t25 64t63 26t63 -26t25 -64t-25 -63t-63 -25zM545 -18q-38 0 -63 25t-25 63t25 64t63 26t63 -26t25 -64t-25 -63t-63 -25zM893 -18q-38 0 -63 25t-25 63t25 64t63 26t63 -26t25 -64t-25 -63t-63 -25z" />
    <glyph glyph-name="perthousand" unicode="&#x2030;" horiz-adv-x="2162" 
d="M375 788q-136 0 -225 93t-89 231q0 135 89.5 229.5t224.5 94.5q136 0 224.5 -94t88.5 -230q0 -138 -88 -231t-225 -93zM279 0l833 1423h90l-835 -1423h-88zM375 860q101 0 170 72.5t69 179.5q0 104 -69.5 178t-169.5 74q-102 0 -171 -74t-69 -178q0 -107 68.5 -179.5
t171.5 -72.5zM1110 -12q-136 0 -225.5 93t-89.5 230q0 135 90 229.5t225 94.5t223 -94t88 -230q0 -138 -88 -230.5t-223 -92.5zM1790 -12q-136 0 -224.5 92.5t-88.5 230.5q0 135 89 229.5t224 94.5q136 0 224.5 -94t88.5 -230q0 -138 -88 -230.5t-225 -92.5zM1110 59
q100 0 169 72.5t69 179.5q0 103 -69.5 177.5t-168.5 74.5q-102 0 -171 -74t-69 -178q0 -107 68.5 -179.5t171.5 -72.5zM1790 59q101 0 170.5 72.5t69.5 179.5q0 104 -70 178t-170 74q-102 0 -171 -74t-69 -178q0 -107 68.5 -179.5t171.5 -72.5z" />
    <glyph glyph-name="guilsinglleft" unicode="&#x2039;" horiz-adv-x="536" 
d="M307 180l-219 338l219 338h103l-220 -338l220 -338h-103z" />
    <glyph glyph-name="guilsinglright" unicode="&#x203a;" horiz-adv-x="536" 
d="M127 180l219 338l-219 338h102l220 -338l-220 -338h-102z" />
    <glyph glyph-name="fraction" unicode="&#x2044;" horiz-adv-x="849" 
d="M-18 0l809 1423h88l-809 -1423h-88z" />
    <glyph glyph-name="uni2074" unicode="&#x2074;" horiz-adv-x="665" 
d="M580 944v-59h-93v-174h-71v174h-359v53l359 485h71v-479h93zM416 944v383l-285 -383h285z" />
    <glyph glyph-name="Euro" unicode="&#x20ac;" horiz-adv-x="1521" 
d="M1352 283l86 -62q-173 -244 -512 -244q-248 0 -429 141t-237 374h-199l9 73h178q-8 47 -8 111q0 63 8 110h-146l11 74h147q56 232 236 373t424 141q334 0 514 -239l-86 -64q-146 205 -430 205q-199 0 -347.5 -113t-201.5 -303h594l-11 -74h-600q-8 -47 -8 -110
q0 -64 8 -111h568l-9 -73h-542q53 -190 203.5 -303t353.5 -113q282 0 426 207z" />
    <glyph glyph-name="trademark" unicode="&#x2122;" horiz-adv-x="1280" 
d="M487 1401v-60h-180v-510h-65v510h-181v60h426zM1139 831h-64l-33 465l-165 -442h-60l-166 446l-33 -469h-59l37 570h61v-2l15 2l176 -471l176 471h76z" />
    <glyph glyph-name="minus" unicode="&#x2212;" horiz-adv-x="1132" 
d="M143 575v93h848v-93h-848z" />
    <glyph glyph-name="approxequal" unicode="&#x2248;" horiz-adv-x="1083" 
d="M729 698q-54 0 -105 18t-84.5 39.5t-80 39.5t-92.5 18q-55 0 -101.5 -22t-68.5 -58l-58 55q30 53 87.5 84t131.5 31q54 0 105.5 -18t85 -39.5t80 -39.5t92.5 -18q55 0 102.5 22t67.5 58l57 -55q-30 -53 -87.5 -84t-131.5 -31zM727 266q-54 0 -105 18t-84.5 39.5
t-79.5 39.5t-91 18q-55 0 -102.5 -22t-67.5 -58l-60 55q30 53 87.5 84t131.5 31q54 0 105.5 -18t85 -39.5t80 -39.5t92.5 -18q55 0 102.5 22t67.5 58l57 -55q-30 -53 -87.5 -84t-131.5 -31z" />
    <glyph glyph-name="notequal" unicode="&#x2260;" horiz-adv-x="1136" 
d="M993 786h-321l-123 -391h444v-92h-475l-90 -287h-100l92 287h-277v92h306l124 391h-430v93h459l90 280h99l-89 -280h291v-93z" />
    <glyph glyph-name="uniF8FF" unicode="&#xf8ff;" horiz-adv-x="4724" 
d="M1149 408q-95 0 -136.5 40t-41.5 130v466h203q0 -62 -40 -122t-98 -86l2 -9q58 35 119 35h105v-162h-86v-98q0 -35 36 -35q28 0 50 15v-154q-36 -20 -113 -20zM1303 418v626h200q0 -67 -47 -122t-115 -70l5 -6q84 16 143 16h16v-444h-202zM2808 408q-95 0 -137.5 40.5
t-42.5 129.5v466h202q0 -62 -39 -122t-98 -86l4 -9q58 35 119 35h102v-162h-86v-98q0 -35 37 -35q27 0 49 15v-154q-36 -20 -110 -20zM205 418v624h203v-624h-203zM584 408q-66 0 -105 34t-39 90q0 60 41 98t111 38q92 0 135 -43h4v71q0 24 -12 38t-35 14q-47 0 -47 -60
l-184 29q37 160 249 160q110 0 172 -50t62 -135v-274h-201v45h-6q-14 -20 -51.5 -37.5t-93.5 -17.5zM1548 418v444h199v-133h6q17 143 145 143q70 0 110 -46t40 -134v-274h-205v264q0 55 -39 55q-22 0 -32 -13t-21 -52v-254h-203zM2337 408q-123 0 -190.5 63.5t-67.5 167.5
t69 168.5t189 64.5q122 0 190 -64.5t68 -168.5q0 -103 -67.5 -167t-190.5 -64zM3463 270v592h203v-133h6q21 143 150 143q170 0 170 -233q0 -115 -51.5 -173t-125.5 -58q-105 0 -141 88h-6v-226h-205zM4274 408q-120 0 -187 63.5t-67 167.5q0 103 70 168t190 65
q107 0 173.5 -64.5t66.5 -158.5v-18h-307q0 -39 18.5 -66.5t50.5 -27.5q55 0 62 69l168 -16q-18 -95 -83 -138.5t-155 -43.5zM3015 262v135h133q115 0 137 25l-2 6h-139q-83 0 -107 80l-110 354h204q6 -37 20 -110t24 -134t14 -110h4q13 125 61 354h203l-145 -424
q-63 -176 -217 -176h-80zM4213 655h12q62 0 87.5 12t25.5 38q0 45 -49 45q-34 0 -55 -26t-21 -69zM3738 506q31 0 46 27.5t15 89.5q0 66 -12 95.5t-43 29.5q-46 0 -62 -68v-148q21 -26 56 -26zM2337 535q59 0 59 104q0 106 -59 106q-58 0 -58 -106q0 -104 58 -104zM686 469
q30 0 45 23v104q-10 16 -39 16q-25 0 -40 -19t-15 -52q0 -72 49 -72z" />
    <glyph glyph-name="uni00A40301" horiz-adv-x="657" 
d="M233 1577l-26 76l463 186l28 -86zM31 0v90h102q115 0 181.5 73.5t66.5 205.5v1054h100v-1054q0 -174 -91.5 -271.5t-252.5 -97.5h-106z" />
    <glyph glyph-name="Q.ss01" horiz-adv-x="1609" 
d="M1126 92h408v-92h-729q-204 0 -365 92t-250.5 256t-89.5 371q0 156 54 291.5t147 231t224 150t280 54.5q198 0 358.5 -93t252 -258t91.5 -370q0 -217 -102 -383.5t-279 -249.5zM803 92q170 0 307 80t215 223.5t78 323.5q0 181 -78 325t-215 224t-307 80
q-259 0 -428.5 -177.5t-169.5 -451.5q0 -180 77.5 -323.5t214 -223.5t306.5 -80z" />
    <glyph glyph-name="i.loclTRK" horiz-adv-x="432" 
d="M215 1300q-44 0 -74 29.5t-30 73.5t30 74t74 30t74 -30t30 -74t-30 -73.5t-74 -29.5zM166 0v1079h100v-1079h-100z" />
    <glyph glyph-name="uni006A0301" horiz-adv-x="432" 
d="M51 1245l-43 68l393 241l48 -75zM-106 -369v90h22q113 0 181.5 75t68.5 194v1089h102v-1087q0 -164 -95 -262.5t-251 -98.5h-28z" />
    <glyph glyph-name="g.ss01" horiz-adv-x="1114" 
d="M1079 1079v-90h-254q136 -123 136 -319q0 -130 -64 -232t-174 -155q136 -34 210.5 -116.5t74.5 -203.5q0 -160 -127 -256t-351 -96q-395 0 -505 303l94 35q42 -121 140 -185.5t269 -64.5q184 0 280.5 71t96.5 199q0 126 -103 198.5t-284 72.5q-192 0 -318 121.5
t-126 308.5t126 309.5t318 122.5q76 0 150 -23h411zM866 670q0 152 -97.5 248t-250.5 96q-152 0 -249 -96t-97 -248q0 -151 97 -247.5t249 -96.5t250 96.5t98 247.5z" />
    <glyph glyph-name="gbreve.ss01" horiz-adv-x="1114" 
d="M535 1262q-124 0 -200.5 78.5t-76.5 203.5h84q0 -91 53.5 -147t139.5 -56q85 0 138.5 56.5t53.5 146.5h84q0 -125 -76 -203.5t-200 -78.5zM1079 1079v-90h-254q136 -123 136 -319q0 -130 -64 -232t-174 -155q136 -34 210.5 -116.5t74.5 -203.5q0 -160 -127 -256t-351 -96
q-395 0 -505 303l94 35q42 -121 140 -185.5t269 -64.5q184 0 280.5 71t96.5 199q0 126 -103 198.5t-284 72.5q-192 0 -318 121.5t-126 308.5t126 309.5t318 122.5q76 0 150 -23h411zM866 670q0 152 -97.5 248t-250.5 96q-152 0 -249 -96t-97 -248q0 -151 97 -247.5
t249 -96.5t250 96.5t98 247.5z" />
    <glyph glyph-name="uni0123.ss01" horiz-adv-x="1114" 
d="M537 1239q-37 0 -61.5 25t-24.5 63q0 54 41 119l81 147l56 -20l-78 -148l-6 -12q34 -3 57 -28.5t23 -61.5q0 -35 -25.5 -59.5t-62.5 -24.5zM1079 1079v-90h-254q136 -123 136 -319q0 -130 -64 -232t-174 -155q136 -34 210.5 -116.5t74.5 -203.5q0 -160 -127 -256
t-351 -96q-395 0 -505 303l94 35q42 -121 140 -185.5t269 -64.5q184 0 280.5 71t96.5 199q0 126 -103 198.5t-284 72.5q-192 0 -318 121.5t-126 308.5t126 309.5t318 122.5q76 0 150 -23h411zM866 670q0 152 -97.5 248t-250.5 96q-152 0 -249 -96t-97 -248q0 -151 97 -247.5
t249 -96.5t250 96.5t98 247.5z" />
    <glyph glyph-name="gdotaccent.ss01" horiz-adv-x="1114" 
d="M535 1303q-45 0 -75 28t-30 72t30.5 74t74.5 30t74 -30t30 -74t-29.5 -72t-74.5 -28zM1079 1079v-90h-254q136 -123 136 -319q0 -130 -64 -232t-174 -155q136 -34 210.5 -116.5t74.5 -203.5q0 -160 -127 -256t-351 -96q-395 0 -505 303l94 35q42 -121 140 -185.5
t269 -64.5q184 0 280.5 71t96.5 199q0 126 -103 198.5t-284 72.5q-192 0 -318 121.5t-126 308.5t126 309.5t318 122.5q76 0 150 -23h411zM866 670q0 152 -97.5 248t-250.5 96q-152 0 -249 -96t-97 -248q0 -151 97 -247.5t249 -96.5t250 96.5t98 247.5z" />
    <glyph glyph-name="t.ss01" horiz-adv-x="698" 
d="M291 0v989h-273v90h191q47 0 67.5 22t20.5 68v183h96v-273h287v-90h-289v-989h-100z" />
    <glyph glyph-name="tbar.ss01" horiz-adv-x="780" 
d="M725 989h-289v-344h248v-78h-248v-567h-100v567h-246v78h246v344h-273v90h191q47 0 67.5 22t20.5 68v183h96v-273h287v-90z" />
    <glyph glyph-name="tcaron.ss01" horiz-adv-x="698" 
d="M584 1145l41 434h77l-49 -434h-69zM291 0v989h-273v90h191q47 0 67.5 22t20.5 68v183h96v-273h287v-90h-289v-989h-100z" />
    <glyph glyph-name="uni0163.ss01" horiz-adv-x="698" 
d="M391 0h-12l-62 -129q87 -3 140 -55t53 -129q0 -80 -58.5 -134.5t-156.5 -54.5q-129 0 -209 96l45 48q60 -76 154 -76q65 0 105 37t40 92t-42 93t-107 38h-35l-13 16l72 158h-14v989h-273v90h191q47 0 67.5 22t20.5 68v183h96v-273h287v-90h-289v-989z" />
    <glyph glyph-name="uni021B.ss01" horiz-adv-x="698" 
d="M393 1079h287v-90h-289v-989h-100v989h-273v90h191q47 0 67.5 22t20.5 68v183h96v-273zM352 -113q37 0 61.5 -24.5t24.5 -63.5q0 -50 -41 -118l-80 -146l-57 19l78 147q6 12 6 14q-34 3 -57 27.5t-23 60.5t25.5 60t62.5 24z" />
    <glyph glyph-name="u.ss01" horiz-adv-x="1220" 
d="M610 -23q-216 0 -338 123t-122 330v649h100v-651q0 -164 97 -262t263 -98t263.5 98t97.5 262v651h102v-649q0 -206 -123.5 -329.5t-339.5 -123.5z" />
    <glyph glyph-name="uacute.ss01" horiz-adv-x="1220" 
d="M444 1247l-43 68l394 241l47 -75zM610 -23q-216 0 -338 123t-122 330v649h100v-651q0 -164 97 -262t263 -98t263.5 98t97.5 262v651h102v-649q0 -206 -123.5 -329.5t-339.5 -123.5z" />
    <glyph glyph-name="ucircumflex.ss01" horiz-adv-x="1220" 
d="M610 1477l-202 -215h-101l260 282h88l258 -282h-98zM971 1079h102v-649q0 -206 -123.5 -329.5t-339.5 -123.5t-338 123t-122 330v649h100v-651q0 -164 97 -262t263 -98t263.5 98t97.5 262v651z" />
    <glyph glyph-name="udieresis.ss01" horiz-adv-x="1220" 
d="M430 1305q-41 0 -70.5 28.5t-29.5 69.5q0 42 29 70t71 28q40 0 69 -28.5t29 -69.5t-29 -69.5t-69 -28.5zM788 1305q-39 0 -68.5 28.5t-29.5 69.5q0 42 30 70t71 28q40 0 70 -28.5t30 -69.5t-30.5 -69.5t-72.5 -28.5zM610 -23q-216 0 -338 123t-122 330v649h100v-651
q0 -164 97 -262t263 -98t263.5 98t97.5 262v651h102v-649q0 -206 -123.5 -329.5t-339.5 -123.5z" />
    <glyph glyph-name="ugrave.ss01" horiz-adv-x="1220" 
d="M764 1247l-397 234l47 75l393 -241zM610 -23q-216 0 -338 123t-122 330v649h100v-651q0 -164 97 -262t263 -98t263.5 98t97.5 262v651h102v-649q0 -206 -123.5 -329.5t-339.5 -123.5z" />
    <glyph glyph-name="uhungarumlaut.ss01" horiz-adv-x="1220" 
d="M412 1247l-66 45l215 297l74 -51zM756 1247l-66 45l215 297l76 -51zM610 -23q-216 0 -338 123t-122 330v649h100v-651q0 -164 97 -262t263 -98t263.5 98t97.5 262v651h102v-649q0 -206 -123.5 -329.5t-339.5 -123.5z" />
    <glyph glyph-name="umacron.ss01" horiz-adv-x="1220" 
d="M334 1360v86h551v-86h-551zM610 -23q-216 0 -338 123t-122 330v649h100v-651q0 -164 97 -262t263 -98t263.5 98t97.5 262v651h102v-649q0 -206 -123.5 -329.5t-339.5 -123.5z" />
    <glyph glyph-name="uogonek.ss01" horiz-adv-x="1220" 
d="M971 1079h102v-649q0 -163 -79.5 -277t-223.5 -155l-61 -61q-69 -69 -96 -116t-27 -93q0 -51 29.5 -82t76.5 -31q72 0 109 45l45 -51q-58 -68 -164 -68q-81 0 -129.5 49.5t-48.5 124.5q0 62 36 123t119 135l9 7q-27 -3 -58 -3q-216 0 -338 123t-122 330v649h100v-651
q0 -164 97 -262t263 -98t263.5 98t97.5 262v651z" />
    <glyph glyph-name="uring.ss01" horiz-adv-x="1220" 
d="M610 1204q-78 0 -130 51t-52 127q0 75 52 126t130 51q79 0 132 -51t53 -126q0 -76 -52.5 -127t-132.5 -51zM610 1270q49 0 81 32t32 80q0 46 -32 78.5t-81 32.5t-80.5 -32t-31.5 -79q0 -48 31.5 -80t80.5 -32zM610 -23q-216 0 -338 123t-122 330v649h100v-651
q0 -164 97 -262t263 -98t263.5 98t97.5 262v651h102v-649q0 -206 -123.5 -329.5t-339.5 -123.5z" />
    <glyph glyph-name="utilde.ss01" horiz-adv-x="1220" 
d="M737 1307q-42 0 -78 16.5t-57.5 36.5t-52 36.5t-62.5 16.5q-47 0 -75.5 -29t-36.5 -75l-78 30q14 65 60 113.5t122 48.5q41 0 76 -17t57 -37t53 -37t64 -17q47 0 77 30t38 76l78 -33q-14 -65 -60 -112t-125 -47zM610 -23q-216 0 -338 123t-122 330v649h100v-651
q0 -164 97 -262t263 -98t263.5 98t97.5 262v651h102v-649q0 -206 -123.5 -329.5t-339.5 -123.5z" />
    <glyph glyph-name="y.ss01" horiz-adv-x="1232" 
d="M969 1079h102v-1007q0 -222 -120 -340.5t-345 -118.5q-164 0 -276 76t-160 215l86 33q37 -116 127.5 -178t224.5 -62q179 0 272 94t93 275v141q-52 -92 -159 -152.5t-228 -60.5q-202 0 -319 119t-117 319v647h100v-637q0 -164 96.5 -261t259.5 -95q145 0 253.5 91.5
t109.5 215.5v686z" />
    <glyph glyph-name="yacute.ss01" horiz-adv-x="1232" 
d="M840 1481l-398 -234l-43 68l392 241zM969 1079h102v-1007q0 -222 -120 -340.5t-345 -118.5q-164 0 -276 76t-160 215l86 33q37 -116 127.5 -178t224.5 -62q179 0 272 94t93 275v141q-52 -92 -159 -152.5t-228 -60.5q-202 0 -319 119t-117 319v647h100v-637
q0 -164 96.5 -261t259.5 -95q145 0 253.5 91.5t109.5 215.5v686z" />
    <glyph glyph-name="ycircumflex.ss01" horiz-adv-x="1232" 
d="M608 1479l-205 -217h-98l260 282h86l260 -282h-100zM969 1079h102v-1007q0 -222 -120 -340.5t-345 -118.5q-164 0 -276 76t-160 215l86 33q37 -116 127.5 -178t224.5 -62q179 0 272 94t93 275v141q-52 -92 -159 -152.5t-228 -60.5q-202 0 -319 119t-117 319v647h100v-637
q0 -164 96.5 -261t259.5 -95q145 0 253.5 91.5t109.5 215.5v686z" />
    <glyph glyph-name="ydieresis.ss01" horiz-adv-x="1232" 
d="M426 1305q-40 0 -70 28.5t-30 69.5q0 42 30 70t72 28q39 0 68.5 -28.5t29.5 -69.5t-30 -69.5t-70 -28.5zM786 1305q-40 0 -70 28.5t-30 69.5q0 42 29.5 70t70.5 28q42 0 71.5 -28.5t29.5 -69.5t-29.5 -69.5t-71.5 -28.5zM969 1079h102v-1007q0 -222 -120 -340.5
t-345 -118.5q-164 0 -276 76t-160 215l86 33q37 -116 127.5 -178t224.5 -62q179 0 272 94t93 275v141q-52 -92 -159 -152.5t-228 -60.5q-202 0 -319 119t-117 319v647h100v-637q0 -164 96.5 -261t259.5 -95q145 0 253.5 91.5t109.5 215.5v686z" />
    <glyph glyph-name="ygrave.ss01" horiz-adv-x="1232" 
d="M803 1315l-43 -68l-398 234l50 75zM969 1079h102v-1007q0 -222 -120 -340.5t-345 -118.5q-164 0 -276 76t-160 215l86 33q37 -116 127.5 -178t224.5 -62q179 0 272 94t93 275v141q-52 -92 -159 -152.5t-228 -60.5q-202 0 -319 119t-117 319v647h100v-637
q0 -164 96.5 -261t259.5 -95q145 0 253.5 91.5t109.5 215.5v686z" />
    <glyph glyph-name="uni1EF9.ss01" horiz-adv-x="1232" 
d="M485 1413q-47 0 -75.5 -29t-38.5 -75l-76 30q12 65 58 113.5t124 48.5q41 0 76 -17t56 -37t52 -37t64 -17q48 0 78.5 30t38.5 76l78 -33q-16 -66 -61 -112.5t-124 -46.5q-43 0 -79 16.5t-57.5 36.5t-51.5 36.5t-62 16.5zM969 1079h102v-1007q0 -222 -120 -340.5
t-345 -118.5q-164 0 -276 76t-160 215l86 33q37 -116 127.5 -178t224.5 -62q179 0 272 94t93 275v141q-52 -92 -159 -152.5t-228 -60.5q-202 0 -319 119t-117 319v647h100v-637q0 -164 96.5 -261t259.5 -95q145 0 253.5 91.5t109.5 215.5v686z" />
    <glyph glyph-name="zero.osf" horiz-adv-x="1329" 
d="M666 -20q-157 0 -284.5 67t-203.5 196t-76 298q0 128 44 234.5t120.5 177t179.5 109t220 38.5q158 0 284.5 -66t201.5 -194.5t75 -298.5q0 -127 -43.5 -233t-119 -177.5t-178 -111t-220.5 -39.5zM666 72q93 0 176.5 32.5t146.5 91.5t100 148.5t37 196.5t-37 196.5
t-100 148.5t-146.5 91.5t-176.5 32.5q-194 0 -327.5 -128t-133.5 -341t132.5 -341t328.5 -128z" />
    <glyph glyph-name="one.osf" horiz-adv-x="761" 
d="M477 90h248v-90h-633v90h285v899h-295v90h395v-989z" />
    <glyph glyph-name="two.osf" horiz-adv-x="1073" 
d="M272 84h740v-84h-928v66q389 196 555 351.5t166 317.5q0 125 -81.5 200t-217.5 75q-121 0 -208 -56t-116 -153l-94 33q37 123 151 194.5t271 71.5q180 0 288.5 -95.5t108.5 -256.5q0 -173 -151.5 -333.5t-483.5 -330.5z" />
    <glyph glyph-name="three.osf" horiz-adv-x="1048" 
d="M549 510q178 0 293.5 -109.5t115.5 -281.5q0 -178 -124 -296t-326 -118q-172 0 -295.5 84t-161.5 213l94 37q30 -104 129.5 -173t235.5 -69q156 0 251 92t95 234q0 144 -95 229.5t-233 85.5h-141v72l432 479h-710v90h829v-84l-436 -485h47z" />
    <glyph glyph-name="four.osf" horiz-adv-x="1099" 
d="M1044 174v-82h-180v-336h-100v336h-698v70l698 915h100v-903h180zM764 174v770l-586 -770h586z" />
    <glyph glyph-name="five.osf" horiz-adv-x="1030" 
d="M500 528q204 0 329 -112t125 -295t-127 -299.5t-329 -116.5q-162 0 -279.5 79t-161.5 224l93 37q31 -112 125 -180t225 -68q154 0 253 92t99 234q0 140 -99 233t-251 93h-334l35 630h676v-90h-588l-27 -461h236z" />
    <glyph glyph-name="six.osf" horiz-adv-x="1077" 
d="M549 891q198 0 327.5 -128.5t129.5 -326.5t-130.5 -328.5t-328.5 -130.5q-202 0 -338.5 131.5t-136.5 325.5q0 172 123 328l462 590h121l-385 -488q83 27 156 27zM547 68q156 0 257 104t101 264q0 161 -100.5 265t-257.5 104q-161 0 -268 -105.5t-107 -263.5t107.5 -263
t267.5 -105z" />
    <glyph glyph-name="seven.osf" horiz-adv-x="915" 
d="M27 1079h843v-82l-503 -1269h-113l502 1261h-729v90z" />
    <glyph glyph-name="eight.osf" horiz-adv-x="1101" 
d="M711 727q119 -34 203.5 -129.5t84.5 -232.5q0 -173 -125.5 -280.5t-322.5 -107.5q-198 0 -323.5 108t-125.5 280q0 134 83.5 231.5t203.5 130.5q-101 33 -165 111.5t-64 193.5q0 148 108 242.5t283 93.5q173 -2 281 -94t108 -242q0 -117 -64.5 -195t-164.5 -110z
M258 1024q0 -114 82 -186t211 -72q130 0 211.5 72t81.5 186q0 117 -80.5 187.5t-212.5 70.5t-212.5 -70.5t-80.5 -187.5zM551 63q159 0 253.5 85t94.5 227q0 135 -97 222t-251 87t-250 -87t-96 -222q0 -142 93.5 -227t252.5 -85z" />
    <glyph glyph-name="nine.osf" horiz-adv-x="1064" 
d="M526 1102q200 0 336.5 -131.5t136.5 -325.5q0 -168 -118 -319l-467 -598h-121l381 485q-73 -23 -150 -23q-198 0 -328 127.5t-130 325.5q0 199 131 329t329 130zM526 276q159 0 265 104.5t106 262.5q0 159 -106 264t-265 105q-157 0 -258.5 -104t-101.5 -265t101.5 -264
t258.5 -103z" />
    <glyph glyph-name="uni030C.alt" 
d="M-244 1012l41 432h78l-49 -432h-70z" />
    <glyph glyph-name="caron.alt" horiz-adv-x="249" 
d="M121 1012l41 432h78l-50 -432h-69z" />
    <glyph glyph-name="uni0308.case" 
d="M-532 1610q-41 0 -70 28t-29 70q0 40 30 68t71 28q39 0 67.5 -28.5t28.5 -69.5t-29 -68.5t-69 -27.5zM-162 1610q-39 0 -68.5 28t-29.5 70q0 39 29.5 67.5t68.5 28.5q42 0 71.5 -28.5t29.5 -69.5q0 -40 -30 -68t-71 -28z" />
    <glyph glyph-name="uni0307.case" 
d="M-158 1610q-42 0 -70 28t-28 70q0 40 28.5 67t69.5 27q40 0 68.5 -27.5t28.5 -68.5t-28.5 -68.5t-68.5 -27.5z" />
    <glyph glyph-name="gravecomb.case" 
d="M-88 1577l-465 176l29 86l463 -186z" />
    <glyph glyph-name="acutecomb.case" 
d="M-526 1577l-25 76l463 186l29 -86z" />
    <glyph glyph-name="uni030B.case" 
d="M-647 1526l-66 47l215 330l76 -52zM-285 1526l-65 47l215 330l74 -52z" />
    <glyph glyph-name="uni0302.case" 
d="M-61 1583h-101l-194 180l-195 -180h-102l256 248h82z" />
    <glyph glyph-name="uni030C.case" 
d="M-162 1831h101l-254 -248h-82l-256 248h102l195 -178z" />
    <glyph glyph-name="uni0306.case" 
d="M-326 1583q-119 0 -191.5 73t-72.5 175h86q0 -67 48.5 -117.5t129.5 -50.5t130 50.5t49 117.5h86q0 -102 -73 -175t-192 -73z" />
    <glyph glyph-name="uni030A.case" 
d="M-231 1497q-79 0 -132 50t-53 126q0 75 53.5 126.5t131.5 51.5t130 -51.5t52 -126.5q0 -76 -52 -126t-130 -50zM-231 1563q47 0 79.5 31.5t32.5 78.5t-32.5 79t-79.5 32q-49 0 -82 -32t-33 -79t33 -78.5t82 -31.5z" />
    <glyph glyph-name="tildecomb.case" 
d="M-250 1606q-43 0 -79.5 17t-58 37t-52 37t-62.5 17q-48 0 -77 -30t-37 -76l-78 32q14 64 61.5 112t126.5 48q41 0 77 -17t57.5 -37t52.5 -37t63 -17q50 0 79.5 30t37.5 76l78 -33q-14 -64 -62 -111.5t-127 -47.5z" />
    <glyph glyph-name="uni0304.case" 
d="M-627 1665v86h566v-86h-566z" />
    <glyph glyph-name="uni0326.case" 
d="M-147 -102q37 0 61.5 -24.5t24.5 -63.5q0 -51 -41 -119l-82 -146l-56 21l78 145l6 15q-34 3 -57 27.5t-23 60.5t26 60t63 24z" />
    <glyph glyph-name="uni0337.case" 
d="M-588 389l-26 70l526 225l27 -70z" />
    <glyph glyph-name="uni0338.case" 
d="M-1376 25l-64 61l1264 1397l63 -62z" />
    <glyph glyph-name="dieresis.case" horiz-adv-x="616" 
d="M160 1610q-41 0 -70 28t-29 70q0 40 30 68t71 28q39 0 67.5 -28.5t28.5 -69.5t-29 -68.5t-69 -27.5zM530 1610q-39 0 -68.5 28t-29.5 70q0 39 29.5 67.5t68.5 28.5q42 0 71.5 -28.5t29.5 -69.5q0 -40 -30 -68t-71 -28z" />
    <glyph glyph-name="dotaccent.case" horiz-adv-x="227" 
d="M160 1610q-42 0 -70.5 28t-28.5 70q0 40 29 67t70 27q40 0 68 -27.5t28 -68.5t-28 -68.5t-68 -27.5z" />
    <glyph glyph-name="grave.case" horiz-adv-x="503" 
d="M526 1577l-465 176l29 86l463 -186z" />
    <glyph glyph-name="acute.case" horiz-adv-x="503" 
d="M86 1577l-25 76l463 186l29 -86z" />
    <glyph glyph-name="hungarumlaut.case" horiz-adv-x="884" 
d="M127 1526l-66 47l215 330l76 -52zM489 1526l-65 47l215 330l74 -52z" />
    <glyph glyph-name="circumflex.case" horiz-adv-x="671" 
d="M653 1583h-100l-195 180l-194 -180h-103l256 248h82z" />
    <glyph glyph-name="caron.case" horiz-adv-x="671" 
d="M553 1831h100l-254 -248h-82l-256 248h103l194 -178z" />
    <glyph glyph-name="breve.case" horiz-adv-x="608" 
d="M326 1583q-119 0 -192 73t-73 175h86q0 -67 49 -117.5t130 -50.5t129.5 50.5t48.5 117.5h86q0 -102 -72.5 -175t-191.5 -73z" />
    <glyph glyph-name="ring.case" horiz-adv-x="393" 
d="M233 1497q-78 0 -131 50t-53 126q0 75 53 126.5t131 51.5t130.5 -51.5t52.5 -126.5q0 -76 -52.5 -126t-130.5 -50zM233 1563q48 0 80.5 31.5t32.5 78.5t-33 79t-80 32q-49 0 -81.5 -32t-32.5 -79t32.5 -78.5t81.5 -31.5z" />
    <glyph glyph-name="tilde.case" horiz-adv-x="768" 
d="M506 1606q-43 0 -79.5 17t-58 37t-52 37t-62.5 17q-48 0 -77.5 -30t-37.5 -76l-78 32q14 64 62 112t127 48q41 0 77 -17t57.5 -37t52.5 -37t63 -17q49 0 78.5 30t37.5 76l78 -33q-14 -64 -61.5 -111.5t-126.5 -47.5z" />
    <glyph glyph-name="macron.case" horiz-adv-x="669" 
d="M61 1665v86h566v-86h-566z" />
    <glyph glyph-name="IJacute" horiz-adv-x="1153" 
d="M39 1577l-25 76l463 186l29 -86zM727 1577l-25 76l463 186l29 -86zM188 0v1423h101v-1423h-101zM526 0v90h103q115 0 181.5 73.5t66.5 205.5v1054h100v-1054q0 -174 -92.5 -271.5t-251.5 -97.5h-107z" />
    <glyph glyph-name="ijacute" horiz-adv-x="980" 
d="M49 1247l-43 68l393 241l47 -75zM600 1245l-43 68l393 241l47 -75zM166 0v1079h100v-1079h-100zM442 -369v90h21q113 0 182.5 75t69.5 194v1089h100v-1087q0 -164 -94.5 -262.5t-251.5 -98.5h-27z" />
    </font>
</defs>
</svg>
