<?xml version="1.0" standalone="no"?>
<!DOCTYPE svg PUBLIC "-//W3C//DTD SVG 1.1//EN" "http://www.w3.org/Graphics/SVG/1.1/DTD/svg11.dtd" >
<svg xmlns="http://www.w3.org/2000/svg" xmlns:xlink="http://www.w3.org/1999/xlink" version="1.1">
<metadata>
Created by FontForge 20170731 at Mon Dec 19 16:45:37 2022
 By Aleksey,,,
Copyright (c) 2019 by Daniel Hernandez &#38; Rodrigo Fuenzalida. All rights reserved.
</metadata>
<defs>
<font id="Biennale-SemiBold" horiz-adv-x="0" >
  <font-face 
    font-family="Biennale SemiBold"
    font-weight="600"
    font-stretch="normal"
    units-per-em="2048"
    panose-1="0 0 7 0 0 0 0 0 0 0"
    ascent="1638"
    descent="-410"
    x-height="1079"
    cap-height="1423"
    bbox="-1534 -571 4520 2007"
    underline-thickness="102"
    underline-position="-307"
    unicode-range="U+0020-FB02"
  />
<missing-glyph horiz-adv-x="1290" 
d="M205 1495h880v-1495h-880v1495zM338 1423l307 -587l307 587h-614zM600 748l-313 598v-1196zM692 748l312 -598v1196zM645 659l-307 -587h614z" />
    <glyph glyph-name="fi" unicode="fi" horiz-adv-x="1124" 
d="M657 1317q-89 0 -137.5 -52t-48.5 -145v-41h533v-1079h-261v856h-272v-856h-260v856h-176v223h176v15q0 201 112.5 314.5t323.5 113.5h357v-205h-347z" />
    <glyph glyph-name="fl" unicode="fl" horiz-adv-x="1171" 
d="M1051 1497v-1497h-260v1292h-134q-89 0 -137.5 -51t-48.5 -145v-29h186v-211h-186v-856h-260v856h-176v223h176q3 197 115 307.5t321 110.5h404z" />
    <glyph glyph-name=".notdef" horiz-adv-x="1290" 
d="M205 1495h880v-1495h-880v1495zM338 1423l307 -587l307 587h-614zM600 748l-313 598v-1196zM692 748l312 -598v1196zM645 659l-307 -587h614z" />
    <glyph glyph-name=".null" 
 />
    <glyph glyph-name="nonmarkingreturn" horiz-adv-x="682" 
 />
    <glyph glyph-name="space" unicode=" " horiz-adv-x="421" 
 />
    <glyph glyph-name="exclam" unicode="!" horiz-adv-x="538" 
d="M164 473l-43 1024h299l-47 -1024h-209zM270 -20q-66 0 -109.5 44t-43.5 107q0 67 43.5 111.5t109.5 44.5t110 -44.5t44 -111.5q0 -63 -44 -107t-110 -44z" />
    <glyph glyph-name="quotedbl" unicode="&#x22;" horiz-adv-x="753" 
d="M113 958l-21 506h230l-21 -506h-188zM455 958l-19 506h226l-21 -506h-186z" />
    <glyph glyph-name="numbersign" unicode="#" horiz-adv-x="1425" 
d="M1370 889h-246l-88 -326h195v-201h-250l-98 -362h-219l98 362h-291l-98 -362h-215l98 362h-199v201h254l90 326h-202v201h256l92 333h213l-90 -333h291l92 333h217l-90 -333h190v-201zM817 563l90 326h-293l-88 -326h291z" />
    <glyph glyph-name="dollar" unicode="$" horiz-adv-x="1040" 
d="M969 381q0 -138 -88 -233.5t-244 -124.5v-191h-211v186q-140 19 -238.5 101t-134.5 217l226 86q25 -98 91.5 -150.5t164.5 -52.5q90 0 141 42t51 114q0 51 -26.5 90t-70 62t-99 46t-113.5 42t-113.5 50t-99 69.5t-70 102t-26.5 144.5q0 140 84 235t237 119v189h211v-191
q120 -23 200.5 -95t108.5 -181l-225 -86q-45 170 -205 170q-84 0 -129 -39t-45 -103q0 -54 34.5 -93t89.5 -63.5t121 -47t132.5 -53.5t121.5 -73t89.5 -115.5t34.5 -172.5z" />
    <glyph glyph-name="percent" unicode="%" horiz-adv-x="1566" 
d="M377 778q-140 0 -234 96t-94 234q0 139 94 235.5t234 96.5q141 0 233 -96t92 -236q0 -138 -92 -234t-233 -96zM276 0l814 1423l204 2l-817 -1423zM377 942q68 0 113 48t45 120q0 69 -45 117.5t-113 48.5t-113 -48.5t-45 -117.5q0 -72 45 -120t113 -48zM1190 -16
q-140 0 -233 95.5t-93 233.5q0 139 93 235.5t233 96.5q141 0 234.5 -96.5t93.5 -235.5q0 -138 -93.5 -233.5t-234.5 -95.5zM1190 147q68 0 113 48t45 120q0 69 -45 117.5t-113 48.5q-67 0 -112.5 -49t-45.5 -117q0 -72 45 -120t113 -48z" />
    <glyph glyph-name="ampersand" unicode="&#x26;" horiz-adv-x="1404" 
d="M1382 0h-284l-119 117q-162 -137 -401 -137q-212 0 -356 117t-144 296q0 252 246 391q-51 70 -72 134t-21 139q0 168 123.5 276.5t323.5 108.5q197 0 323.5 -113t143.5 -301h-273q-8 71 -58.5 117.5t-139.5 46.5q-77 0 -126.5 -46.5t-49.5 -111.5q0 -15 2 -29.5
t4.5 -26.5t10.5 -27t13.5 -26t20.5 -30t24.5 -30.5t32 -36.5t36.5 -40.5t45.5 -49.5t51.5 -56l230 -244q90 147 96 348l244 -98q-17 -261 -170 -430zM582 213q122 0 223 74l-320 315l-22 23q-60 -44 -89.5 -92t-29.5 -113q0 -90 70 -148.5t168 -58.5z" />
    <glyph glyph-name="quotesingle" unicode="'" horiz-adv-x="413" 
d="M113 958l-21 506h230l-21 -506h-188z" />
    <glyph glyph-name="parenleft" unicode="(" horiz-adv-x="690" 
d="M510 -244q-202 155 -319 393.5t-117 542.5t117 542.5t319 393.5l172 -168q-360 -300 -360 -768t360 -768z" />
    <glyph glyph-name="parenright" unicode=")" horiz-adv-x="690" 
d="M180 -244l-172 168q361 301 361 768t-361 768l172 168q202 -155 319 -393.5t117 -542.5t-117 -542.5t-319 -393.5z" />
    <glyph glyph-name="asterisk" unicode="*" horiz-adv-x="847" 
d="M332 782l16 213l-176 -125l-94 168l203 97l-203 96l94 168l176 -125l-18 223h188l-18 -223l178 125l94 -168l-205 -96l205 -97l-94 -168l-178 125l16 -213h-184z" />
    <glyph glyph-name="plus" unicode="+" horiz-adv-x="1007" 
d="M948 772v-221h-330v-365h-229v365h-330v221h330v363h229v-363h330z" />
    <glyph glyph-name="comma" unicode="," horiz-adv-x="450" 
d="M225 289q64 0 108 -45t44 -113q0 -66 -47 -156l-107 -213h-147l114 230q-54 9 -86 46t-32 97q0 65 44.5 109.5t108.5 44.5z" />
    <glyph glyph-name="hyphen" unicode="-" horiz-adv-x="786" 
d="M111 401v213h565v-213h-565z" />
    <glyph glyph-name="period" unicode="." horiz-adv-x="456" 
d="M227 -20q-64 0 -107.5 44t-43.5 107q0 67 43 111.5t108 44.5q66 0 110 -44.5t44 -111.5q0 -63 -44 -107t-110 -44z" />
    <glyph glyph-name="slash" unicode="/" horiz-adv-x="743" 
d="M59 -102l394 1558h227l-391 -1558h-230z" />
    <glyph glyph-name="zero" unicode="0" horiz-adv-x="1433" 
d="M717 -25q-287 0 -457 198.5t-170 539.5q0 346 169 539.5t458 193.5q290 0 458 -193.5t168 -539.5q0 -341 -169.5 -539.5t-456.5 -198.5zM717 223q165 0 262.5 129t97.5 359t-97.5 358.5t-262.5 128.5q-166 0 -263.5 -128t-97.5 -359t98 -359.5t263 -128.5z" />
    <glyph glyph-name="one" unicode="1" horiz-adv-x="815" 
d="M582 217h178v-217h-672v217h234v791h-228v217h228v198h260v-1206z" />
    <glyph glyph-name="two" unicode="2" horiz-adv-x="1165" 
d="M449 217h632v-217h-1011v172l508 494q215 201 215 362q0 88 -61 141.5t-159 53.5q-94 0 -162.5 -54.5t-95.5 -158.5l-245 82q40 161 178 257.5t327 96.5q220 0 351 -110.5t131 -295.5q0 -134 -70.5 -251.5t-206.5 -245.5z" />
    <glyph glyph-name="three" unicode="3" horiz-adv-x="1185" 
d="M672 848q188 -6 310 -125.5t122 -300.5q0 -192 -148 -319.5t-378 -127.5q-202 0 -348 90t-189 236l240 94q27 -89 104 -142.5t186 -53.5q119 0 191 67.5t72 173.5t-73 170t-179 64h-217v174l385 369h-639v206h931v-204z" />
    <glyph glyph-name="four" unicode="4" horiz-adv-x="1228" 
d="M1165 518v-205h-166v-313h-258v313h-704v189l706 919h256v-903h166zM743 518v565l-432 -565h432z" />
    <glyph glyph-name="five" unicode="5" horiz-adv-x="1159" 
d="M557 897q240 0 384 -125t144 -334q0 -207 -144 -335t-390 -128q-192 0 -324.5 85t-187.5 247l237 96q26 -98 101.5 -152t177.5 -54q119 0 191.5 69t72.5 176q0 108 -74 179t-196 71h-379l39 731h782v-204h-559l-18 -322h143z" />
    <glyph glyph-name="six" unicode="6" horiz-adv-x="1196" 
d="M608 952q234 0 382.5 -131.5t148.5 -349.5q0 -145 -70.5 -259t-191.5 -175.5t-271 -61.5q-230 0 -384 138.5t-154 355.5q0 187 133 356l450 598h303l-358 -471h12zM606 199q115 0 190.5 76.5t75.5 193.5q0 118 -75 194t-191 76t-194 -76t-78 -194q0 -115 78 -192.5
t194 -77.5z" />
    <glyph glyph-name="seven" unicode="7" horiz-adv-x="1030" 
d="M31 1421h956v-196l-481 -1225h-291l481 1202h-665v219z" />
    <glyph glyph-name="eight" unicode="8" horiz-adv-x="1196" 
d="M831 754q125 -42 203 -141t78 -228q0 -182 -144.5 -296t-369.5 -114q-224 0 -369 114t-145 296q0 131 74.5 230t197.5 141q-96 39 -154.5 121t-58.5 198q0 161 121.5 266t333.5 105t334.5 -104.5t122.5 -268.5q0 -115 -61 -197t-163 -122zM598 1235q-92 0 -149.5 -54.5
t-57.5 -140.5q0 -84 58.5 -139t148.5 -55q91 0 149 55t58 139q0 87 -57 141t-150 54zM598 186q116 0 185 64.5t69 167.5q0 101 -70.5 166t-183.5 65t-183.5 -65t-70.5 -166q0 -103 69 -167.5t185 -64.5z" />
    <glyph glyph-name="nine" unicode="9" horiz-adv-x="1191" 
d="M588 1448q230 0 384 -138.5t154 -355.5q0 -181 -131 -356l-450 -598h-303l358 471h-14q-232 0 -380.5 131.5t-148.5 349.5q0 145 70.5 259t191 175.5t269.5 61.5zM588 684q118 0 195 76t77 194q0 116 -77.5 193.5t-194.5 77.5q-114 0 -189 -77t-75 -194q0 -118 75 -194
t189 -76z" />
    <glyph glyph-name="colon" unicode=":" horiz-adv-x="507" 
d="M254 643q-65 0 -109.5 44t-44.5 108q0 67 44.5 111t109.5 44q66 0 110 -44t44 -111q0 -65 -44 -108.5t-110 -43.5zM254 -20q-64 0 -109 44t-45 107q0 67 44.5 111.5t109.5 44.5q66 0 110 -44.5t44 -111.5q0 -63 -44 -107t-110 -44z" />
    <glyph glyph-name="semicolon" unicode=";" horiz-adv-x="512" 
d="M254 637q-65 0 -108.5 44t-43.5 110t43.5 109.5t108.5 43.5q66 0 110 -43.5t44 -109.5t-44 -110t-110 -44zM256 289q64 0 109 -45t45 -113q0 -58 -48 -156l-106 -213h-150l117 230q-54 9 -86.5 46t-32.5 97q0 65 44 109.5t108 44.5z" />
    <glyph glyph-name="less" unicode="&#x3c;" horiz-adv-x="878" 
d="M774 1116v-237l-459 -246l459 -246v-237l-721 403v160z" />
    <glyph glyph-name="equal" unicode="=" horiz-adv-x="1101" 
d="M121 754v221h860v-221h-860zM121 276v222h860v-222h-860z" />
    <glyph glyph-name="greater" unicode="&#x3e;" horiz-adv-x="878" 
d="M104 1116l719 -403v-160l-719 -403v235l457 248l-457 246v237z" />
    <glyph glyph-name="question" unicode="?" horiz-adv-x="968" 
d="M309 473v80q0 64 18 118.5t46.5 94t63.5 74.5t70 66t63.5 61.5t46.5 68.5t18 80q0 72 -42.5 112t-115.5 40q-71 0 -121.5 -45.5t-64.5 -118.5l-244 80q33 152 152.5 243t294.5 91q191 0 301 -99t110 -272q0 -68 -20.5 -126t-53.5 -99.5t-73 -78.5t-79.5 -70t-72.5 -66.5
t-53.5 -77t-20.5 -92.5v-64h-223zM422 -20q-64 0 -108 44t-44 107q0 67 43.5 111.5t108.5 44.5q67 0 110 -44t43 -110q0 -65 -43.5 -109t-109.5 -44z" />
    <glyph glyph-name="at" unicode="@" horiz-adv-x="1632" 
d="M819 1196q165 0 304 -53t233.5 -146t147 -221.5t52.5 -277.5q0 -157 -90 -265t-219 -108q-79 0 -135.5 35.5t-81.5 97.5q-80 -141 -262 -141q-141 0 -236.5 103t-95.5 251q0 151 92 252.5t240 101.5q159 0 246 -125v99h151v-408q0 -45 20.5 -70.5t59.5 -25.5q61 0 96 52
t35 151q0 231 -151 381.5t-406 150.5q-127 0 -234 -44t-179.5 -119.5t-113 -176t-40.5 -213.5q0 -243 148.5 -393t402.5 -150q103 0 188 30.5t129 84.5l109 -129q-70 -70 -181 -110.5t-245 -40.5q-221 0 -387.5 90.5t-255 251t-88.5 366.5q0 149 54 280.5t150 228.5
t237 153.5t306 56.5zM801 295q74 0 122 50t48 126q0 77 -47.5 127.5t-122.5 50.5q-74 0 -122 -51t-48 -127q0 -75 47.5 -125.5t122.5 -50.5z" />
    <glyph glyph-name="A" unicode="A" horiz-adv-x="1318" 
d="M1053 0l-115 338h-555l-115 -338h-260l492 1423h317l494 -1423h-258zM457 553h407l-205 596z" />
    <glyph glyph-name="B" unicode="B" horiz-adv-x="1282" 
d="M958 758q119 -46 184.5 -139.5t65.5 -217.5q0 -184 -122.5 -292.5t-340.5 -108.5h-602v1423h621q184 0 289.5 -94t105.5 -252q0 -103 -54 -187t-147 -132zM899 1026q0 86 -53.5 136t-155.5 50h-289v-372h285q94 0 153.5 50.5t59.5 135.5zM709 211q114 0 176.5 54.5
t62.5 154.5q0 98 -65.5 153.5t-175.5 55.5h-306v-418h308z" />
    <glyph glyph-name="C" unicode="C" horiz-adv-x="1499" 
d="M801 -25q-153 0 -287.5 55t-230.5 152t-151.5 234t-55.5 295q0 212 94.5 380.5t260 262.5t370.5 94q130 0 242 -37t192.5 -101.5t137 -146t87.5 -176.5l-252 -100q-44 148 -148 230.5t-265 82.5q-198 0 -325.5 -135.5t-127.5 -353.5q0 -217 128 -352.5t327 -135.5
q161 0 264 82t147 232l252 -101q-32 -97 -88.5 -179t-137.5 -146t-192 -100t-241 -36z" />
    <glyph glyph-name="D" unicode="D" horiz-adv-x="1478" 
d="M684 1423q209 0 371.5 -86.5t254 -248.5t91.5 -375t-91.5 -375.5t-254 -250t-371.5 -87.5h-541v1423h541zM676 233q206 0 332.5 127.5t126.5 348.5q0 224 -126.5 352.5t-332.5 128.5h-270v-957h270z" />
    <glyph glyph-name="E" unicode="E" horiz-adv-x="1163" 
d="M406 227h681v-227h-944v1423h932v-227h-669v-354h598v-228h-598v-387z" />
    <glyph glyph-name="F" unicode="F" horiz-adv-x="1118" 
d="M1069 1196h-663v-365h589v-229h-589v-602h-263v1423h926v-227z" />
    <glyph glyph-name="G" unicode="G" horiz-adv-x="1583" 
d="M1520 756q0 -181 -55 -329.5t-151.5 -247t-227 -151.5t-281.5 -53q-155 0 -290.5 55.5t-231 152.5t-150.5 234t-55 294q0 211 94 379.5t259.5 263t371.5 94.5q167 0 303.5 -60t222 -155t131.5 -217l-250 -105q-48 138 -153 213.5t-258 75.5q-203 0 -329 -136t-126 -357
q0 -224 131 -360t352 -136q171 0 284.5 87t154.5 259h-469v199h723z" />
    <glyph glyph-name="H" unicode="H" horiz-adv-x="1413" 
d="M1008 1423h262v-1423h-262v612h-602v-612h-263v1423h263v-577h602v577z" />
    <glyph glyph-name="I" unicode="I" horiz-adv-x="548" 
d="M143 0v1423h263v-1423h-263z" />
    <glyph glyph-name="J" unicode="J" horiz-adv-x="700" 
d="M41 0v233h86q86 0 133 51t47 144v995h260v-999q0 -198 -108.5 -311t-311.5 -113h-106z" />
    <glyph glyph-name="K" unicode="K" horiz-adv-x="1300" 
d="M1313 0h-303l-604 670v-670h-263v1423h263v-628l571 628h303l-610 -686z" />
    <glyph glyph-name="L" unicode="L" horiz-adv-x="1103" 
d="M406 233h671v-233h-934v1423h263v-1190z" />
    <glyph glyph-name="M" unicode="M" horiz-adv-x="1738" 
d="M1638 0h-243l-74 1053l-342 -1002h-217l-342 1000l-76 -1051h-244l103 1423h243v-2l60 2l364 -1061l365 1061l59 -2v2h242z" />
    <glyph glyph-name="N" unicode="N" horiz-adv-x="1413" 
d="M1010 1423h260v-1423h-217l-650 973v-973h-260v1423h217l650 -974v974z" />
    <glyph glyph-name="O" unicode="O" horiz-adv-x="1617" 
d="M809 -25q-153 0 -289 56.5t-233.5 153.5t-154 234t-56.5 292q0 208 96.5 377t264.5 264.5t372 95.5q205 0 373.5 -95.5t265 -264.5t96.5 -377q0 -155 -56.5 -292t-154.5 -234t-234 -153.5t-290 -56.5zM809 223q207 0 338 137.5t131 352.5t-129.5 351t-339.5 136
q-208 0 -337.5 -136t-129.5 -351q0 -216 130 -353t337 -137z" />
    <glyph glyph-name="P" unicode="P" horiz-adv-x="1239" 
d="M707 1423q224 0 355.5 -118.5t131.5 -317.5q0 -200 -132 -319t-355 -119h-301v-549h-263v1423h564zM694 778q113 0 173.5 57t60.5 152q0 94 -61 150.5t-173 56.5h-288v-416h288z" />
    <glyph glyph-name="Q" unicode="Q" horiz-adv-x="1617" 
d="M1544 711q0 -190 -82.5 -348.5t-226.5 -258.5l274 -258l-178 -188l-352 336q-87 -19 -170 -19q-153 0 -289 56.5t-233.5 153.5t-154 234t-56.5 292q0 208 96.5 377t264.5 264.5t372 95.5q205 0 373.5 -95.5t265 -264.5t96.5 -377zM342 713q0 -216 130 -353t337 -137
t338 137.5t131 352.5t-129.5 351t-339.5 136q-208 0 -337.5 -136t-129.5 -351z" />
    <glyph glyph-name="R" unicode="R" horiz-adv-x="1267" 
d="M920 0l-435 600h-82v-600h-260v1423h564q222 0 354.5 -114.5t132.5 -296.5q0 -169 -116.5 -282t-311.5 -128l446 -602h-292zM403 1194v-408h297q112 0 174 55.5t62 149.5q0 93 -62 148t-174 55h-297z" />
    <glyph glyph-name="S" unicode="S" horiz-adv-x="1177" 
d="M580 -23q-201 0 -340.5 93t-190.5 264l248 94q29 -109 108.5 -167t198.5 -58q110 0 173 46t63 128q0 50 -25 89.5t-67 65.5t-96.5 48t-115 42t-120.5 43t-114.5 56t-96.5 75t-67 106.5t-25 144.5q0 180 129 289.5t354 109.5q190 0 317 -85.5t168 -230.5l-247 -94
q-54 187 -250 187q-100 0 -154.5 -43t-54.5 -113q0 -48 25 -84.5t67 -61t97 -45t115.5 -41t120.5 -44.5t115 -59t97 -80t67 -114t25 -155q0 -183 -141.5 -294.5t-382.5 -111.5z" />
    <glyph glyph-name="T" unicode="T" horiz-adv-x="1173" 
d="M1147 1423v-233h-428v-1190h-262v1190h-430v233h1120z" />
    <glyph glyph-name="U" unicode="U" horiz-adv-x="1378" 
d="M991 1423h260v-878q0 -118 -35.5 -220t-103 -180.5t-176.5 -124t-246 -45.5t-245.5 45t-177 123.5t-104.5 181t-36 220.5v878h264v-878q0 -145 76.5 -234.5t222.5 -89.5t223.5 90t77.5 234v878z" />
    <glyph glyph-name="V" unicode="V" horiz-adv-x="1335" 
d="M1057 1423h272l-502 -1423h-319l-502 1423h273l389 -1118z" />
    <glyph glyph-name="W" unicode="W" horiz-adv-x="1845" 
d="M1567 1423h258l-330 -1423h-307l-264 1063l-267 -1063h-305l-332 1423h259l231 -1110l272 1110h283l272 -1118z" />
    <glyph glyph-name="X" unicode="X" horiz-adv-x="1339" 
d="M1343 0h-301l-380 537l-369 -537h-301l524 739l-489 686h301l354 -497l338 497h299l-490 -704z" />
    <glyph glyph-name="Y" unicode="Y" horiz-adv-x="1306" 
d="M1307 1423l-523 -841v-582h-262v584l-522 839h293l360 -616l361 616h293z" />
    <glyph glyph-name="Z" unicode="Z" horiz-adv-x="1171" 
d="M1112 236l6 -236h-1061v180l711 1014h-694v229h1030v-180l-717 -1007h725z" />
    <glyph glyph-name="bracketleft" unicode="[" horiz-adv-x="647" 
d="M596 1411h-211v-1438h211v-217h-457v1872h457v-217z" />
    <glyph glyph-name="backslash" unicode="\" horiz-adv-x="747" 
d="M461 -102l-400 1558h228l401 -1558h-229z" />
    <glyph glyph-name="bracketright" unicode="]" horiz-adv-x="647" 
d="M53 1628h455v-1872h-455v217h209v1438h-209v217z" />
    <glyph glyph-name="asciicircum" unicode="^" horiz-adv-x="1050" 
d="M987 743h-256l-207 357l-205 -357h-253l374 635h158z" />
    <glyph glyph-name="underscore" unicode="_" horiz-adv-x="1112" 
d="M53 -258v213h1006v-213h-1006z" />
    <glyph glyph-name="grave" unicode="`" horiz-adv-x="645" 
d="M543 1188l-482 278l117 191l469 -301z" />
    <glyph glyph-name="a" unicode="a" horiz-adv-x="1318" 
d="M956 1079h242v-1079h-242v145q-128 -170 -356 -170q-231 0 -382.5 161t-151.5 403t150.5 395t383.5 153q232 0 356 -161v153zM635 205q139 0 226 93t87 241q0 149 -86.5 241t-226.5 92q-134 0 -221.5 -94t-87.5 -239t87.5 -239.5t221.5 -94.5z" />
    <glyph glyph-name="b" unicode="b" horiz-adv-x="1318" 
d="M725 1104q152 0 273 -73.5t188 -202.5t67 -289q0 -242 -151.5 -403t-382.5 -161q-224 0 -357 162v-137h-241v1497h260v-536q133 143 344 143zM684 205q134 0 221.5 94.5t87.5 239.5t-87.5 239t-221.5 94q-140 0 -226.5 -92t-86.5 -241q0 -148 87 -241t226 -93z" />
    <glyph glyph-name="c" unicode="c" horiz-adv-x="1177" 
d="M629 -25q-159 0 -288 73.5t-202 202.5t-73 286q0 158 72 287t201.5 203.5t289.5 74.5q101 0 190.5 -30.5t152.5 -81t105.5 -111t61.5 -125.5l-234 -92q-27 96 -98.5 152t-173.5 56q-132 0 -219.5 -91.5t-87.5 -239.5t88 -240t221 -92q102 0 175.5 56.5t100.5 150.5
l234 -95q-19 -64 -62 -123.5t-106 -109.5t-154 -80.5t-194 -30.5z" />
    <glyph glyph-name="d" unicode="d" horiz-adv-x="1318" 
d="M938 1497h260v-1497h-242v137q-133 -162 -356 -162q-231 0 -382.5 161t-151.5 403q0 160 67 289t188 202.5t273 73.5q211 0 344 -143v536zM635 205q139 0 226 93t87 241q0 149 -86.5 241t-226.5 92q-134 0 -221.5 -94t-87.5 -239t87.5 -239.5t221.5 -94.5z" />
    <glyph glyph-name="e" unicode="e" horiz-adv-x="1216" 
d="M315 457q26 -121 113 -190.5t209 -69.5q106 0 171 38t103 113l205 -131q-150 -244 -487 -244q-169 0 -299.5 74.5t-200.5 203t-70 288.5q0 115 43.5 220t117 180.5t176 120t216.5 44.5q164 0 291 -79t191.5 -201.5t64.5 -262.5q0 -69 -6 -104h-838zM315 639h594
q-22 121 -99.5 190.5t-191.5 69.5q-116 0 -197.5 -68.5t-105.5 -191.5z" />
    <glyph glyph-name="f" unicode="f" horiz-adv-x="745" 
d="M657 1317q-89 0 -137.5 -52t-48.5 -145v-41h248v-223h-248v-856h-260v856h-176v223h176v15q0 201 112.5 314.5t323.5 113.5h76v-205h-66z" />
    <glyph glyph-name="g" unicode="g" horiz-adv-x="1316" 
d="M956 1079h242v-923q0 -248 -154.5 -397.5t-425.5 -149.5q-212 0 -345 84t-189 235l223 86q35 -92 116.5 -140t197.5 -48q156 0 245.5 83t89.5 224v62q-130 -166 -356 -166q-152 0 -274.5 71t-191 193t-68.5 270t68.5 272t191.5 196.5t274 72.5q226 0 356 -166v141z
M631 229q136 0 222.5 91t86.5 231t-85.5 230.5t-219.5 90.5q-133 0 -221 -92t-88 -229t87.5 -229.5t217.5 -92.5z" />
    <glyph glyph-name="h" unicode="h" horiz-adv-x="1245" 
d="M707 1104q198 0 314 -118t116 -312v-674h-263v625q0 116 -66 181.5t-177 65.5q-105 -1 -176.5 -66t-73.5 -157v-649h-260v1497h260v-520q124 127 326 127z" />
    <glyph glyph-name="i" unicode="i" horiz-adv-x="501" 
d="M252 1251q-76 0 -127 49t-51 123q0 75 51.5 125.5t126.5 50.5t126.5 -50.5t51.5 -125.5q0 -74 -51 -123t-127 -49zM121 0v1079h260v-1079h-260z" />
    <glyph glyph-name="j" unicode="j" horiz-adv-x="505" 
d="M262 1251q-76 0 -127 49t-51 123q0 75 51.5 125.5t126.5 50.5q74 0 125 -50.5t51 -125.5q0 -74 -51 -123t-125 -49zM-86 -377v225h20q87 0 139 56t52 149v1026h260v-1022q0 -199 -116.5 -316.5t-301.5 -117.5h-53z" />
    <glyph glyph-name="k" unicode="k" horiz-adv-x="1089" 
d="M1102 0h-285l-436 508v-508h-260v1497h260v-854l418 436h295l-463 -497z" />
    <glyph glyph-name="l" unicode="l" horiz-adv-x="501" 
d="M121 0v1497h260v-1497h-260z" />
    <glyph glyph-name="m" unicode="m" horiz-adv-x="1921" 
d="M1399 1104q195 0 304 -122t109 -312v-668h-260v621q0 108 -59 178.5t-164 70.5q-105 -1 -167 -67.5t-64 -149.5v-653h-260v621q0 109 -60 179t-166 70q-104 -1 -166.5 -67.5t-64.5 -149.5v-653h-260v1077h246v-118q54 65 137.5 104t187.5 39q247 0 342 -176
q47 79 140.5 127.5t224.5 48.5z" />
    <glyph glyph-name="n" unicode="n" horiz-adv-x="1245" 
d="M707 1104q198 0 314 -118t116 -312v-674h-263v625q0 116 -66 181.5t-177 65.5q-105 -1 -176.5 -66t-73.5 -157v-649h-260v1079h246v-118q58 66 146 104.5t194 38.5z" />
    <glyph glyph-name="o" unicode="o" horiz-adv-x="1282" 
d="M641 -25q-125 0 -232.5 43t-182.5 118t-117.5 179.5t-42.5 223.5q0 244 161.5 404.5t413.5 160.5q251 0 413.5 -160.5t162.5 -404.5q0 -159 -73.5 -288t-205.5 -202.5t-297 -73.5zM643 207q138 0 224.5 93.5t86.5 240.5q0 145 -86 237t-225 92q-141 0 -229 -92.5
t-88 -238.5q0 -145 88.5 -238.5t228.5 -93.5z" />
    <glyph glyph-name="p" unicode="p" horiz-adv-x="1318" 
d="M725 1104q152 0 273 -73.5t188 -202.5t67 -289q0 -242 -151.5 -403t-382.5 -161q-208 0 -338 140v-482h-260v1446h241v-141q134 166 363 166zM684 205q133 0 221 95.5t88 238.5q0 145 -87.5 239t-221.5 94q-139 0 -226 -92.5t-87 -240.5t87 -241t226 -93z" />
    <glyph glyph-name="q" unicode="q" horiz-adv-x="1318" 
d="M956 1079h242v-1446h-260v482q-130 -140 -338 -140q-231 0 -382.5 161t-151.5 403q0 160 67 289t188 202.5t273 73.5q228 0 362 -166v141zM635 205q139 0 226 93t87 241t-87 240.5t-226 92.5q-134 0 -221.5 -94t-87.5 -239q0 -143 88 -238.5t221 -95.5z" />
    <glyph glyph-name="r" unicode="r" horiz-adv-x="718" 
d="M367 958q58 67 140.5 106.5t180.5 39.5v-244q-140 0 -223.5 -68t-83.5 -178v-614h-260v1079h246v-121z" />
    <glyph glyph-name="s" unicode="s" horiz-adv-x="1001" 
d="M502 -25q-177 0 -298 71t-165 206l227 88q24 -76 86.5 -118t159.5 -42q79 0 124.5 31.5t45.5 87.5q0 38 -25.5 67t-67 46.5t-94.5 36t-109 34t-109 41.5t-94.5 57.5t-67 84t-25.5 118.5q0 147 113.5 233.5t304.5 86.5q157 0 264 -62t141 -172l-227 -88q-43 121 -182 121
q-71 0 -109.5 -28t-38.5 -78q0 -35 25.5 -61t67 -41.5t94.5 -32t109 -31t109 -41t94.5 -59.5t67 -88t25.5 -126q0 -160 -121 -251t-325 -91z" />
    <glyph glyph-name="t" unicode="t" horiz-adv-x="802" 
d="M602 0q-190 0 -290.5 104.5t-100.5 286.5v465h-188v223h98q106 0 106 111v170h254v-281h283v-223h-291v-436q0 -94 46 -143.5t134 -49.5h119v-227h-170z" />
    <glyph glyph-name="u" unicode="u" horiz-adv-x="1226" 
d="M846 1079h260v-1079h-244v119q-60 -66 -146 -105t-186 -39q-200 0 -310.5 120.5t-110.5 314.5v669h260v-637q0 -105 64.5 -170t172.5 -65q107 1 173.5 64.5t66.5 154.5v653z" />
    <glyph glyph-name="v" unicode="v" horiz-adv-x="1138" 
d="M860 1079h270l-411 -1079h-299l-412 1079h271l290 -829z" />
    <glyph glyph-name="w" unicode="w" horiz-adv-x="1642" 
d="M1358 1079h266l-283 -1079h-307l-211 786l-209 -786h-307l-287 1079h267l186 -825l205 825h291l205 -821z" />
    <glyph glyph-name="x" unicode="x" horiz-adv-x="1118" 
d="M1122 0h-286l-285 373l-287 -373h-278l426 557l-398 522h289l266 -350l267 350h278l-403 -536z" />
    <glyph glyph-name="y" unicode="y" horiz-adv-x="1142" 
d="M864 1079h271l-412 -1079l-139 -367h-256l147 367h-82l-381 1079h269l278 -870z" />
    <glyph glyph-name="z" unicode="z" horiz-adv-x="993" 
d="M377 211h567v-211h-891v184l551 684h-526v211h844v-192z" />
    <glyph glyph-name="braceleft" unicode="{" horiz-adv-x="684" 
d="M557 -244q-165 0 -257.5 98.5t-92.5 278.5v318q0 68 -36.5 99.5t-92.5 31.5h-45v221h45q56 0 92.5 31t36.5 100v315q0 180 92.5 278.5t257.5 98.5h70v-215h-35q-67 0 -104 -43.5t-37 -120.5v-309q0 -99 -39.5 -155.5t-112.5 -90.5q74 -36 113 -92t39 -154v-309
q0 -77 37 -120.5t104 -43.5h35v-217h-70z" />
    <glyph glyph-name="bar" unicode="|" horiz-adv-x="475" 
d="M139 -188v1661h197v-1661h-197z" />
    <glyph glyph-name="braceright" unicode="}" horiz-adv-x="684" 
d="M57 -244v217h35q67 0 104 43.5t37 120.5v309q0 98 38.5 154t111.5 92q-72 34 -111 90.5t-39 155.5v309q0 77 -37 120.5t-104 43.5h-35v215h70q165 0 257.5 -98.5t92.5 -278.5v-315q0 -69 36.5 -100t92.5 -31h45v-221h-45q-56 0 -92.5 -31.5t-36.5 -99.5v-318
q0 -180 -92.5 -278.5t-257.5 -98.5h-70z" />
    <glyph glyph-name="asciitilde" unicode="~" horiz-adv-x="1073" 
d="M727 492q-56 0 -106 17t-81 37t-74.5 37t-86.5 17q-117 0 -166 -78l-125 142q41 72 108.5 111.5t149.5 39.5q56 0 106 -17t81.5 -37t75 -37t87.5 -17q52 0 96 19.5t68 57.5l127 -141q-43 -72 -110.5 -111.5t-149.5 -39.5z" />
    <glyph glyph-name="uni00A0" unicode="&#xa0;" horiz-adv-x="421" 
 />
    <glyph glyph-name="exclamdown" unicode="&#xa1;" horiz-adv-x="520" 
d="M258 786q-65 0 -108.5 44t-43.5 110q0 65 44 109.5t108 44.5q66 0 110 -44.5t44 -109.5q0 -66 -44 -110t-110 -44zM111 -367l45 965h206l48 -965h-299z" />
    <glyph glyph-name="cent" unicode="&#xa2;" horiz-adv-x="1091" 
d="M1030 487q-29 -99 -122.5 -185t-231.5 -112v-190h-211v190q-172 34 -280.5 168t-108.5 316q0 185 107.5 320t281.5 169v191h211v-191q70 -14 130.5 -46t103.5 -73.5t72.5 -87.5t43.5 -94l-225 -88q-24 80 -82.5 126t-145.5 46q-106 0 -177.5 -74.5t-71.5 -195.5
q0 -119 71.5 -192.5t179.5 -73.5q87 0 147.5 45.5t82.5 122.5z" />
    <glyph glyph-name="sterling" unicode="&#xa3;" horiz-adv-x="1161" 
d="M479 555v-328h588v-227h-850v555h-151v229h151v158q0 185 125 311.5t322 126.5q184 0 294 -82.5t146 -220.5l-225 -86q-22 76 -69.5 119t-133.5 43q-97 0 -147 -60t-50 -151v-158h398v-229h-398z" />
    <glyph glyph-name="currency" unicode="&#xa4;" horiz-adv-x="1171" 
d="M1044 678q0 -131 -67 -240l104 -106l-149 -150l-109 109q-108 -62 -237 -62q-130 0 -238 62l-108 -109l-150 150l105 104q-68 111 -68 242t68 242l-105 104l150 150l108 -109q106 61 238 61q131 0 237 -61l109 109l149 -150l-104 -104q67 -109 67 -242zM586 438
q100 0 165.5 67.5t65.5 172.5q0 104 -65.5 170.5t-165.5 66.5t-166 -66.5t-66 -170.5q0 -105 66.5 -172.5t165.5 -67.5z" />
    <glyph glyph-name="yen" unicode="&#xa5;" horiz-adv-x="1230" 
d="M1186 1352l-414 -731h223v-170h-252v-109h252v-168h-252v-174h-258v174h-252v168h252v109h-252v170h226l-414 731h279l292 -559l291 559h279z" />
    <glyph glyph-name="brokenbar" unicode="&#xa6;" horiz-adv-x="475" 
d="M139 809v664h197v-664h-197zM139 -188v663h197v-663h-197z" />
    <glyph glyph-name="section" unicode="&#xa7;" horiz-adv-x="1060" 
d="M836 322q112 -87 112 -232q0 -165 -116 -257.5t-310 -92.5q-365 0 -450 264l211 82q52 -164 235 -164q80 0 131 39t51 105q0 39 -21 70t-56 51.5t-81 38.5t-96.5 35t-101 36t-96.5 45.5t-81 60.5t-56 85t-21 114q0 89 44 157t122 109q-123 87 -123 238q0 155 111 241.5
t301 86.5q154 0 256 -60.5t137 -171.5l-213 -82q-45 125 -180 125q-78 0 -121 -33.5t-43 -91.5q0 -43 26 -75t68 -51t96.5 -38t110.5 -35t110.5 -43t96.5 -61t68 -91t26 -130q0 -183 -147 -274zM338 623q0 -32 14 -58t35.5 -44t55.5 -34.5t67.5 -28.5t77.5 -27q15 -5 22 -7
q58 14 91.5 52t33.5 97q0 32 -13.5 59t-32.5 45t-53.5 35.5t-63 28t-74.5 25.5q-79 -9 -119.5 -47t-40.5 -96z" />
    <glyph glyph-name="dieresis" unicode="&#xa8;" horiz-adv-x="854" 
d="M229 1257q-69 0 -118.5 48.5t-49.5 121.5q0 72 50.5 118t124.5 46q70 0 117.5 -48.5t47.5 -121.5q0 -70 -50 -117t-122 -47zM688 1257q-70 0 -120 48t-50 122q0 72 50.5 118t123.5 46q70 0 119 -48.5t49 -121.5q0 -70 -50 -117t-122 -47z" />
    <glyph glyph-name="copyright" unicode="&#xa9;" horiz-adv-x="1564" 
d="M784 -27q-207 0 -368 90t-248.5 249.5t-87.5 361.5q0 148 51.5 278.5t142.5 224.5t223 148.5t287 54.5q154 0 286 -54.5t223 -148.5t142.5 -224.5t51.5 -278.5q0 -202 -88 -361.5t-248.5 -249.5t-366.5 -90zM784 139q151 0 271.5 66.5t190 189t69.5 279.5
q0 151 -69 274.5t-191 194.5t-271 71q-230 0 -382 -155t-152 -385q0 -238 150.5 -386.5t383.5 -148.5zM788 291q-166 0 -276.5 110.5t-110.5 276.5q0 164 110.5 275.5t276.5 111.5q135 0 228.5 -71.5t122.5 -168.5l-181 -63q-15 56 -58.5 87.5t-106.5 31.5
q-84 0 -137.5 -56.5t-53.5 -146.5q0 -91 53.5 -147t137.5 -56q64 0 108.5 31.5t59.5 87.5l182 -66q-29 -96 -123 -166.5t-232 -70.5z" />
    <glyph glyph-name="ordfeminine" unicode="&#xaa;" horiz-adv-x="808" 
d="M571 1679h140v-602h-140v92q-76 -110 -221 -110q-124 0 -209.5 90t-85.5 227q0 140 85.5 229t209.5 89q147 0 221 -103v88zM381 1229q68 0 108.5 41.5t40.5 107.5q0 63 -41 106.5t-108 43.5q-63 0 -104 -43t-41 -107q0 -63 41 -106t104 -43z" />
    <glyph glyph-name="guillemotleft" unicode="&#xab;" horiz-adv-x="1017" 
d="M293 156l-234 348l234 348h244l-234 -348l234 -348h-244zM680 156l-234 348l234 348h244l-234 -348l234 -348h-244z" />
    <glyph glyph-name="logicalnot" unicode="&#xac;" horiz-adv-x="1083" 
d="M98 793h858v-533h-243v311h-615v222z" />
    <glyph glyph-name="registered" unicode="&#xae;" horiz-adv-x="1048" 
d="M526 1485q187 0 315 -129.5t128 -317.5q0 -185 -129 -312.5t-314 -127.5q-191 0 -318.5 126.5t-127.5 313.5q0 189 127.5 318t318.5 129zM526 702q142 0 238 95.5t96 240.5q0 144 -96.5 241t-237.5 97q-144 0 -242 -96.5t-98 -241.5t98 -240.5t242 -95.5zM705 1141
q0 -50 -29 -84t-76 -45l119 -187h-109l-112 183h-21v-183h-100v449h180q65 0 106.5 -35.5t41.5 -97.5zM604 1141q0 55 -63 55h-64v-109h64q63 0 63 54z" />
    <glyph glyph-name="macron" unicode="&#xaf;" horiz-adv-x="696" 
d="M61 1321v209h656v-209h-656z" />
    <glyph glyph-name="degree" unicode="&#xb0;" horiz-adv-x="786" 
d="M393 788q-143 0 -236.5 91.5t-93.5 230.5t94.5 230.5t235.5 91.5q142 0 236 -91t94 -229q0 -142 -92.5 -233t-237.5 -91zM393 946q69 0 114.5 46t45.5 118q0 70 -46 117t-114 47q-67 0 -114.5 -48t-47.5 -116q0 -72 46.5 -118t115.5 -46z" />
    <glyph glyph-name="plusminus" unicode="&#xb1;" horiz-adv-x="1069" 
d="M649 932h318v-221h-318v-332h-231v332h-316v221h316v334h231v-334zM102 55v221h865v-221h-865z" />
    <glyph glyph-name="uni00B2" unicode="&#xb2;" horiz-adv-x="704" 
d="M334 850h274v-139h-514v110l234 228q100 93 100 163q0 35 -23.5 57.5t-60.5 22.5t-64 -24t-36 -70l-158 51q15 84 87 135.5t177 51.5q115 0 181.5 -57.5t66.5 -153.5q0 -69 -33 -127.5t-106 -124.5z" />
    <glyph glyph-name="uni00B3" unicode="&#xb3;" horiz-adv-x="665" 
d="M397 1137q86 -8 140.5 -66.5t54.5 -144.5q0 -98 -75 -164t-191 -66q-102 0 -174 45t-93 115l152 62q12 -36 41 -56t70 -20q46 0 74 26.5t28 67.5q0 43 -28 68.5t-72 25.5h-111v109l170 153h-287v131h463v-131z" />
    <glyph glyph-name="acute" unicode="&#xb4;" horiz-adv-x="632" 
d="M166 1188l-105 168l469 301l117 -191z" />
    <glyph glyph-name="paragraph" unicode="&#xb6;" horiz-adv-x="1302" 
d="M1145 1423v-1628h-141v1409h-89v-1409h-139v1409h-90v-655h-151q-221 0 -353.5 119.5t-132.5 318.5q0 198 132 317t354 119h610z" />
    <glyph glyph-name="periodcentered" unicode="&#xb7;" horiz-adv-x="485" 
d="M242 526q-64 0 -108 44t-44 108q0 67 43.5 111.5t108.5 44.5q66 0 109.5 -44.5t43.5 -111.5q0 -65 -43.5 -108.5t-109.5 -43.5z" />
    <glyph glyph-name="cedilla" unicode="&#xb8;" horiz-adv-x="542" 
d="M305 -494q-81 0 -144.5 27t-99.5 70l89 106q48 -59 120 -59q46 0 75.5 26t29.5 64q0 39 -30 65.5t-79 26.5h-33l-16 16l70 183h159l-49 -125q70 -6 117 -60t47 -129q0 -94 -70.5 -152.5t-185.5 -58.5z" />
    <glyph glyph-name="uni00B9" unicode="&#xb9;" horiz-adv-x="587" 
d="M414 860h102v-149h-418v149h138v309h-136v150h136v104h178v-563z" />
    <glyph glyph-name="ordmasculine" unicode="&#xba;" horiz-adv-x="757" 
d="M377 1059q-141 0 -232.5 91t-91.5 226q0 138 91.5 230t232.5 92q145 0 236.5 -92t91.5 -230q0 -137 -91.5 -227t-236.5 -90zM379 1225q68 0 105.5 42t37.5 109q0 70 -37.5 113t-105.5 43q-69 0 -107.5 -43.5t-38.5 -112.5q0 -67 38.5 -109t107.5 -42z" />
    <glyph glyph-name="guillemotright" unicode="&#xbb;" horiz-adv-x="1017" 
d="M94 156l234 348l-234 348h244l233 -348l-233 -348h-244zM481 156l234 348l-234 348h246l231 -348l-231 -348h-246z" />
    <glyph glyph-name="onequarter" unicode="&#xbc;" horiz-adv-x="1351" 
d="M492 711h-420v149h139v309h-137v150h137v104h176v-563h105v-149zM975 1423h194l-727 -1423h-190zM1290 264v-121h-71v-143h-166v143h-322v123l324 447h164v-449h71zM1055 264v260l-189 -260h189z" />
    <glyph glyph-name="onehalf" unicode="&#xbd;" horiz-adv-x="1423" 
d="M492 711h-420v149h139v309h-137v150h137v104h176v-563h105v-149zM971 1423h194l-727 -1423h-190zM1087 139h277v-139h-516v111l233 227q101 94 101 164q0 35 -22.5 57.5t-59.5 22.5q-38 0 -66 -24.5t-37 -70.5l-157 52q17 84 89 135t175 51q116 0 182 -57.5t66 -153.5
q0 -68 -33.5 -126.5t-106.5 -125.5z" />
    <glyph glyph-name="threequarters" unicode="&#xbe;" horiz-adv-x="1388" 
d="M584 926q0 -98 -76.5 -164t-192.5 -66q-101 0 -172 45t-94 115l154 62q23 -76 110 -76q45 0 73 27t28 67q0 43 -28 68.5t-71 25.5h-110v109l170 153h-289v131h463v-131l-162 -155q87 -8 142 -66.5t55 -144.5zM1014 1423h194l-727 -1423h-190zM1313 264v-121h-72v-143
h-166v143h-321v123l323 447h164v-449h72zM1077 264v260l-188 -260h188z" />
    <glyph glyph-name="questiondown" unicode="&#xbf;" horiz-adv-x="962" 
d="M543 784q-66 0 -110 44.5t-44 109.5q0 66 44 110t110 44q64 0 107.5 -43.5t43.5 -108.5q0 -67 -43 -111.5t-108 -44.5zM471 -387q-191 0 -301.5 93.5t-110.5 256.5q0 68 20.5 126t53.5 98.5t72.5 76.5t79.5 67.5t73 63.5t53.5 72.5t20.5 87.5v43h225v-59
q0 -71 -24 -129.5t-60 -96t-78.5 -75t-78.5 -67t-60 -70.5t-24 -87q0 -73 41 -112t114 -39q71 0 122 45.5t65 118.5l246 -80q-33 -152 -153.5 -243t-295.5 -91z" />
    <glyph glyph-name="Agrave" unicode="&#xc0;" horiz-adv-x="1318" 
d="M977 1729l-57 -189l-578 178l66 215zM1053 0l-115 338h-555l-115 -338h-260l492 1423h317l494 -1423h-258zM457 553h407l-205 596z" />
    <glyph glyph-name="Aacute" unicode="&#xc1;" horiz-adv-x="1318" 
d="M997 1718l-577 -178l-58 189l570 204zM1053 0l-115 338h-555l-115 -338h-260l492 1423h317l494 -1423h-258zM457 553h407l-205 596z" />
    <glyph glyph-name="Acircumflex" unicode="&#xc2;" horiz-adv-x="1318" 
d="M657 1739l-157 -176h-236l293 344h211l285 -344h-234zM1053 0l-115 338h-555l-115 -338h-260l492 1423h317l494 -1423h-258zM457 553h407l-205 596z" />
    <glyph glyph-name="Atilde" unicode="&#xc3;" horiz-adv-x="1318" 
d="M551 1665q-85 0 -105 -90l-180 76q22 91 89 160t171 69q45 0 85.5 -15.5t65 -34.5t56.5 -34.5t62 -15.5q79 0 102 92l180 -78q-25 -97 -90 -163t-170 -66q-46 0 -86 15.5t-63.5 34.5t-54.5 34.5t-62 15.5zM1053 0l-115 338h-555l-115 -338h-260l492 1423h317l494 -1423
h-258zM457 553h407l-205 596z" />
    <glyph glyph-name="Adieresis" unicode="&#xc4;" horiz-adv-x="1318" 
d="M420 1563q-72 0 -122 49t-50 125q0 74 50.5 121t125.5 47q73 0 122.5 -49t49.5 -125q0 -73 -51 -120.5t-125 -47.5zM893 1563q-72 0 -122 49t-50 125q0 74 50.5 121t125.5 47q73 0 122.5 -49t49.5 -125q0 -73 -51 -120.5t-125 -47.5zM1053 0l-115 338h-555l-115 -338
h-260l492 1423h317l494 -1423h-258zM457 553h407l-205 596z" />
    <glyph glyph-name="Aring" unicode="&#xc5;" horiz-adv-x="1318" 
d="M659 1436q-111 0 -182 68t-71 175q0 105 71.5 173.5t181.5 68.5t181 -68.5t71 -173.5q0 -107 -71 -175t-181 -68zM659 1776q-43 0 -71.5 -28t-28.5 -69t28.5 -68.5t71.5 -27.5t71 27.5t28 68.5t-28 69t-71 28zM1053 0l-115 338h-555l-115 -338h-260l492 1423h317
l494 -1423h-258zM457 553h407l-205 596z" />
    <glyph glyph-name="AE" unicode="&#xc6;" horiz-adv-x="1927" 
d="M1169 227h682v-227h-944v330h-497l-166 -330h-275l709 1423h1161v-227h-670v-354h596v-228h-596v-387zM522 553h385v643h-61z" />
    <glyph glyph-name="Ccedilla" unicode="&#xc7;" horiz-adv-x="1499" 
d="M799 223q161 0 264 82t147 232l250 -101q-61 -186 -208.5 -310.5t-368.5 -145.5l-29 -74q70 -6 117 -60t47 -129q0 -94 -70.5 -152.5t-185.5 -58.5q-81 0 -144.5 27t-99.5 70l88 106q48 -59 121 -59q46 0 75 26t29 64q0 40 -29 66t-79 26h-33l-16 16l51 132
q-139 13 -259 73t-205.5 155t-134 225t-48.5 278q0 211 94.5 380t259.5 263t369 94q130 0 242 -37t192.5 -101.5t137 -146t87.5 -176.5l-250 -100q-44 148 -148 230.5t-265 82.5q-199 0 -326 -135.5t-127 -353.5q0 -217 127.5 -352.5t327.5 -135.5z" />
    <glyph glyph-name="Egrave" unicode="&#xc8;" horiz-adv-x="1163" 
d="M928 1729l-60 -189l-577 178l65 215zM406 227h681v-227h-944v1423h932v-227h-669v-354h598v-228h-598v-387z" />
    <glyph glyph-name="Eacute" unicode="&#xc9;" horiz-adv-x="1163" 
d="M948 1718l-577 -178l-60 189l572 204zM406 227h681v-227h-944v1423h932v-227h-669v-354h598v-228h-598v-387z" />
    <glyph glyph-name="Ecircumflex" unicode="&#xca;" horiz-adv-x="1163" 
d="M608 1739l-157 -176h-236l291 344h213l285 -344h-236zM406 227h681v-227h-944v1423h932v-227h-669v-354h598v-228h-598v-387z" />
    <glyph glyph-name="Edieresis" unicode="&#xcb;" horiz-adv-x="1163" 
d="M371 1563q-72 0 -123 49t-51 125q0 74 51.5 121t126.5 47q73 0 121.5 -49t48.5 -125q0 -73 -50.5 -120.5t-123.5 -47.5zM844 1563q-72 0 -123 49t-51 125q0 74 51.5 121t126.5 47q73 0 122.5 -49t49.5 -125q0 -73 -51 -120.5t-125 -47.5zM406 227h681v-227h-944v1423h932
v-227h-669v-354h598v-228h-598v-387z" />
    <glyph glyph-name="Igrave" unicode="&#xcc;" horiz-adv-x="548" 
d="M535 1540l-578 178l66 215l571 -204zM143 0v1423h263v-1423h-263z" />
    <glyph glyph-name="Iacute" unicode="&#xcd;" horiz-adv-x="548" 
d="M37 1540l-60 189l572 204l65 -215zM143 0v1423h263v-1423h-263z" />
    <glyph glyph-name="Icircumflex" unicode="&#xce;" horiz-adv-x="548" 
d="M383 1907l285 -344h-234l-160 176l-157 -176h-236l291 344h211zM143 0v1423h263v-1423h-263z" />
    <glyph glyph-name="Idieresis" unicode="&#xcf;" horiz-adv-x="548" 
d="M35 1563q-71 0 -121.5 49t-50.5 125q0 74 51.5 121t126.5 47q71 0 120.5 -49.5t49.5 -124.5q0 -73 -51 -120.5t-125 -47.5zM508 1563q-71 0 -121.5 49t-50.5 125q0 74 51 121t125 47q73 0 123.5 -49.5t50.5 -124.5q0 -73 -51 -120.5t-127 -47.5zM143 0v1423h263v-1423
h-263z" />
    <glyph glyph-name="Eth" unicode="&#xd0;" horiz-adv-x="1499" 
d="M707 1423q156 0 288 -50.5t226 -142t147 -224.5t53 -293q0 -213 -91 -375.5t-253 -250t-370 -87.5h-543v639h-129v180h129v604h543zM698 233q204 0 330.5 127.5t126.5 348.5q0 224 -126 352.5t-331 128.5h-272v-371h313v-180h-313v-406h272z" />
    <glyph glyph-name="Ntilde" unicode="&#xd1;" horiz-adv-x="1413" 
d="M575 1665q-81 0 -104 -90l-180 76q24 92 90.5 160.5t171.5 68.5q45 0 84.5 -15.5t64 -34.5t56 -34.5t61.5 -15.5q41 0 67.5 24.5t35.5 67.5l180 -78q-25 -97 -90 -163t-170 -66q-45 0 -85 15.5t-64 34.5t-55.5 34.5t-62.5 15.5zM1010 1423h260v-1423h-217l-650 973v-973
h-260v1423h217l650 -974v974z" />
    <glyph glyph-name="Ograve" unicode="&#xd2;" horiz-adv-x="1617" 
d="M1069 1540l-577 178l65 215l571 -204zM809 -25q-153 0 -289 56.5t-233.5 153.5t-154 234t-56.5 292q0 208 96.5 377t264.5 264.5t372 95.5q205 0 373.5 -95.5t265 -264.5t96.5 -377q0 -155 -56.5 -292t-154.5 -234t-234 -153.5t-290 -56.5zM809 223q207 0 338 137.5
t131 352.5t-129.5 351t-339.5 136q-208 0 -337.5 -136t-129.5 -351q0 -216 130 -353t337 -137z" />
    <glyph glyph-name="Oacute" unicode="&#xd3;" horiz-adv-x="1617" 
d="M571 1540l-59 189l571 204l66 -215zM809 -25q-153 0 -289 56.5t-233.5 153.5t-154 234t-56.5 292q0 208 96.5 377t264.5 264.5t372 95.5q205 0 373.5 -95.5t265 -264.5t96.5 -377q0 -155 -56.5 -292t-154.5 -234t-234 -153.5t-290 -56.5zM809 223q207 0 338 137.5
t131 352.5t-129.5 351t-339.5 136q-208 0 -337.5 -136t-129.5 -351q0 -216 130 -353t337 -137z" />
    <glyph glyph-name="Ocircumflex" unicode="&#xd4;" horiz-adv-x="1617" 
d="M809 1739l-158 -176h-235l291 344h213l282 -344h-233zM809 1448q205 0 373.5 -95.5t265 -264.5t96.5 -377q0 -155 -56.5 -292t-154.5 -234t-234 -153.5t-290 -56.5q-153 0 -289 56.5t-233.5 153.5t-154 234t-56.5 292q0 208 96.5 377t264.5 264.5t372 95.5zM809 223
q207 0 338 137.5t131 352.5t-129.5 351t-339.5 136q-208 0 -337.5 -136t-129.5 -351q0 -216 130 -353t337 -137z" />
    <glyph glyph-name="Otilde" unicode="&#xd5;" horiz-adv-x="1617" 
d="M969 1565q-46 0 -86.5 15.5t-64.5 34.5t-55.5 34.5t-62.5 15.5q-82 0 -102 -90l-180 76q10 42 30 80.5t51 73t77.5 55t101.5 20.5q45 0 85 -15.5t64.5 -34.5t55.5 -34.5t61 -15.5q82 0 105 92l180 -78q-25 -96 -90.5 -162.5t-169.5 -66.5zM809 -25q-153 0 -289 56.5
t-233.5 153.5t-154 234t-56.5 292q0 208 96.5 377t264.5 264.5t372 95.5q205 0 373.5 -95.5t265 -264.5t96.5 -377q0 -155 -56.5 -292t-154.5 -234t-234 -153.5t-290 -56.5zM809 223q207 0 338 137.5t131 352.5t-129.5 351t-339.5 136q-208 0 -337.5 -136t-129.5 -351
q0 -216 130 -353t337 -137z" />
    <glyph glyph-name="Odieresis" unicode="&#xd6;" horiz-adv-x="1617" 
d="M571 1563q-72 0 -123 49t-51 125q0 74 51.5 121t126.5 47q71 0 120.5 -49.5t49.5 -124.5q0 -73 -50.5 -120.5t-123.5 -47.5zM1044 1563q-72 0 -123 49t-51 125q0 73 51.5 120.5t125.5 47.5q73 0 123.5 -49.5t50.5 -124.5q0 -73 -51.5 -120.5t-125.5 -47.5zM809 -25
q-153 0 -289 56.5t-233.5 153.5t-154 234t-56.5 292q0 208 96.5 377t264.5 264.5t372 95.5q205 0 373.5 -95.5t265 -264.5t96.5 -377q0 -155 -56.5 -292t-154.5 -234t-234 -153.5t-290 -56.5zM809 223q207 0 338 137.5t131 352.5t-129.5 351t-339.5 136q-208 0 -337.5 -136
t-129.5 -351q0 -216 130 -353t337 -137z" />
    <glyph glyph-name="multiply" unicode="&#xd7;" horiz-adv-x="1028" 
d="M944 926l-266 -264l266 -267l-164 -164l-266 267l-266 -267l-164 162l268 269l-268 266l164 162l266 -267l266 267z" />
    <glyph glyph-name="Oslash" unicode="&#xd8;" horiz-adv-x="1624" 
d="M1393 1171q153 -199 153 -460q0 -155 -56.5 -292t-154 -234t-233.5 -153.5t-289 -56.5q-239 0 -426 129l-145 -153l-154 145l145 154q-155 198 -155 461q0 208 96.5 377t265 264.5t373.5 95.5q240 0 426 -131l145 153l152 -147zM344 713q0 -153 70 -271l651 691
q-109 67 -252 67q-210 0 -339.5 -136t-129.5 -351zM813 223q207 0 337 137t130 353q0 148 -68 268l-651 -690q114 -68 252 -68z" />
    <glyph glyph-name="Ugrave" unicode="&#xd9;" horiz-adv-x="1378" 
d="M1010 1729l-60 -189l-577 178l65 215zM991 1423h260v-878q0 -118 -35.5 -220t-103 -180.5t-176.5 -124t-246 -45.5t-245.5 45t-177 123.5t-104.5 181t-36 220.5v878h264v-878q0 -145 76.5 -234.5t222.5 -89.5t223.5 90t77.5 234v878z" />
    <glyph glyph-name="Uacute" unicode="&#xda;" horiz-adv-x="1378" 
d="M1030 1718l-577 -178l-60 189l572 204zM991 1423h260v-878q0 -118 -35.5 -220t-103 -180.5t-176.5 -124t-246 -45.5t-245.5 45t-177 123.5t-104.5 181t-36 220.5v878h264v-878q0 -145 76.5 -234.5t222.5 -89.5t223.5 90t77.5 234v878z" />
    <glyph glyph-name="Ucircumflex" unicode="&#xdb;" horiz-adv-x="1378" 
d="M690 1739l-158 -176h-235l291 344h213l282 -344h-233zM991 1423h260v-878q0 -118 -35.5 -220t-103 -180.5t-176.5 -124t-246 -45.5t-245.5 45t-177 123.5t-104.5 181t-36 220.5v878h264v-878q0 -145 76.5 -234.5t222.5 -89.5t223.5 90t77.5 234v878z" />
    <glyph glyph-name="Udieresis" unicode="&#xdc;" horiz-adv-x="1378" 
d="M453 1563q-72 0 -123 49t-51 125q0 74 51.5 121t126.5 47q71 0 120.5 -49.5t49.5 -124.5q0 -73 -50.5 -120.5t-123.5 -47.5zM926 1563q-72 0 -123 49t-51 125q0 74 51 121t125 47q73 0 123.5 -49.5t50.5 -124.5q0 -73 -51 -120.5t-125 -47.5zM991 1423h260v-878
q0 -118 -35.5 -220t-103 -180.5t-176.5 -124t-246 -45.5t-245.5 45t-177 123.5t-104.5 181t-36 220.5v878h264v-878q0 -145 76.5 -234.5t222.5 -89.5t223.5 90t77.5 234v878z" />
    <glyph glyph-name="Yacute" unicode="&#xdd;" horiz-adv-x="1306" 
d="M993 1718l-575 -178l-60 189l572 204zM1307 1423l-523 -841v-582h-262v584l-522 839h293l360 -616l361 616h293z" />
    <glyph glyph-name="Thorn" unicode="&#xde;" horiz-adv-x="1261" 
d="M707 1157q224 0 355.5 -118t131.5 -318q0 -198 -132.5 -317t-354.5 -119h-301v-285h-263v1423h263v-266h301zM694 514q112 0 173 56.5t61 150.5q0 95 -60.5 152t-173.5 57h-288v-416h288z" />
    <glyph glyph-name="germandbls" unicode="&#xdf;" horiz-adv-x="1275" 
d="M948 797q115 -44 188.5 -153t73.5 -249q0 -198 -128 -309t-334 -111q-221 0 -316 166l51 197q69 -145 228 -145q106 0 169.5 63t63.5 170q0 111 -74 181.5t-213 70.5v205q108 0 169 62.5t61 150.5q0 93 -65.5 151t-168.5 58q-128 0 -200 -78t-72 -219v-1008h-260v995
q0 245 146 386t403 141q220 0 350.5 -112.5t130.5 -285.5q0 -108 -56 -197.5t-147 -129.5z" />
    <glyph glyph-name="agrave" unicode="&#xe0;" horiz-adv-x="1318" 
d="M938 1356l-107 -168l-479 278l117 191zM956 1079h242v-1079h-242v145q-128 -170 -356 -170q-231 0 -382.5 161t-151.5 403t150.5 395t383.5 153q232 0 356 -161v153zM635 205q139 0 226 93t87 241q0 149 -86.5 241t-226.5 92q-134 0 -221.5 -94t-87.5 -239t87.5 -239.5
t221.5 -94.5z" />
    <glyph glyph-name="aacute" unicode="&#xe1;" horiz-adv-x="1318" 
d="M958 1466l-481 -278l-104 168l467 301zM956 1079h242v-1079h-242v145q-128 -170 -356 -170q-231 0 -382.5 161t-151.5 403t150.5 395t383.5 153q232 0 356 -161v153zM635 205q139 0 226 93t87 241q0 149 -86.5 241t-226.5 92q-134 0 -221.5 -94t-87.5 -239t87.5 -239.5
t221.5 -94.5z" />
    <glyph glyph-name="acircumflex" unicode="&#xe2;" horiz-adv-x="1318" 
d="M664 1450l-158 -213h-230l279 375h225l271 -375h-228zM956 1079h242v-1079h-242v145q-128 -170 -356 -170q-231 0 -382.5 161t-151.5 403t150.5 395t383.5 153q232 0 356 -161v153zM635 205q139 0 226 93t87 241q0 149 -86.5 241t-226.5 92q-134 0 -221.5 -94t-87.5 -239
t87.5 -239.5t221.5 -94.5z" />
    <glyph glyph-name="atilde" unicode="&#xe3;" horiz-adv-x="1318" 
d="M553 1368q-38 0 -64.5 -24t-35.5 -66l-181 76q11 43 29.5 81t47 72.5t71 55t94.5 20.5q43 0 81 -15.5t61.5 -34.5t55 -34.5t62.5 -15.5q38 0 64.5 24.5t35.5 67.5l181 -78q-59 -229 -240 -229q-44 0 -83.5 15.5t-63.5 34.5t-55 34.5t-60 15.5zM956 1079h242v-1079h-242
v145q-128 -170 -356 -170q-231 0 -382.5 161t-151.5 403t150.5 395t383.5 153q232 0 356 -161v153zM635 205q139 0 226 93t87 241q0 149 -86.5 241t-226.5 92q-134 0 -221.5 -94t-87.5 -239t87.5 -239.5t221.5 -94.5z" />
    <glyph glyph-name="adieresis" unicode="&#xe4;" horiz-adv-x="1318" 
d="M432 1257q-69 0 -118.5 48.5t-49.5 121.5q0 72 50.5 118t123.5 46q70 0 118 -48.5t48 -121.5q0 -70 -50 -117t-122 -47zM891 1257q-70 0 -119 48t-49 122q0 72 49.5 118t122.5 46q70 0 119 -48.5t49 -121.5q0 -70 -50 -117t-122 -47zM956 1079h242v-1079h-242v145
q-128 -170 -356 -170q-231 0 -382.5 161t-151.5 403t150.5 395t383.5 153q232 0 356 -161v153zM635 205q139 0 226 93t87 241q0 149 -86.5 241t-226.5 92q-134 0 -221.5 -94t-87.5 -239t87.5 -239.5t221.5 -94.5z" />
    <glyph glyph-name="aring" unicode="&#xe5;" horiz-adv-x="1318" 
d="M666 1174q-111 0 -182.5 67t-71.5 174q0 104 72 173t182 69t181 -68.5t71 -173.5q0 -107 -70.5 -174t-181.5 -67zM666 1511q-44 0 -72.5 -27.5t-28.5 -68.5t28.5 -68.5t72.5 -27.5q41 0 69.5 27.5t28.5 68.5t-28.5 68.5t-69.5 27.5zM956 1079h242v-1079h-242v145
q-128 -170 -356 -170q-231 0 -382.5 161t-151.5 403t150.5 395t383.5 153q232 0 356 -161v153zM635 205q139 0 226 93t87 241q0 149 -86.5 241t-226.5 92q-134 0 -221.5 -94t-87.5 -239t87.5 -239.5t221.5 -94.5z" />
    <glyph glyph-name="ae" unicode="&#xe6;" horiz-adv-x="2144" 
d="M1239 467q20 -131 104.5 -207t208.5 -76q220 0 297 168l215 -92q-128 -285 -465 -285q-275 0 -401 183v-158h-242v145q-128 -170 -356 -170q-231 0 -382.5 161t-151.5 403q0 244 151.5 404.5t382.5 160.5q228 0 356 -170v145h242v-168q127 193 377 193q155 0 272.5 -78
t175.5 -199.5t58 -263.5q0 -61 -6 -96h-836zM1237 621h610q-18 134 -96.5 212t-204.5 78q-127 0 -208.5 -77t-100.5 -213zM635 205q139 0 226 93t87 241q0 149 -86.5 241t-226.5 92q-134 0 -221.5 -94t-87.5 -239t87.5 -239.5t221.5 -94.5z" />
    <glyph glyph-name="ccedilla" unicode="&#xe7;" horiz-adv-x="1177" 
d="M1145 319q-35 -118 -147 -215t-275 -122l-31 -76q70 -6 117 -60t47 -129q0 -94 -70.5 -152.5t-185.5 -58.5q-81 0 -144.5 27t-99.5 70l88 106q48 -59 121 -59q46 0 75.5 26t29.5 64q0 39 -29.5 65.5t-79.5 26.5h-33l-14 16l49 132q-217 22 -357 178.5t-140 378.5
q0 158 72 287t201.5 203.5t289.5 74.5q101 0 190.5 -30.5t152.5 -81t105.5 -111t61.5 -125.5l-234 -92q-27 96 -98.5 152t-173.5 56q-132 0 -219.5 -91.5t-87.5 -239.5t88 -240t221 -92q102 0 175.5 56.5t100.5 150.5z" />
    <glyph glyph-name="egrave" unicode="&#xe8;" horiz-adv-x="1216" 
d="M891 1354l-105 -168l-481 278l119 191zM315 457q26 -121 113 -190.5t209 -69.5q106 0 171 38t103 113l205 -131q-150 -244 -487 -244q-169 0 -299.5 74.5t-200.5 203t-70 288.5q0 115 43.5 220t117 180.5t176 120t216.5 44.5q164 0 291 -79t191.5 -201.5t64.5 -262.5
q0 -69 -6 -104h-838zM315 639h594q-22 121 -99.5 190.5t-191.5 69.5q-116 0 -197.5 -68.5t-105.5 -191.5z" />
    <glyph glyph-name="eacute" unicode="&#xe9;" horiz-adv-x="1216" 
d="M911 1464l-481 -278l-104 168l469 301zM315 457q26 -121 113 -190.5t209 -69.5q106 0 171 38t103 113l205 -131q-150 -244 -487 -244q-169 0 -299.5 74.5t-200.5 203t-70 288.5q0 115 43.5 220t117 180.5t176 120t216.5 44.5q164 0 291 -79t191.5 -201.5t64.5 -262.5
q0 -69 -6 -104h-838zM315 639h594q-22 121 -99.5 190.5t-191.5 69.5q-116 0 -197.5 -68.5t-105.5 -191.5z" />
    <glyph glyph-name="ecircumflex" unicode="&#xea;" horiz-adv-x="1216" 
d="M618 1448l-157 -213h-230l279 375h223l273 -375h-230zM315 457q26 -121 113 -190.5t209 -69.5q106 0 171 38t103 113l205 -131q-150 -244 -487 -244q-169 0 -299.5 74.5t-200.5 203t-70 288.5q0 115 43.5 220t117 180.5t176 120t216.5 44.5q164 0 291 -79t191.5 -201.5
t64.5 -262.5q0 -69 -6 -104h-838zM315 639h594q-22 121 -99.5 190.5t-191.5 69.5q-116 0 -197.5 -68.5t-105.5 -191.5z" />
    <glyph glyph-name="edieresis" unicode="&#xeb;" horiz-adv-x="1216" 
d="M387 1255q-70 0 -120 48t-50 122q0 72 50.5 118t123.5 46q70 0 118 -48.5t48 -121.5q0 -70 -49.5 -117t-120.5 -47zM844 1255q-69 0 -118.5 48.5t-49.5 121.5q0 72 50 118t122 46q71 0 119.5 -48.5t48.5 -121.5q0 -70 -50 -117t-122 -47zM315 457q26 -121 113 -190.5
t209 -69.5q106 0 171 38t103 113l205 -131q-150 -244 -487 -244q-169 0 -299.5 74.5t-200.5 203t-70 288.5q0 115 43.5 220t117 180.5t176 120t216.5 44.5q164 0 291 -79t191.5 -201.5t64.5 -262.5q0 -69 -6 -104h-838zM315 639h594q-22 121 -99.5 190.5t-191.5 69.5
q-116 0 -197.5 -68.5t-105.5 -191.5z" />
    <glyph glyph-name="igrave" unicode="&#xec;" horiz-adv-x="501" 
d="M420 1186l-481 278l116 191l469 -301zM121 0v1079h260v-1079h-260z" />
    <glyph glyph-name="iacute" unicode="&#xed;" horiz-adv-x="501" 
d="M63 1186l-104 168l469 301l117 -191zM121 0v1079h260v-1079h-260z" />
    <glyph glyph-name="icircumflex" unicode="&#xee;" horiz-adv-x="501" 
d="M367 1610l272 -373h-229l-158 213l-158 -213h-229l278 373h224zM121 0v1079h260v-1079h-260z" />
    <glyph glyph-name="idieresis" unicode="&#xef;" horiz-adv-x="501" 
d="M20 1255q-70 0 -120 48t-50 122q0 72 51 119t124 47q70 0 117.5 -48.5t47.5 -121.5q0 -71 -49.5 -118.5t-120.5 -47.5zM477 1255q-69 0 -118.5 48.5t-49.5 121.5q0 72 50 119t122 47q71 0 119.5 -48.5t48.5 -121.5q0 -71 -49.5 -118.5t-122.5 -47.5zM121 0v1079h260
v-1079h-260z" />
    <glyph glyph-name="eth" unicode="&#xf0;" horiz-adv-x="1288" 
d="M721 1479q231 -139 363.5 -373t132.5 -508q0 -294 -159 -458.5t-417 -164.5q-166 0 -298 73t-204.5 198.5t-72.5 277.5q0 115 43 217t117.5 175.5t180 116t226.5 42.5q148 0 244 -69q-107 188 -328 301l-209 -209l-129 131l147 147q-147 39 -301 39l103 213
q205 0 385 -65l153 153l129 -131zM643 207q139 0 225 88.5t86 232.5q0 134 -87 224t-224 90q-140 0 -228.5 -90.5t-88.5 -227.5q0 -135 89 -226t228 -91z" />
    <glyph glyph-name="ntilde" unicode="&#xf1;" horiz-adv-x="1245" 
d="M530 1366q-39 0 -66 -24t-36 -66l-178 76q10 43 28 81t46 72.5t70.5 55t94.5 20.5q43 0 81.5 -15.5t62.5 -34.5t56 -34.5t63 -15.5q37 0 63 24.5t35 67.5l180 -78q-59 -229 -239 -229q-43 0 -82.5 15.5t-63.5 34.5t-55 34.5t-60 15.5zM707 1104q198 0 314 -118t116 -312
v-674h-263v625q0 116 -66 181.5t-177 65.5q-105 -1 -176.5 -66t-73.5 -157v-649h-260v1079h246v-118q58 66 146 104.5t194 38.5z" />
    <glyph glyph-name="ograve" unicode="&#xf2;" horiz-adv-x="1282" 
d="M813 1186l-479 278l117 191l469 -301zM641 -25q-125 0 -232.5 43t-182.5 118t-117.5 179.5t-42.5 223.5q0 244 161.5 404.5t413.5 160.5q251 0 413.5 -160.5t162.5 -404.5q0 -159 -73.5 -288t-205.5 -202.5t-297 -73.5zM643 207q138 0 224.5 93.5t86.5 240.5
q0 145 -86 237t-225 92q-141 0 -229 -92.5t-88 -238.5q0 -145 88.5 -238.5t228.5 -93.5z" />
    <glyph glyph-name="oacute" unicode="&#xf3;" horiz-adv-x="1282" 
d="M459 1186l-105 168l467 301l119 -191zM641 -25q-125 0 -232.5 43t-182.5 118t-117.5 179.5t-42.5 223.5q0 244 161.5 404.5t413.5 160.5q251 0 413.5 -160.5t162.5 -404.5q0 -159 -73.5 -288t-205.5 -202.5t-297 -73.5zM643 207q138 0 224.5 93.5t86.5 240.5
q0 145 -86 237t-225 92q-141 0 -229 -92.5t-88 -238.5q0 -145 88.5 -238.5t228.5 -93.5z" />
    <glyph glyph-name="ocircumflex" unicode="&#xf4;" horiz-adv-x="1282" 
d="M645 1448l-158 -213h-229l279 375h225l270 -375h-227zM641 1104q251 0 413.5 -160.5t162.5 -404.5q0 -159 -73.5 -288t-205.5 -202.5t-297 -73.5q-125 0 -232.5 43t-182.5 118t-117.5 179.5t-42.5 223.5q0 244 161.5 404.5t413.5 160.5zM643 207q138 0 224.5 93.5
t86.5 240.5q0 145 -86 237t-225 92q-141 0 -229 -92.5t-88 -238.5q0 -145 88.5 -238.5t228.5 -93.5z" />
    <glyph glyph-name="otilde" unicode="&#xf5;" horiz-adv-x="1282" 
d="M797 1266q-44 0 -83.5 15.5t-63.5 34.5t-55 34.5t-60 15.5q-38 0 -65 -24t-36 -66l-180 76q11 43 29 81t46.5 72.5t71 55t95.5 20.5q43 0 81 -15.5t61.5 -34.5t55 -34.5t62.5 -15.5q38 0 64.5 24.5t35.5 67.5l180 -78q-59 -229 -239 -229zM641 -25q-125 0 -232.5 43
t-182.5 118t-117.5 179.5t-42.5 223.5q0 244 161.5 404.5t413.5 160.5q251 0 413.5 -160.5t162.5 -404.5q0 -159 -73.5 -288t-205.5 -202.5t-297 -73.5zM643 207q138 0 224.5 93.5t86.5 240.5q0 145 -86 237t-225 92q-141 0 -229 -92.5t-88 -238.5q0 -145 88.5 -238.5
t228.5 -93.5z" />
    <glyph glyph-name="odieresis" unicode="&#xf6;" horiz-adv-x="1282" 
d="M414 1255q-69 0 -118.5 48.5t-49.5 121.5q0 72 50.5 118t123.5 46q70 0 118 -48.5t48 -121.5q0 -70 -50 -117t-122 -47zM872 1255q-70 0 -120 48t-50 122q0 72 50.5 118t124.5 46q70 0 118.5 -48.5t48.5 -121.5q0 -70 -50 -117t-122 -47zM641 -25q-125 0 -232.5 43
t-182.5 118t-117.5 179.5t-42.5 223.5q0 244 161.5 404.5t413.5 160.5q251 0 413.5 -160.5t162.5 -404.5q0 -159 -73.5 -288t-205.5 -202.5t-297 -73.5zM643 207q138 0 224.5 93.5t86.5 240.5q0 145 -86 237t-225 92q-141 0 -229 -92.5t-88 -238.5q0 -145 88.5 -238.5
t228.5 -93.5z" />
    <glyph glyph-name="divide" unicode="&#xf7;" horiz-adv-x="1046" 
d="M526 911q-64 0 -107.5 43.5t-43.5 108.5q0 67 43 111.5t108 44.5q66 0 110 -44.5t44 -111.5q0 -65 -44 -108.5t-110 -43.5zM92 545v221h862v-221h-862zM528 84q-64 0 -107.5 43.5t-43.5 108.5q0 67 43 111t108 44q66 0 110 -44t44 -111q0 -65 -44 -108.5t-110 -43.5z" />
    <glyph glyph-name="oslash" unicode="&#xf8;" horiz-adv-x="1323" 
d="M1286 958l-133 -116q84 -136 84 -303q0 -159 -74 -288t-206.5 -202.5t-297.5 -73.5q-212 0 -364 117l-133 -117l-125 140l133 114q-86 138 -86 310q0 244 161.5 404.5t413.5 160.5q216 0 371 -123l135 117zM346 539q0 -69 23 -136l475 414q-74 53 -182 53
q-141 0 -228.5 -92t-87.5 -239zM975 541q0 69 -21 127l-471 -410q76 -51 179 -51q138 0 225.5 94t87.5 240z" />
    <glyph glyph-name="ugrave" unicode="&#xf9;" horiz-adv-x="1226" 
d="M870 1356l-106 -168l-479 278l116 191zM846 1079h260v-1079h-244v119q-60 -66 -146 -105t-186 -39q-200 0 -310.5 120.5t-110.5 314.5v669h260v-637q0 -105 64.5 -170t172.5 -65q107 1 173.5 64.5t66.5 154.5v653z" />
    <glyph glyph-name="uacute" unicode="&#xfa;" horiz-adv-x="1226" 
d="M891 1466l-481 -278l-105 168l467 301zM846 1079h260v-1079h-244v119q-60 -66 -146 -105t-186 -39q-200 0 -310.5 120.5t-110.5 314.5v669h260v-637q0 -105 64.5 -170t172.5 -65q107 1 173.5 64.5t66.5 154.5v653z" />
    <glyph glyph-name="ucircumflex" unicode="&#xfb;" horiz-adv-x="1226" 
d="M596 1450l-158 -213h-229l278 375h226l270 -375h-227zM846 1079h260v-1079h-244v119q-60 -66 -146 -105t-186 -39q-200 0 -310.5 120.5t-110.5 314.5v669h260v-637q0 -105 64.5 -170t172.5 -65q107 1 173.5 64.5t66.5 154.5v653z" />
    <glyph glyph-name="udieresis" unicode="&#xfc;" horiz-adv-x="1226" 
d="M365 1257q-69 0 -118.5 48.5t-49.5 121.5q0 72 50.5 118t123.5 46q70 0 118 -48.5t48 -121.5q0 -70 -50 -117t-122 -47zM823 1257q-70 0 -119 48t-49 122q0 72 49.5 118t122.5 46q70 0 119 -48.5t49 -121.5q0 -70 -50 -117t-122 -47zM846 1079h260v-1079h-244v119
q-60 -66 -146 -105t-186 -39q-200 0 -310.5 120.5t-110.5 314.5v669h260v-637q0 -105 64.5 -170t172.5 -65q107 1 173.5 64.5t66.5 154.5v653z" />
    <glyph glyph-name="yacute" unicode="&#xfd;" horiz-adv-x="1142" 
d="M864 1466l-479 -278l-106 168l469 301zM864 1079h271l-412 -1079l-139 -367h-256l147 367h-82l-381 1079h269l278 -870z" />
    <glyph glyph-name="thorn" unicode="&#xfe;" horiz-adv-x="1318" 
d="M725 1104q152 0 273 -73.5t188 -202.5t67 -289q0 -242 -151.5 -403t-382.5 -161q-208 0 -338 140v-482h-260v1864h260v-539q133 146 344 146zM684 207q132 0 219.5 94.5t87.5 237.5q0 145 -86.5 238t-220.5 93q-138 0 -224.5 -91.5t-86.5 -239.5t86 -240t225 -92z" />
    <glyph glyph-name="ydieresis" unicode="&#xff;" horiz-adv-x="1142" 
d="M340 1257q-70 0 -119 48t-49 122q0 72 49.5 118t122.5 46q70 0 119 -48.5t49 -121.5q0 -70 -50.5 -117t-121.5 -47zM799 1257q-70 0 -120 48t-50 122q0 72 50 118t122 46q71 0 120.5 -48.5t49.5 -121.5q0 -70 -50.5 -117t-121.5 -47zM864 1079h271l-412 -1079l-139 -367
h-256l147 367h-82l-381 1079h269l278 -870z" />
    <glyph glyph-name="Amacron" unicode="&#x100;" horiz-adv-x="1318" 
d="M1010 1841v-213h-705v213h705zM1053 0l-115 338h-555l-115 -338h-260l492 1423h317l494 -1423h-258zM457 553h407l-205 596z" />
    <glyph glyph-name="amacron" unicode="&#x101;" horiz-adv-x="1318" 
d="M991 1530v-209h-655v209h655zM956 1079h242v-1079h-242v145q-128 -170 -356 -170q-231 0 -382.5 161t-151.5 403t150.5 395t383.5 153q232 0 356 -161v153zM635 205q139 0 226 93t87 241q0 149 -86.5 241t-226.5 92q-134 0 -221.5 -94t-87.5 -239t87.5 -239.5
t221.5 -94.5z" />
    <glyph glyph-name="Abreve" unicode="&#x102;" horiz-adv-x="1318" 
d="M657 1563q-160 0 -256 97t-96 247h213q0 -65 38 -108.5t101 -43.5q64 0 102 43.5t38 108.5h215q0 -151 -97 -247.5t-258 -96.5zM1053 0l-115 338h-555l-115 -338h-260l492 1423h317l494 -1423h-258zM457 553h407l-205 596z" />
    <glyph glyph-name="abreve" unicode="&#x103;" horiz-adv-x="1318" 
d="M666 1237q-166 0 -263.5 102.5t-97.5 272.5h207q0 -86 42.5 -133t111.5 -47q68 0 110.5 47.5t42.5 132.5h205q0 -170 -96.5 -272.5t-261.5 -102.5zM956 1079h242v-1079h-242v145q-128 -170 -356 -170q-231 0 -382.5 161t-151.5 403t150.5 395t383.5 153q232 0 356 -161
v153zM635 205q139 0 226 93t87 241q0 149 -86.5 241t-226.5 92q-134 0 -221.5 -94t-87.5 -239t87.5 -239.5t221.5 -94.5z" />
    <glyph glyph-name="Aogonek" unicode="&#x104;" horiz-adv-x="1318" 
d="M1294 -276l95 -123q-33 -37 -89 -58.5t-124 -21.5q-105 0 -169.5 57t-64.5 150q0 133 176 272h-65l-115 338h-555l-115 -338h-260l492 1423h317l494 -1423l-80 -78q-52 -54 -72 -87.5t-20 -67.5q0 -35 21 -56.5t54 -21.5q54 0 80 35zM457 553h407l-205 596z" />
    <glyph glyph-name="aogonek" unicode="&#x105;" horiz-adv-x="1318" 
d="M1184 -276l94 -123q-34 -37 -90.5 -58.5t-124.5 -21.5q-104 0 -169 57.5t-65 149.5q0 132 177 272h-50v145q-128 -170 -356 -170q-231 0 -382.5 161t-151.5 403t150.5 395t383.5 153q232 0 356 -161v153h242v-1079l-78 -78q-53 -53 -72.5 -86.5t-19.5 -68.5t21 -56.5
t55 -21.5q50 0 80 35zM635 205q139 0 226 93t87 241q0 149 -86.5 241t-226.5 92q-134 0 -221.5 -94t-87.5 -239t87.5 -239.5t221.5 -94.5z" />
    <glyph glyph-name="Cacute" unicode="&#x106;" horiz-adv-x="1499" 
d="M551 1540l-59 189l571 204l65 -215zM801 -25q-153 0 -287.5 55t-230.5 152t-151.5 234t-55.5 295q0 212 94.5 380.5t260 262.5t370.5 94q130 0 242 -37t192.5 -101.5t137 -146t87.5 -176.5l-252 -100q-44 148 -148 230.5t-265 82.5q-198 0 -325.5 -135.5t-127.5 -353.5
q0 -217 128 -352.5t327 -135.5q161 0 264 82t147 232l252 -101q-32 -97 -88.5 -179t-137.5 -146t-192 -100t-241 -36z" />
    <glyph glyph-name="cacute" unicode="&#x107;" horiz-adv-x="1177" 
d="M442 1188l-104 168l467 301l119 -191zM629 -25q-159 0 -288 73.5t-202 202.5t-73 286q0 158 72 287t201.5 203.5t289.5 74.5q101 0 190.5 -30.5t152.5 -81t105.5 -111t61.5 -125.5l-234 -92q-27 96 -98.5 152t-173.5 56q-132 0 -219.5 -91.5t-87.5 -239.5t88 -240
t221 -92q102 0 175.5 56.5t100.5 150.5l234 -95q-19 -64 -62 -123.5t-106 -109.5t-154 -80.5t-194 -30.5z" />
    <glyph glyph-name="Cdotaccent" unicode="&#x10a;" horiz-adv-x="1499" 
d="M788 1563q-72 0 -122 49t-50 125q0 74 51 121t126 47q73 0 121.5 -49t48.5 -125q0 -73 -50.5 -120.5t-124.5 -47.5zM801 -25q-153 0 -287.5 55t-230.5 152t-151.5 234t-55.5 295q0 212 94.5 380.5t260 262.5t370.5 94q130 0 242 -37t192.5 -101.5t137 -146t87.5 -176.5
l-252 -100q-44 148 -148 230.5t-265 82.5q-198 0 -325.5 -135.5t-127.5 -353.5q0 -217 128 -352.5t327 -135.5q161 0 264 82t147 232l252 -101q-32 -97 -88.5 -179t-137.5 -146t-192 -100t-241 -36z" />
    <glyph glyph-name="cdotaccent" unicode="&#x10b;" horiz-adv-x="1177" 
d="M629 1251q-74 0 -125 49t-51 123q0 76 51 126t125 50q76 0 127 -50t51 -126q0 -74 -51 -123t-127 -49zM629 -25q-159 0 -288 73.5t-202 202.5t-73 286q0 158 72 287t201.5 203.5t289.5 74.5q101 0 190.5 -30.5t152.5 -81t105.5 -111t61.5 -125.5l-234 -92
q-27 96 -98.5 152t-173.5 56q-132 0 -219.5 -91.5t-87.5 -239.5t88 -240t221 -92q102 0 175.5 56.5t100.5 150.5l234 -95q-19 -64 -62 -123.5t-106 -109.5t-154 -80.5t-194 -30.5z" />
    <glyph glyph-name="Ccaron" unicode="&#x10c;" horiz-adv-x="1499" 
d="M899 1563h-213l-291 344h236l157 -176l160 176h236zM797 223q161 0 264 82t147 232l252 -101q-32 -97 -88.5 -179t-137.5 -146t-192 -100t-241 -36q-153 0 -287.5 55t-230.5 152t-151.5 234t-55.5 295q0 212 94.5 380.5t260 262.5t370.5 94q130 0 242 -37t192.5 -101.5
t137 -146t87.5 -176.5l-252 -100q-44 148 -148 230.5t-265 82.5q-198 0 -325.5 -135.5t-127.5 -353.5q0 -217 128 -352.5t327 -135.5z" />
    <glyph glyph-name="ccaron" unicode="&#x10d;" horiz-adv-x="1177" 
d="M743 1237h-223l-278 375h229l158 -213l159 213h228zM911 414l234 -95q-19 -64 -62 -123.5t-106 -109.5t-154 -80.5t-194 -30.5q-159 0 -288 73.5t-202 202.5t-73 286q0 158 72 287t201.5 203.5t289.5 74.5q101 0 190.5 -30.5t152.5 -81t105.5 -111t61.5 -125.5l-234 -92
q-27 96 -98.5 152t-173.5 56q-132 0 -219.5 -91.5t-87.5 -239.5t88 -240t221 -92q102 0 175.5 56.5t100.5 150.5z" />
    <glyph glyph-name="Dcaron" unicode="&#x10e;" horiz-adv-x="1478" 
d="M803 1561h-213l-291 344h236l157 -176l160 176h235zM684 1423q209 0 371.5 -86.5t254 -248.5t91.5 -375t-91.5 -375.5t-254 -250t-371.5 -87.5h-541v1423h541zM676 233q206 0 332.5 127.5t126.5 348.5q0 224 -126.5 352.5t-332.5 128.5h-270v-957h270z" />
    <glyph glyph-name="dcaron" unicode="&#x10f;" horiz-adv-x="1486" 
d="M1362 1499h184l-57 -498h-168zM938 961v536h260v-1497h-242v137q-133 -162 -356 -162q-231 0 -382.5 161t-151.5 403q0 160 67 289t188 202.5t273 73.5q211 0 344 -143zM635 205q139 0 226 93t87 241q0 149 -86.5 241t-226.5 92q-134 0 -221.5 -94t-87.5 -239
t87.5 -239.5t221.5 -94.5z" />
    <glyph glyph-name="Dcroat" unicode="&#x110;" horiz-adv-x="1499" 
d="M707 1423q156 0 288 -50.5t226 -142t147 -224.5t53 -293q0 -213 -91 -375.5t-253 -250t-370 -87.5h-543v639h-129v180h129v604h543zM698 233q204 0 330.5 127.5t126.5 348.5q0 224 -126 352.5t-331 128.5h-272v-371h313v-180h-313v-406h272z" />
    <glyph glyph-name="dcroat" unicode="&#x111;" horiz-adv-x="1318" 
d="M1335 1374v-182h-137v-1192h-242v137q-133 -162 -356 -162q-231 0 -382.5 161t-151.5 403q0 160 67 289t188 202.5t273 73.5q211 0 344 -143v231h-307v182h307v123h260v-123h137zM635 205q139 0 226 93t87 241q0 149 -86.5 241t-226.5 92q-134 0 -221.5 -94t-87.5 -239
t87.5 -239.5t221.5 -94.5z" />
    <glyph glyph-name="Emacron" unicode="&#x112;" horiz-adv-x="1163" 
d="M961 1841v-213h-705v213h705zM406 227h681v-227h-944v1423h932v-227h-669v-354h598v-228h-598v-387z" />
    <glyph glyph-name="emacron" unicode="&#x113;" horiz-adv-x="1216" 
d="M944 1528v-209h-653v209h653zM315 457q26 -121 113 -190.5t209 -69.5q106 0 171 38t103 113l205 -131q-150 -244 -487 -244q-169 0 -299.5 74.5t-200.5 203t-70 288.5q0 115 43.5 220t117 180.5t176 120t216.5 44.5q164 0 291 -79t191.5 -201.5t64.5 -262.5
q0 -69 -6 -104h-838zM315 639h594q-22 121 -99.5 190.5t-191.5 69.5q-116 0 -197.5 -68.5t-105.5 -191.5z" />
    <glyph glyph-name="Edotaccent" unicode="&#x116;" horiz-adv-x="1163" 
d="M608 1563q-72 0 -122 49t-50 125q0 74 50.5 121t125.5 47q73 0 121.5 -49t48.5 -125q0 -73 -50 -120.5t-124 -47.5zM406 227h681v-227h-944v1423h932v-227h-669v-354h598v-228h-598v-387z" />
    <glyph glyph-name="edotaccent" unicode="&#x117;" horiz-adv-x="1216" 
d="M618 1249q-76 0 -127 49t-51 123q0 76 51 126t127 50t127.5 -50t51.5 -126q0 -74 -51.5 -123t-127.5 -49zM315 457q26 -121 113 -190.5t209 -69.5q106 0 171 38t103 113l205 -131q-150 -244 -487 -244q-169 0 -299.5 74.5t-200.5 203t-70 288.5q0 115 43.5 220t117 180.5
t176 120t216.5 44.5q164 0 291 -79t191.5 -201.5t64.5 -262.5q0 -69 -6 -104h-838zM315 639h594q-22 121 -99.5 190.5t-191.5 69.5q-116 0 -197.5 -68.5t-105.5 -191.5z" />
    <glyph glyph-name="Eogonek" unicode="&#x118;" horiz-adv-x="1163" 
d="M1073 -276l94 -123q-33 -37 -89 -58.5t-126 -21.5q-104 0 -167.5 57t-63.5 150q0 135 176 272h-754v1423h932v-227h-669v-354h598v-228h-598v-387h681v-227l-77 -78q-52 -54 -72 -87.5t-20 -67.5q0 -35 20.5 -56.5t54.5 -21.5q50 0 80 35z" />
    <glyph glyph-name="eogonek" unicode="&#x119;" horiz-adv-x="1216" 
d="M315 457q26 -121 113 -190.5t209 -69.5q106 0 171 38t103 113l205 -131q-90 -145 -237 -201l-68 -65q-52 -53 -72 -87.5t-20 -68.5q0 -35 21 -56.5t55 -21.5q49 0 79 35l95 -123q-33 -37 -89 -58.5t-126 -21.5q-104 0 -168 57t-64 148q0 109 113 219h-6
q-169 0 -299.5 74.5t-200.5 203t-70 288.5q0 115 43.5 220t117 180.5t176 120t216.5 44.5q164 0 291 -79t191.5 -201.5t64.5 -262.5q0 -69 -6 -104h-838zM315 639h594q-22 121 -99.5 190.5t-191.5 69.5q-116 0 -197.5 -68.5t-105.5 -191.5z" />
    <glyph glyph-name="Ecaron" unicode="&#x11a;" horiz-adv-x="1163" 
d="M719 1563h-213l-291 344h236l157 -176l160 176h236zM406 227h681v-227h-944v1423h932v-227h-669v-354h598v-228h-598v-387z" />
    <glyph glyph-name="ecaron" unicode="&#x11b;" horiz-adv-x="1216" 
d="M733 1235h-223l-279 375h230l157 -213l158 213h230zM315 457q26 -121 113 -190.5t209 -69.5q106 0 171 38t103 113l205 -131q-150 -244 -487 -244q-169 0 -299.5 74.5t-200.5 203t-70 288.5q0 115 43.5 220t117 180.5t176 120t216.5 44.5q164 0 291 -79t191.5 -201.5
t64.5 -262.5q0 -69 -6 -104h-838zM315 639h594q-22 121 -99.5 190.5t-191.5 69.5q-116 0 -197.5 -68.5t-105.5 -191.5z" />
    <glyph glyph-name="Gbreve" unicode="&#x11e;" horiz-adv-x="1583" 
d="M797 1563q-160 0 -256.5 97t-96.5 247h215q0 -65 37.5 -108.5t100.5 -43.5q64 0 101.5 43.5t37.5 108.5h215q0 -151 -96.5 -247.5t-257.5 -96.5zM1520 756q0 -181 -55 -329.5t-151.5 -247t-227 -151.5t-281.5 -53q-155 0 -290.5 55.5t-231 152.5t-150.5 234t-55 294
q0 211 94 379.5t259.5 263t371.5 94.5q167 0 303.5 -60t222 -155t131.5 -217l-250 -105q-48 138 -153 213.5t-258 75.5q-203 0 -329 -136t-126 -357q0 -224 131 -360t352 -136q171 0 284.5 87t154.5 259h-469v199h723z" />
    <glyph glyph-name="gbreve" unicode="&#x11f;" horiz-adv-x="1316" 
d="M645 1237q-165 0 -261.5 102.5t-96.5 272.5h205q0 -86 42 -133t111 -47t111.5 47t42.5 133h205q0 -170 -97 -272.5t-262 -102.5zM956 1079h242v-923q0 -248 -154.5 -397.5t-425.5 -149.5q-212 0 -345 84t-189 235l223 86q35 -92 116.5 -140t197.5 -48q156 0 245.5 83
t89.5 224v62q-130 -166 -356 -166q-152 0 -274.5 71t-191 193t-68.5 270t68.5 272t191.5 196.5t274 72.5q226 0 356 -166v141zM631 229q136 0 222.5 91t86.5 231t-85.5 230.5t-219.5 90.5q-133 0 -221 -92t-88 -229t87.5 -229.5t217.5 -92.5z" />
    <glyph glyph-name="Gdotaccent" unicode="&#x120;" horiz-adv-x="1583" 
d="M797 1563q-72 0 -122 49t-50 125q0 74 50.5 121t125.5 47q73 0 122.5 -49t49.5 -125q0 -73 -50.5 -120.5t-125.5 -47.5zM1520 756q0 -181 -55 -329.5t-151.5 -247t-227 -151.5t-281.5 -53q-155 0 -290.5 55.5t-231 152.5t-150.5 234t-55 294q0 211 94 379.5t259.5 263
t371.5 94.5q167 0 303.5 -60t222 -155t131.5 -217l-250 -105q-48 138 -153 213.5t-258 75.5q-203 0 -329 -136t-126 -357q0 -224 131 -360t352 -136q171 0 284.5 87t154.5 259h-469v199h723z" />
    <glyph glyph-name="gdotaccent" unicode="&#x121;" horiz-adv-x="1316" 
d="M645 1251q-76 0 -127 49t-51 123q0 76 51 126t127 50t127 -50t51 -126q0 -74 -51 -123t-127 -49zM956 1079h242v-923q0 -248 -154.5 -397.5t-425.5 -149.5q-212 0 -345 84t-189 235l223 86q35 -92 116.5 -140t197.5 -48q156 0 245.5 83t89.5 224v62q-130 -166 -356 -166
q-152 0 -274.5 71t-191 193t-68.5 270t68.5 272t191.5 196.5t274 72.5q226 0 356 -166v141zM631 229q136 0 222.5 91t86.5 231t-85.5 230.5t-219.5 90.5q-133 0 -221 -92t-88 -229t87.5 -229.5t217.5 -92.5z" />
    <glyph glyph-name="uni0122" unicode="&#x122;" horiz-adv-x="1583" 
d="M1520 756q0 -181 -55 -329.5t-151.5 -247t-227 -151.5t-281.5 -53q-155 0 -290.5 55.5t-231 152.5t-150.5 234t-55 294q0 211 94 379.5t259.5 263t371.5 94.5q167 0 303.5 -60t222 -155t131.5 -217l-250 -105q-48 138 -153 213.5t-258 75.5q-203 0 -329 -136t-126 -357
q0 -224 131 -360t352 -136q171 0 284.5 87t154.5 259h-469v199h723zM797 -98q59 0 98 -39.5t39 -100.5q0 -45 -17.5 -89.5t-62.5 -112.5l-72 -121l-120 47l71 127l12 20q-41 15 -65.5 50.5t-24.5 83.5q0 59 40.5 97t101.5 38z" />
    <glyph glyph-name="uni0123" unicode="&#x123;" horiz-adv-x="1316" 
d="M641 1219q-61 0 -100 38t-39 99q0 45 18 89t62 114l73 120l121 -45l-74 -129q-7 -10 -10 -20q40 -16 65 -50.5t25 -82.5q0 -59 -40.5 -96t-100.5 -37zM956 1079h242v-923q0 -248 -154.5 -397.5t-425.5 -149.5q-212 0 -345 84t-189 235l223 86q35 -92 116.5 -140
t197.5 -48q156 0 245.5 83t89.5 224v62q-130 -166 -356 -166q-152 0 -274.5 71t-191 193t-68.5 270t68.5 272t191.5 196.5t274 72.5q226 0 356 -166v141zM631 229q136 0 222.5 91t86.5 231t-85.5 230.5t-219.5 90.5q-133 0 -221 -92t-88 -229t87.5 -229.5t217.5 -92.5z" />
    <glyph glyph-name="Hbar" unicode="&#x126;" horiz-adv-x="1482" 
d="M1434 1247v-205h-129v-1042h-263v612h-602v-612h-262v1042h-129v205h129v176h262v-176h602v176h263v-176h129zM1042 846v196h-602v-196h602z" />
    <glyph glyph-name="hbar" unicode="&#x127;" horiz-adv-x="1245" 
d="M707 1104q198 0 314 -118t116 -312v-674h-263v625q0 116 -66 181.5t-177 65.5q-105 -1 -176.5 -66t-73.5 -157v-649h-260v1192h-137v182h137v123h260v-123h307v-182h-307v-215q124 127 326 127z" />
    <glyph glyph-name="Itilde" unicode="&#x128;" horiz-adv-x="548" 
d="M414 1565q-44 0 -82 15.5t-60.5 34.5t-52 34.5t-59.5 15.5q-79 0 -99 -90l-170 76q22 91 85 160t161 69q43 0 81 -15.5t61.5 -34.5t53.5 -34.5t58 -15.5q75 0 98 92l170 -78q-23 -96 -85 -162.5t-160 -66.5zM143 0v1423h263v-1423h-263z" />
    <glyph glyph-name="itilde" unicode="&#x129;" horiz-adv-x="501" 
d="M375 1266q-37 0 -70 16t-53 35t-46 35t-50 16q-32 0 -54 -25t-30 -67l-150 76q17 95 67.5 163t133.5 68q36 0 68 -16t51.5 -35t46.5 -35t53 -16q30 0 52 25t30 67l151 -76q-51 -231 -200 -231zM121 0v1079h260v-1079h-260z" />
    <glyph glyph-name="Imacron" unicode="&#x12a;" horiz-adv-x="548" 
d="M16 1628v213h525v-213h-525zM143 0v1423h263v-1423h-263z" />
    <glyph glyph-name="imacron" unicode="&#x12b;" horiz-adv-x="501" 
d="M-10 1321v207h522v-207h-522zM121 0v1079h260v-1079h-260z" />
    <glyph glyph-name="Iogonek" unicode="&#x12e;" horiz-adv-x="548" 
d="M389 -276l94 -123q-33 -37 -89 -58.5t-124 -21.5q-105 0 -169 57t-64 150q0 133 176 272h-70v1423h263v-1423l-80 -78q-53 -54 -73 -87.5t-20 -67.5q0 -35 21.5 -56.5t54.5 -21.5q54 0 80 35z" />
    <glyph glyph-name="iogonek" unicode="&#x12f;" horiz-adv-x="503" 
d="M252 1251q-76 0 -127 49t-51 123q0 75 51.5 125.5t126.5 50.5t126.5 -50.5t51.5 -125.5q0 -74 -51 -123t-127 -49zM360 -276l95 -123q-33 -37 -89 -58.5t-124 -21.5q-105 0 -169.5 57t-64.5 150q0 133 176 272h-63v1079h260v-1079h-4l-78 -78q-53 -53 -73.5 -87
t-20.5 -68q0 -35 21.5 -56.5t54.5 -21.5q53 0 79 35z" />
    <glyph glyph-name="Idotaccent" unicode="&#x130;" horiz-adv-x="548" 
d="M274 1563q-72 0 -123 49t-51 125q0 74 51 121t125 47q73 0 123 -49t50 -125q0 -73 -50.5 -120.5t-124.5 -47.5zM143 0v1423h263v-1423h-263z" />
    <glyph glyph-name="dotlessi" unicode="&#x131;" horiz-adv-x="501" 
d="M121 0v1079h260v-1079h-260z" />
    <glyph glyph-name="IJ" unicode="&#x132;" horiz-adv-x="1247" 
d="M143 0v1423h263v-1423h-263zM588 0v233h86q86 0 132 51t46 144v995h262v-999q0 -198 -109.5 -311t-310.5 -113h-106z" />
    <glyph glyph-name="ij" unicode="&#x133;" horiz-adv-x="1085" 
d="M252 1251q-76 0 -127 49t-51 123q0 75 51.5 125.5t126.5 50.5t126.5 -50.5t51.5 -125.5q0 -74 -51 -123t-127 -49zM840 1251q-76 0 -127 49t-51 123q0 75 51.5 125.5t126.5 50.5t126.5 -50.5t51.5 -125.5q0 -74 -51 -123t-127 -49zM121 0v1079h260v-1079h-260zM494 -377
l-2 225h22q85 0 136.5 56t51.5 149v1026h263v-1022q0 -199 -117.5 -316.5t-302.5 -117.5h-51z" />
    <glyph glyph-name="uni0136" unicode="&#x136;" horiz-adv-x="1300" 
d="M670 737l643 -737h-303l-604 670v-670h-263v1423h263v-628l571 628h303zM705 -98q59 0 98 -39.5t39 -100.5q0 -44 -18 -88t-62 -114l-72 -121l-121 47l72 127q7 10 10 20q-39 15 -63.5 51.5t-24.5 82.5q0 59 40.5 97t101.5 38z" />
    <glyph glyph-name="uni0137" unicode="&#x137;" horiz-adv-x="1089" 
d="M631 582l471 -582h-285l-436 508v-508h-260v1497h260v-854l418 436h295zM565 -98q59 0 98 -39.5t39 -100.5q0 -46 -17.5 -90t-61.5 -112l-72 -121l-121 47l74 127q7 10 10 20q-40 16 -65 51t-25 83q0 59 40 97t101 38z" />
    <glyph glyph-name="kgreenlandic" unicode="&#x138;" horiz-adv-x="1087" 
d="M1102 0h-285l-436 479v-479h-260v1079h260v-465l418 465h297l-471 -520z" />
    <glyph glyph-name="Lacute" unicode="&#x139;" horiz-adv-x="1103" 
d="M549 1933l65 -215l-577 -178l-60 189zM406 233h671v-233h-934v1423h263v-1190z" />
    <glyph glyph-name="lacute" unicode="&#x13a;" horiz-adv-x="501" 
d="M12 1614l-57 188l569 205l66 -215zM121 0v1497h260v-1497h-260z" />
    <glyph glyph-name="uni013B" unicode="&#x13b;" horiz-adv-x="1103" 
d="M406 233h671v-233h-934v1423h263v-1190zM612 -98q59 0 98.5 -39.5t39.5 -100.5q0 -44 -18 -88t-62 -114l-72 -121l-121 47l72 127q7 10 10 20q-40 16 -64 51t-24 83q0 59 40 97t101 38z" />
    <glyph glyph-name="uni013C" unicode="&#x13c;" horiz-adv-x="501" 
d="M381 1497v-1497h-260v1497h260zM248 -98q60 0 99.5 -39.5t39.5 -100.5q0 -44 -18 -88t-62 -114l-74 -121l-120 47l73 127q9 13 11 20q-40 16 -64 51t-24 83q0 59 40 97t99 38z" />
    <glyph glyph-name="Lcaron" unicode="&#x13d;" horiz-adv-x="1112" 
d="M956 1446l-57 -498h-170l41 498h186zM406 233h671v-233h-934v1423h263v-1190z" />
    <glyph glyph-name="lcaron" unicode="&#x13e;" horiz-adv-x="669" 
d="M504 1001l41 498h186l-59 -498h-168zM121 0v1497h260v-1497h-260z" />
    <glyph glyph-name="Ldot" unicode="&#x13f;" horiz-adv-x="1128" 
d="M406 233h671v-233h-934v1423h263v-1190zM844 688q-66 0 -110 44.5t-44 109.5q0 66 44 109.5t110 43.5t109.5 -43.5t43.5 -109.5q0 -65 -43.5 -109.5t-109.5 -44.5z" />
    <glyph glyph-name="ldot" unicode="&#x140;" horiz-adv-x="751" 
d="M121 0v1497h260v-1497h-260zM629 608q-65 0 -108.5 44t-43.5 110t43.5 109.5t108.5 43.5q66 0 109.5 -43.5t43.5 -109.5t-43.5 -110t-109.5 -44z" />
    <glyph glyph-name="Lslash" unicode="&#x141;" horiz-adv-x="1206" 
d="M508 233h672v-233h-934v602l-158 -59l-55 166l213 79v635h262v-538l188 69l54 -166l-242 -90v-465z" />
    <glyph glyph-name="lslash" unicode="&#x142;" horiz-adv-x="729" 
d="M727 842l-231 -129v-713h-260v565l-130 -71l-98 165l228 127v711h260v-565l133 74z" />
    <glyph glyph-name="Nacute" unicode="&#x143;" horiz-adv-x="1413" 
d="M1022 1718l-576 -178l-59 189l571 204zM1010 1423h260v-1423h-217l-650 973v-973h-260v1423h217l650 -974v974z" />
    <glyph glyph-name="nacute" unicode="&#x144;" horiz-adv-x="1245" 
d="M934 1464l-479 -278l-107 168l469 301zM707 1104q198 0 314 -118t116 -312v-674h-263v625q0 116 -66 181.5t-177 65.5q-105 -1 -176.5 -66t-73.5 -157v-649h-260v1079h246v-118q58 66 146 104.5t194 38.5z" />
    <glyph glyph-name="uni0145" unicode="&#x145;" horiz-adv-x="1413" 
d="M1010 1423h260v-1423h-217l-650 973v-973h-260v1423h217l650 -974v974zM725 -98q59 0 98 -39.5t39 -100.5q0 -45 -17.5 -89.5t-62.5 -112.5l-71 -121l-121 47l74 127q7 10 10 20q-40 14 -65 50t-25 84q0 59 40 97t101 38z" />
    <glyph glyph-name="uni0146" unicode="&#x146;" horiz-adv-x="1245" 
d="M707 1104q198 0 314 -118t116 -312v-674h-263v625q0 116 -66 181.5t-177 65.5q-105 -1 -176.5 -66t-73.5 -157v-649h-260v1079h246v-118q58 66 146 104.5t194 38.5zM621 -98q59 0 98 -39.5t39 -100.5q0 -45 -17.5 -89.5t-62.5 -112.5l-72 -121l-121 47l74 127q7 10 10 20
q-40 16 -65 51t-25 83q0 59 40.5 97t101.5 38z" />
    <glyph glyph-name="Ncaron" unicode="&#x147;" horiz-adv-x="1413" 
d="M793 1563h-211l-291 344h235l158 -176l160 176h233zM1010 1423h260v-1423h-217l-650 973v-973h-260v1423h217l650 -974v974z" />
    <glyph glyph-name="ncaron" unicode="&#x148;" horiz-adv-x="1245" 
d="M756 1235h-224l-278 375h229l158 -213l158 213h229zM707 1104q198 0 314 -118t116 -312v-674h-263v625q0 116 -66 181.5t-177 65.5q-105 -1 -176.5 -66t-73.5 -157v-649h-260v1079h246v-118q58 66 146 104.5t194 38.5z" />
    <glyph glyph-name="napostrophe" unicode="&#x149;" horiz-adv-x="1470" 
d="M35 1051l41 497h184l-57 -497h-168zM932 1104q198 0 314 -118t116 -312v-674h-262v625q0 116 -66 181.5t-178 65.5q-105 -1 -176.5 -66t-73.5 -157v-649h-260v1079h246v-118q58 66 146 104.5t194 38.5z" />
    <glyph glyph-name="Eng" unicode="&#x14a;" horiz-adv-x="1413" 
d="M1010 1423h260v-1441q0 -197 -107 -310.5t-299 -113.5h-47v233h51q86 0 133.5 51.5t47.5 143.5v20l-646 967v-973h-260v1423h217l650 -974v974z" />
    <glyph glyph-name="eng" unicode="&#x14b;" horiz-adv-x="1245" 
d="M707 1104q198 0 314 -118t116 -312v-629q0 -190 -117 -306t-297 -116h-41l-2 225h22q78 0 125 53t47 142v582q0 116 -66 181.5t-177 65.5q-105 -1 -176.5 -66t-73.5 -157v-649h-260v1079h246v-118q58 66 146 104.5t194 38.5z" />
    <glyph glyph-name="Omacron" unicode="&#x14c;" horiz-adv-x="1617" 
d="M457 1628v213h704v-213h-704zM809 -25q-153 0 -289 56.5t-233.5 153.5t-154 234t-56.5 292q0 208 96.5 377t264.5 264.5t372 95.5q205 0 373.5 -95.5t265 -264.5t96.5 -377q0 -155 -56.5 -292t-154.5 -234t-234 -153.5t-290 -56.5zM809 223q207 0 338 137.5t131 352.5
t-129.5 351t-339.5 136q-208 0 -337.5 -136t-129.5 -351q0 -216 130 -353t337 -137z" />
    <glyph glyph-name="omacron" unicode="&#x14d;" horiz-adv-x="1282" 
d="M317 1319v209h656v-209h-656zM641 -25q-125 0 -232.5 43t-182.5 118t-117.5 179.5t-42.5 223.5q0 244 161.5 404.5t413.5 160.5q251 0 413.5 -160.5t162.5 -404.5q0 -159 -73.5 -288t-205.5 -202.5t-297 -73.5zM643 207q138 0 224.5 93.5t86.5 240.5q0 145 -86 237
t-225 92q-141 0 -229 -92.5t-88 -238.5q0 -145 88.5 -238.5t228.5 -93.5z" />
    <glyph glyph-name="Ohungarumlaut" unicode="&#x150;" horiz-adv-x="1617" 
d="M561 1513l-160 115l254 375l183 -131zM1016 1513l-160 115l254 375l180 -131zM809 -25q-153 0 -289 56.5t-233.5 153.5t-154 234t-56.5 292q0 208 96.5 377t264.5 264.5t372 95.5q205 0 373.5 -95.5t265 -264.5t96.5 -377q0 -155 -56.5 -292t-154.5 -234t-234 -153.5
t-290 -56.5zM809 223q207 0 338 137.5t131 352.5t-129.5 351t-339.5 136q-208 0 -337.5 -136t-129.5 -351q0 -216 130 -353t337 -137z" />
    <glyph glyph-name="ohungarumlaut" unicode="&#x151;" horiz-adv-x="1282" 
d="M412 1186l-160 117l254 356l180 -131zM858 1186l-162 117l254 356l183 -131zM641 -25q-125 0 -232.5 43t-182.5 118t-117.5 179.5t-42.5 223.5q0 244 161.5 404.5t413.5 160.5q251 0 413.5 -160.5t162.5 -404.5q0 -159 -73.5 -288t-205.5 -202.5t-297 -73.5zM643 207
q138 0 224.5 93.5t86.5 240.5q0 145 -86 237t-225 92q-141 0 -229 -92.5t-88 -238.5q0 -145 88.5 -238.5t228.5 -93.5z" />
    <glyph glyph-name="OE" unicode="&#x152;" horiz-adv-x="2295" 
d="M1540 227h682v-227h-944v156q-187 -181 -469 -181q-153 0 -289 56.5t-233.5 153.5t-154 234t-56.5 292q0 208 96.5 377t264.5 264.5t372 95.5q284 0 469 -182v157h932v-227h-670v-354h596v-228h-596v-387zM809 223q207 0 338 137.5t131 352.5t-129.5 351t-339.5 136
q-208 0 -337.5 -136t-129.5 -351q0 -216 130 -353t337 -137z" />
    <glyph glyph-name="oe" unicode="&#x153;" horiz-adv-x="2113" 
d="M1212 457q26 -121 113 -190.5t209 -69.5q107 0 172 38t102 113l205 -131q-150 -244 -485 -244q-140 0 -254.5 51t-190.5 144q-78 -91 -192 -142t-250 -51q-125 0 -232.5 43t-182.5 118t-117.5 179.5t-42.5 223.5q0 244 161.5 404.5t413.5 160.5q137 0 252.5 -52.5
t193.5 -146.5q78 94 187.5 146.5t234.5 52.5q164 0 291 -79t191.5 -201.5t64.5 -262.5q0 -58 -4 -104h-840zM1212 639h594q-22 122 -98 191t-190 69q-117 0 -199.5 -68.5t-106.5 -191.5zM643 207q138 0 224.5 93.5t86.5 240.5q0 145 -86 237t-225 92q-141 0 -229 -92.5
t-88 -238.5q0 -145 88.5 -238.5t228.5 -93.5z" />
    <glyph glyph-name="Racute" unicode="&#x154;" horiz-adv-x="1267" 
d="M958 1718l-577 -178l-59 189l571 204zM920 0l-435 600h-82v-600h-260v1423h564q222 0 354.5 -114.5t132.5 -296.5q0 -169 -116.5 -282t-311.5 -128l446 -602h-292zM403 1194v-408h297q112 0 174 55.5t62 149.5q0 93 -62 148t-174 55h-297z" />
    <glyph glyph-name="racute" unicode="&#x155;" horiz-adv-x="718" 
d="M686 1464l-479 -278l-107 168l469 301zM367 958q58 67 140.5 106.5t180.5 39.5v-244q-140 0 -223.5 -68t-83.5 -178v-614h-260v1079h246v-121z" />
    <glyph glyph-name="uni0156" unicode="&#x156;" horiz-adv-x="1267" 
d="M766 602l446 -602h-292l-435 600h-82v-600h-260v1423h564q222 0 354.5 -114.5t132.5 -296.5q0 -169 -116.5 -282t-311.5 -128zM403 1194v-408h297q112 0 174 55.5t62 149.5q0 93 -62 148t-174 55h-297zM631 -98q59 0 98 -39.5t39 -100.5q0 -44 -18 -88t-62 -114l-72 -121
l-120 47l71 127q9 13 11 20q-39 15 -64 51.5t-25 82.5q0 59 40.5 97t101.5 38z" />
    <glyph glyph-name="uni0157" unicode="&#x157;" horiz-adv-x="718" 
d="M367 958q58 67 140.5 106.5t180.5 39.5v-244q-140 0 -223.5 -68t-83.5 -178v-614h-260v1079h246v-121zM250 -98q59 0 98 -39.5t39 -100.5q0 -45 -17.5 -89.5t-62.5 -112.5l-71 -121l-121 47l73 127q9 13 11 20q-40 16 -65 51t-25 83q0 59 40 97t101 38z" />
    <glyph glyph-name="Rcaron" unicode="&#x158;" horiz-adv-x="1267" 
d="M729 1563h-213l-291 344h236l157 -176l160 176h236zM920 0l-435 600h-82v-600h-260v1423h564q222 0 354.5 -114.5t132.5 -296.5q0 -169 -116.5 -282t-311.5 -128l446 -602h-292zM403 1194v-408h297q112 0 174 55.5t62 149.5q0 93 -62 148t-174 55h-297z" />
    <glyph glyph-name="rcaron" unicode="&#x159;" horiz-adv-x="718" 
d="M508 1235h-223l-279 375h230l157 -213l158 213h229zM367 958q58 67 140.5 106.5t180.5 39.5v-244q-140 0 -223.5 -68t-83.5 -178v-614h-260v1079h246v-121z" />
    <glyph glyph-name="Sacute" unicode="&#x15a;" horiz-adv-x="1177" 
d="M358 1540l-59 189l571 204l66 -215zM580 -23q-201 0 -340.5 93t-190.5 264l248 94q29 -109 108.5 -167t198.5 -58q110 0 173 46t63 128q0 50 -25 89.5t-67 65.5t-96.5 48t-115 42t-120.5 43t-114.5 56t-96.5 75t-67 106.5t-25 144.5q0 180 129 289.5t354 109.5
q190 0 317 -85.5t168 -230.5l-247 -94q-54 187 -250 187q-100 0 -154.5 -43t-54.5 -113q0 -48 25 -84.5t67 -61t97 -45t115.5 -41t120.5 -44.5t115 -59t97 -80t67 -114t25 -155q0 -183 -141.5 -294.5t-382.5 -111.5z" />
    <glyph glyph-name="sacute" unicode="&#x15b;" horiz-adv-x="1001" 
d="M326 1186l-105 168l469 301l117 -191zM502 -25q-177 0 -298 71t-165 206l227 88q24 -76 86.5 -118t159.5 -42q79 0 124.5 31.5t45.5 87.5q0 38 -25.5 67t-67 46.5t-94.5 36t-109 34t-109 41.5t-94.5 57.5t-67 84t-25.5 118.5q0 147 113.5 233.5t304.5 86.5q157 0 264 -62
t141 -172l-227 -88q-43 121 -182 121q-71 0 -109.5 -28t-38.5 -78q0 -35 25.5 -61t67 -41.5t94.5 -32t109 -31t109 -41t94.5 -59.5t67 -88t25.5 -126q0 -160 -121 -251t-325 -91z" />
    <glyph glyph-name="Scedilla" unicode="&#x15e;" horiz-adv-x="1177" 
d="M1104 383q0 -155 -104.5 -260.5t-288.5 -134.5l-33 -82q72 -6 119 -60t47 -129q0 -94 -71 -152.5t-187 -58.5q-79 0 -142.5 27t-99.5 70l88 106q45 -59 119 -59q48 0 76 26t28 64q0 40 -29 66t-79 26h-33l-14 16l49 129q-189 8 -320 100t-180 257l248 94
q29 -109 108.5 -167t198.5 -58q110 0 173 46t63 128q0 50 -25 89.5t-67 65.5t-96.5 48t-115 42t-120.5 43t-114.5 56t-96.5 75t-67 106.5t-25 144.5q0 180 129 289.5t354 109.5q190 0 317 -85.5t168 -230.5l-247 -94q-54 187 -250 187q-100 0 -154.5 -43t-54.5 -113
q0 -48 25 -84.5t67 -61t97 -45t115.5 -41t120.5 -44.5t115 -59t97 -80t67 -114t25 -155z" />
    <glyph glyph-name="scedilla" unicode="&#x15f;" horiz-adv-x="1001" 
d="M948 317q0 -141 -95 -228.5t-261 -108.5l-31 -74q72 -6 119 -60t47 -129q0 -94 -70.5 -152.5t-185.5 -58.5q-81 0 -144.5 27t-99.5 70l88 106q45 -59 121 -59q46 0 74.5 26t28.5 64q0 39 -29.5 65.5t-77.5 26.5h-35l-14 16l49 129q-150 14 -252 84t-141 191l227 88
q24 -76 86.5 -118t159.5 -42q79 0 124.5 31.5t45.5 87.5q0 38 -25.5 67t-67 46.5t-94.5 36t-109 34t-109 41.5t-94.5 57.5t-67 84t-25.5 118.5q0 147 113.5 233.5t304.5 86.5q157 0 264 -62t141 -172l-227 -88q-43 121 -182 121q-71 0 -109.5 -28t-38.5 -78q0 -35 25.5 -61
t67 -41.5t94.5 -32t109 -31t109 -41t94.5 -59.5t67 -88t25.5 -126z" />
    <glyph glyph-name="Scaron" unicode="&#x160;" horiz-adv-x="1177" 
d="M719 1563h-213l-291 344h236l157 -176l160 176h236zM375 1067q0 -48 25 -84.5t67 -61t97 -45t115.5 -41t120.5 -44.5t115 -59t97 -80t67 -114t25 -155q0 -183 -141.5 -294.5t-382.5 -111.5q-201 0 -340.5 93t-190.5 264l248 94q29 -109 108.5 -167t198.5 -58
q110 0 173 46t63 128q0 50 -25 89.5t-67 65.5t-96.5 48t-115 42t-120.5 43t-114.5 56t-96.5 75t-67 106.5t-25 144.5q0 180 129 289.5t354 109.5q190 0 317 -85.5t168 -230.5l-247 -94q-54 187 -250 187q-100 0 -154.5 -43t-54.5 -113z" />
    <glyph glyph-name="scaron" unicode="&#x161;" horiz-adv-x="1001" 
d="M629 1237h-223l-279 373h229l158 -213l158 213h229zM356 797q0 -35 25.5 -61t67 -41.5t94.5 -32t109 -31t109 -41t94.5 -59.5t67 -88t25.5 -126q0 -160 -121 -251t-325 -91q-177 0 -298 71t-165 206l227 88q24 -76 86.5 -118t159.5 -42q79 0 124.5 31.5t45.5 87.5
q0 38 -25.5 67t-67 46.5t-94.5 36t-109 34t-109 41.5t-94.5 57.5t-67 84t-25.5 118.5q0 147 113.5 233.5t304.5 86.5q157 0 264 -62t141 -172l-227 -88q-43 121 -182 121q-71 0 -109.5 -28t-38.5 -78z" />
    <glyph glyph-name="uni0162" unicode="&#x162;" horiz-adv-x="1173" 
d="M719 0h-47l-41 -98q72 -6 119 -60t47 -129q0 -94 -71 -152.5t-187 -58.5q-79 0 -142.5 27t-99.5 70l88 106q45 -59 121 -59q46 0 74 26t28 64q0 39 -29 65.5t-77 26.5h-35l-14 14l59 158h-55v1190h-430v233h1120v-233h-428v-1190z" />
    <glyph glyph-name="uni0163" unicode="&#x163;" horiz-adv-x="802" 
d="M602 0h-27l-30 -76q71 -8 117.5 -61t46.5 -129q0 -93 -70.5 -152t-185.5 -59q-80 0 -144 27.5t-100 70.5l88 107q49 -60 121 -60q46 0 74 25t28 63q0 40 -29 67t-77 27h-33l-16 15l61 166q-105 41 -160 134t-55 226v465h-188v223h98q106 0 106 111v170h254v-281h283v-223
h-291v-436q0 -94 46 -143.5t134 -49.5h119v-227h-170z" />
    <glyph glyph-name="Tcaron" unicode="&#x164;" horiz-adv-x="1173" 
d="M696 1563h-211l-290 344h233l160 -176l160 176h233zM1147 1423v-233h-428v-1190h-262v1190h-430v233h1120z" />
    <glyph glyph-name="tcaron" unicode="&#x165;" horiz-adv-x="802" 
d="M625 1133l41 497h186l-57 -497h-170zM602 0q-190 0 -290.5 104.5t-100.5 286.5v465h-188v223h98q106 0 106 111v170h254v-281h283v-223h-291v-436q0 -94 46 -143.5t134 -49.5h119v-227h-170z" />
    <glyph glyph-name="Tbar" unicode="&#x166;" horiz-adv-x="1191" 
d="M1157 1190h-430v-461h221v-180h-221v-549h-262v549h-221v180h221v461h-430v233h1122v-233z" />
    <glyph glyph-name="tbar" unicode="&#x167;" horiz-adv-x="813" 
d="M664 227h118v-227h-172q-189 0 -289 104.5t-100 286.5v80h-151v182h151v203h-188v223h98q107 0 107 111v170h251v-281h283v-223h-291v-203h248v-182h-248v-51q0 -93 47.5 -143t135.5 -50z" />
    <glyph glyph-name="Utilde" unicode="&#x168;" horiz-adv-x="1378" 
d="M582 1665q-41 0 -67.5 -24t-35.5 -66l-180 76q10 42 30 80.5t51 73t77.5 55t101.5 20.5q45 0 85 -15.5t64.5 -34.5t55.5 -34.5t61 -15.5q82 0 105 92l180 -78q-25 -96 -90.5 -162.5t-169.5 -66.5q-46 0 -86 15.5t-64 34.5t-55.5 34.5t-62.5 15.5zM991 1423h260v-878
q0 -118 -35.5 -220t-103 -180.5t-176.5 -124t-246 -45.5t-245.5 45t-177 123.5t-104.5 181t-36 220.5v878h264v-878q0 -145 76.5 -234.5t222.5 -89.5t223.5 90t77.5 234v878z" />
    <glyph glyph-name="utilde" unicode="&#x169;" horiz-adv-x="1226" 
d="M485 1368q-38 0 -64.5 -24t-35.5 -66l-180 76q11 43 29 81t46.5 72.5t71 55t94.5 20.5q43 0 81 -15.5t62 -34.5t55.5 -34.5t62.5 -15.5q38 0 64.5 24.5t35.5 67.5l180 -78q-59 -229 -239 -229q-44 0 -84 15.5t-64 34.5t-55 34.5t-60 15.5zM846 1079h260v-1079h-244v119
q-60 -66 -146 -105t-186 -39q-200 0 -310.5 120.5t-110.5 314.5v669h260v-637q0 -105 64.5 -170t172.5 -65q107 1 173.5 64.5t66.5 154.5v653z" />
    <glyph glyph-name="Umacron" unicode="&#x16a;" horiz-adv-x="1378" 
d="M1042 1841v-213h-704v213h704zM991 1423h260v-878q0 -118 -35.5 -220t-103 -180.5t-176.5 -124t-246 -45.5t-245.5 45t-177 123.5t-104.5 181t-36 220.5v878h264v-878q0 -145 76.5 -234.5t222.5 -89.5t223.5 90t77.5 234v878z" />
    <glyph glyph-name="umacron" unicode="&#x16b;" horiz-adv-x="1226" 
d="M924 1530v-209h-656v209h656zM846 1079h260v-1079h-244v119q-60 -66 -146 -105t-186 -39q-200 0 -310.5 120.5t-110.5 314.5v669h260v-637q0 -105 64.5 -170t172.5 -65q107 1 173.5 64.5t66.5 154.5v653z" />
    <glyph glyph-name="Uring" unicode="&#x16e;" horiz-adv-x="1378" 
d="M690 1436q-110 0 -182 68t-72 175q0 104 72.5 173t181.5 69q112 0 183 -68.5t71 -173.5q0 -107 -71 -175t-183 -68zM690 1776q-42 0 -70 -28t-28 -69t27.5 -68.5t70.5 -27.5t72 27.5t29 68.5t-29 69t-72 28zM991 1423h260v-878q0 -118 -35.5 -220t-103 -180.5
t-176.5 -124t-246 -45.5t-245.5 45t-177 123.5t-104.5 181t-36 220.5v878h264v-878q0 -145 76.5 -234.5t222.5 -89.5t223.5 90t77.5 234v878z" />
    <glyph glyph-name="uring" unicode="&#x16f;" horiz-adv-x="1226" 
d="M598 1174q-111 0 -182.5 67t-71.5 174q0 104 72 173t182 69t181 -68.5t71 -173.5q0 -107 -70.5 -174t-181.5 -67zM598 1511q-44 0 -72 -27t-28 -69t28 -69t72 -27q41 0 69.5 27.5t28.5 68.5t-28.5 68.5t-69.5 27.5zM846 1079h260v-1079h-244v119q-60 -66 -146 -105
t-186 -39q-200 0 -310.5 120.5t-110.5 314.5v669h260v-637q0 -105 64.5 -170t172.5 -65q107 1 173.5 64.5t66.5 154.5v653z" />
    <glyph glyph-name="Uhungarumlaut" unicode="&#x170;" horiz-adv-x="1378" 
d="M719 1872l-277 -359l-159 115l254 375zM1171 1872l-274 -359l-160 115l254 375zM991 1423h260v-878q0 -118 -35.5 -220t-103 -180.5t-176.5 -124t-246 -45.5t-245.5 45t-177 123.5t-104.5 181t-36 220.5v878h264v-878q0 -145 76.5 -234.5t222.5 -89.5t223.5 90t77.5 234
v878z" />
    <glyph glyph-name="uhungarumlaut" unicode="&#x171;" horiz-adv-x="1226" 
d="M639 1530l-277 -342l-159 117l254 356zM1083 1530l-274 -342l-160 117l254 356zM846 1079h260v-1079h-244v119q-60 -66 -146 -105t-186 -39q-200 0 -310.5 120.5t-110.5 314.5v669h260v-637q0 -105 64.5 -170t172.5 -65q107 1 173.5 64.5t66.5 154.5v653z" />
    <glyph glyph-name="Uogonek" unicode="&#x172;" horiz-adv-x="1378" 
d="M991 1423h260v-878q0 -179 -79.5 -318.5t-231.5 -203.5l-76 -76q-52 -53 -72 -87.5t-20 -68.5q0 -35 21 -56.5t55 -21.5q50 0 80 35l94 -123q-73 -80 -215 -80q-104 0 -168 57.5t-64 149.5q0 113 119 223h-4q-137 0 -245.5 45t-177 123.5t-104.5 181t-36 220.5v878h264
v-878q0 -145 76.5 -234.5t222.5 -89.5t223.5 90t77.5 234v878z" />
    <glyph glyph-name="uogonek" unicode="&#x173;" horiz-adv-x="1226" 
d="M1092 -276l94 -123q-33 -37 -89 -58.5t-126 -21.5q-104 0 -168 57.5t-64 149.5q0 135 176 272h-53v119q-60 -66 -146 -105t-186 -39q-200 0 -310.5 120.5t-110.5 314.5v669h260v-637q0 -105 64.5 -170t172.5 -65q107 1 173.5 64.5t66.5 154.5v653h260v-1079l-78 -78
q-52 -54 -72 -87.5t-20 -67.5q0 -35 21 -56.5t55 -21.5q50 0 80 35z" />
    <glyph glyph-name="Wcircumflex" unicode="&#x174;" horiz-adv-x="1845" 
d="M922 1739l-158 -176h-236l291 344h213l285 -344h-236zM1567 1423h258l-330 -1423h-307l-264 1063l-267 -1063h-305l-332 1423h259l231 -1110l272 1110h283l272 -1118z" />
    <glyph glyph-name="wcircumflex" unicode="&#x175;" horiz-adv-x="1634" 
d="M815 1450l-158 -213h-229l279 375h225l270 -375h-227zM1358 1079h266l-283 -1079h-307l-211 786l-209 -786h-307l-287 1079h267l186 -825l205 825h291l205 -821z" />
    <glyph glyph-name="Ycircumflex" unicode="&#x176;" horiz-adv-x="1306" 
d="M655 1739l-157 -176h-236l291 344h211l285 -344h-234zM1307 1423l-523 -841v-582h-262v584l-522 839h293l360 -616l361 616h293z" />
    <glyph glyph-name="ycircumflex" unicode="&#x177;" horiz-adv-x="1142" 
d="M571 1450l-157 -213h-230l279 375h223l272 -375h-229zM864 1079h271l-412 -1079l-139 -367h-256l147 367h-82l-381 1079h269l278 -870z" />
    <glyph glyph-name="Ydieresis" unicode="&#x178;" horiz-adv-x="1306" 
d="M416 1563q-71 0 -121.5 49t-50.5 125q0 74 51.5 121t126.5 47q72 0 121 -49.5t49 -124.5q0 -73 -51 -120.5t-125 -47.5zM889 1563q-72 0 -122 49t-50 125q0 74 50.5 121t125.5 47q73 0 123.5 -49.5t50.5 -124.5q0 -73 -51 -120.5t-127 -47.5zM1307 1423l-523 -841v-582
h-262v584l-522 839h293l360 -616l361 616h293z" />
    <glyph glyph-name="Zacute" unicode="&#x179;" horiz-adv-x="1171" 
d="M924 1718l-578 -178l-57 189l569 204zM1112 236l6 -236h-1061v180l711 1014h-694v229h1030v-180l-717 -1007h725z" />
    <glyph glyph-name="zacute" unicode="&#x17a;" horiz-adv-x="993" 
d="M786 1464l-481 -278l-104 168l467 301zM377 211h567v-211h-891v184l551 684h-526v211h844v-192z" />
    <glyph glyph-name="Zdotaccent" unicode="&#x17b;" horiz-adv-x="1171" 
d="M584 1563q-72 0 -122 49t-50 125q0 74 50.5 121t125.5 47q73 0 122.5 -49t49.5 -125q0 -73 -51 -120.5t-125 -47.5zM1112 236l6 -236h-1061v180l711 1014h-694v229h1030v-180l-717 -1007h725z" />
    <glyph glyph-name="zdotaccent" unicode="&#x17c;" horiz-adv-x="993" 
d="M494 1249q-76 0 -127.5 49t-51.5 123q0 76 51.5 126t127.5 50q74 0 125 -50t51 -126q0 -74 -51 -123t-125 -49zM377 211h567v-211h-891v184l551 684h-526v211h844v-192z" />
    <glyph glyph-name="Zcaron" unicode="&#x17d;" horiz-adv-x="1171" 
d="M694 1563h-211l-293 344h236l158 -176l161 176h234zM1112 236l6 -236h-1061v180l711 1014h-694v229h1030v-180l-717 -1007h725z" />
    <glyph glyph-name="zcaron" unicode="&#x17e;" horiz-adv-x="993" 
d="M608 1235h-223l-281 375h230l158 -213l159 213h228zM377 211h567v-211h-891v184l551 684h-526v211h844v-192z" />
    <glyph glyph-name="uni01EA" unicode="&#x1ea;" horiz-adv-x="1617" 
d="M1036 8l-73 -74q-53 -53 -73 -87t-20 -68q0 -35 21 -57.5t55 -22.5q50 0 78 35l96 -121q-34 -37 -90.5 -58.5t-124.5 -21.5q-104 0 -168.5 56.5t-64.5 148.5q0 114 135 237q-203 0 -370.5 95.5t-264 264.5t-96.5 376q0 208 96.5 377t264.5 264.5t372 95.5
q205 0 373.5 -95.5t265 -264.5t96.5 -377q0 -251 -140.5 -442t-367.5 -261zM342 713q0 -216 130 -353t337 -137t338 137.5t131 352.5t-129.5 351t-339.5 136q-208 0 -337.5 -136t-129.5 -351z" />
    <glyph glyph-name="uni01EB" unicode="&#x1eb;" horiz-adv-x="1282" 
d="M846 8l-78 -76q-52 -54 -72 -87.5t-20 -67.5q0 -35 21.5 -57.5t54.5 -22.5q51 0 79 35l95 -121q-33 -37 -89 -58.5t-124 -21.5q-105 0 -169.5 57t-64.5 148q0 117 137 239q-242 9 -396 168.5t-154 395.5q0 244 161.5 404.5t413.5 160.5q251 0 413.5 -160.5t162.5 -404.5
q0 -188 -100.5 -331t-270.5 -200zM326 539q0 -145 88.5 -238.5t228.5 -93.5q138 0 224.5 93.5t86.5 240.5q0 145 -86 237t-225 92q-141 0 -229 -92.5t-88 -238.5z" />
    <glyph glyph-name="AEacute" unicode="&#x1fc;" horiz-adv-x="1927" 
d="M1552 1718l-575 -178l-59 189l569 204zM1169 227h682v-227h-944v330h-497l-166 -330h-275l709 1423h1161v-227h-670v-354h596v-228h-596v-387zM522 553h385v643h-61z" />
    <glyph glyph-name="aeacute" unicode="&#x1fd;" horiz-adv-x="2144" 
d="M1374 1466l-481 -278l-105 168l467 301zM1239 467q20 -131 104.5 -207t208.5 -76q220 0 297 168l215 -92q-128 -285 -465 -285q-275 0 -401 183v-158h-242v145q-128 -170 -356 -170q-231 0 -382.5 161t-151.5 403q0 244 151.5 404.5t382.5 160.5q228 0 356 -170v145h242
v-168q127 193 377 193q155 0 272.5 -78t175.5 -199.5t58 -263.5q0 -61 -6 -96h-836zM1237 621h610q-18 134 -96.5 212t-204.5 78q-127 0 -208.5 -77t-100.5 -213zM635 205q139 0 226 93t87 241q0 149 -86.5 241t-226.5 92q-134 0 -221.5 -94t-87.5 -239t87.5 -239.5
t221.5 -94.5z" />
    <glyph glyph-name="Oslashacute" unicode="&#x1fe;" horiz-adv-x="1624" 
d="M1151 1718l-578 -178l-57 189l569 204zM1393 1171q153 -199 153 -460q0 -155 -56.5 -292t-154 -234t-233.5 -153.5t-289 -56.5q-239 0 -426 129l-145 -153l-154 145l145 154q-155 198 -155 461q0 208 96.5 377t265 264.5t373.5 95.5q240 0 426 -131l145 153l152 -147z
M344 713q0 -153 70 -271l651 691q-109 67 -252 67q-210 0 -339.5 -136t-129.5 -351zM813 223q207 0 337 137t130 353q0 148 -68 268l-651 -690q114 -68 252 -68z" />
    <glyph glyph-name="oslashacute" unicode="&#x1ff;" horiz-adv-x="1323" 
d="M958 1464l-481 -278l-104 168l469 301zM1286 958l-133 -116q84 -136 84 -303q0 -159 -74 -288t-206.5 -202.5t-297.5 -73.5q-212 0 -364 117l-133 -117l-125 140l133 114q-86 138 -86 310q0 244 161.5 404.5t413.5 160.5q216 0 371 -123l135 117zM346 539q0 -69 23 -136
l475 414q-74 53 -182 53q-141 0 -228.5 -92t-87.5 -239zM975 541q0 69 -21 127l-471 -410q76 -51 179 -51q138 0 225.5 94t87.5 240z" />
    <glyph glyph-name="uni0218" unicode="&#x218;" horiz-adv-x="1177" 
d="M375 1067q0 -48 25 -84.5t67 -61t97 -45t115.5 -41t120.5 -44.5t115 -59t97 -80t67 -114t25 -155q0 -183 -141.5 -294.5t-382.5 -111.5q-201 0 -340.5 93t-190.5 264l248 94q29 -109 108.5 -167t198.5 -58q110 0 173 46t63 128q0 50 -25 89.5t-67 65.5t-96.5 48t-115 42
t-120.5 43t-114.5 56t-96.5 75t-67 106.5t-25 144.5q0 180 129 289.5t354 109.5q190 0 317 -85.5t168 -230.5l-247 -94q-54 187 -250 187q-100 0 -154.5 -43t-54.5 -113zM606 -98q59 0 98 -39.5t39 -100.5q0 -46 -17.5 -90t-61.5 -112l-72 -121l-121 47l74 127q7 10 10 20
q-40 14 -65 50t-25 84q0 59 40 97t101 38z" />
    <glyph glyph-name="uni0219" unicode="&#x219;" horiz-adv-x="1001" 
d="M356 797q0 -35 25.5 -61t67 -41.5t94.5 -32t109 -31t109 -41t94.5 -59.5t67 -88t25.5 -126q0 -160 -121 -251t-325 -91q-177 0 -298 71t-165 206l227 88q24 -76 86.5 -118t159.5 -42q79 0 124.5 31.5t45.5 87.5q0 38 -25.5 67t-67 46.5t-94.5 36t-109 34t-109 41.5
t-94.5 57.5t-67 84t-25.5 118.5q0 147 113.5 233.5t304.5 86.5q157 0 264 -62t141 -172l-227 -88q-43 121 -182 121q-71 0 -109.5 -28t-38.5 -78zM532 -98q59 0 98.5 -39.5t39.5 -100.5q0 -44 -18 -88t-62 -114l-72 -121l-121 47l72 127l12 20q-41 15 -65.5 50.5t-24.5 83.5
q0 59 40 97t101 38z" />
    <glyph glyph-name="uni021A" unicode="&#x21a;" horiz-adv-x="1173" 
d="M1147 1423v-233h-428v-1190h-262v1190h-430v233h1120zM590 -98q59 0 98 -39.5t39 -100.5q0 -44 -18 -88t-62 -114l-72 -121l-120 47l71 127q9 13 11 20q-40 16 -64 51t-24 83q0 59 40 97t101 38z" />
    <glyph glyph-name="uni021B" unicode="&#x21b;" horiz-adv-x="802" 
d="M653 227h119v-227h-170q-190 0 -290.5 104.5t-100.5 286.5v465h-188v223h98q106 0 106 111v170h254v-281h283v-223h-291v-436q0 -94 46 -143.5t134 -49.5zM510 -82q59 0 99 -38t40 -99q0 -45 -18.5 -89.5t-63.5 -113.5l-71 -121l-121 45l74 129q6 9 10 21
q-40 16 -65 50.5t-25 82.5q0 59 40.5 96t100.5 37z" />
    <glyph glyph-name="uni0237" unicode="&#x237;" horiz-adv-x="505" 
d="M-86 -377v225h20q87 0 139 56t52 149v1026h260v-1022q0 -199 -116.5 -316.5t-301.5 -117.5h-53z" />
    <glyph glyph-name="circumflex" unicode="&#x2c6;" horiz-adv-x="755" 
d="M836 1237h-228l-159 213l-158 -213h-230l279 375h223z" />
    <glyph glyph-name="caron" unicode="&#x2c7;" horiz-adv-x="866" 
d="M608 1612h228l-273 -375h-223l-279 375h230l158 -213z" />
    <glyph glyph-name="breve" unicode="&#x2d8;" horiz-adv-x="763" 
d="M420 1237q-165 0 -262 102.5t-97 272.5h205q0 -86 42.5 -133t111.5 -47t111 47t42 133h205q0 -170 -96.5 -272.5t-261.5 -102.5z" />
    <glyph glyph-name="dotaccent" unicode="&#x2d9;" horiz-adv-x="382" 
d="M240 1251q-76 0 -127.5 49t-51.5 123q0 76 51.5 126t127.5 50t127 -50t51 -126q0 -74 -51 -123t-127 -49z" />
    <glyph glyph-name="ring" unicode="&#x2da;" horiz-adv-x="538" 
d="M315 1174q-111 0 -182.5 67t-71.5 174q0 104 72 173t182 69q112 0 183 -68.5t71 -173.5q0 -107 -70.5 -174t-183.5 -67zM315 1319q43 0 71 27.5t28 68.5t-28 68.5t-71 27.5t-71.5 -27.5t-28.5 -68.5t28.5 -68.5t71.5 -27.5z" />
    <glyph glyph-name="ogonek" unicode="&#x2db;" horiz-adv-x="569" 
d="M293 -477q-104 0 -168 57.5t-64 149.5q0 70 45 136.5t138 139.5l90 68l96 -72l-80 -78q-52 -54 -72 -87.5t-20 -67.5q0 -35 21 -56.5t55 -21.5q54 0 80 35l94 -123q-33 -37 -89 -58.5t-126 -21.5z" />
    <glyph glyph-name="tilde" unicode="&#x2dc;" horiz-adv-x="917" 
d="M602 1268q-43 0 -82.5 15.5t-63 34.5t-54.5 34.5t-60 15.5q-38 0 -64.5 -24t-37.5 -66l-179 76q22 94 81.5 161.5t158.5 67.5q43 0 81.5 -15.5t62 -34.5t55.5 -34.5t63 -15.5q37 0 63.5 24.5t35.5 67.5l182 -78q-63 -229 -242 -229z" />
    <glyph glyph-name="hungarumlaut" unicode="&#x2dd;" horiz-adv-x="790" 
d="M215 1188l-162 117l254 356l182 -131zM659 1188l-159 117l254 356l180 -131z" />
    <glyph glyph-name="gravecomb" unicode="&#x300;" 
d="M-166 1188l-481 278l117 191l469 -301z" />
    <glyph glyph-name="acutecomb" unicode="&#x301;" 
d="M-543 1188l-104 168l469 301l117 -191z" />
    <glyph glyph-name="uni0302" unicode="&#x302;" 
d="M-61 1237h-228l-160 213l-157 -213h-230l279 375h223z" />
    <glyph glyph-name="tildecomb" unicode="&#x303;" 
d="M-303 1268q-43 0 -82.5 15.5t-63 34.5t-54.5 34.5t-60 15.5q-38 0 -65 -24t-38 -66l-178 76q22 94 81.5 161.5t158.5 67.5q43 0 81.5 -15.5t62 -34.5t55.5 -34.5t63 -15.5q37 0 63 24.5t35 67.5l183 -78q-63 -229 -242 -229z" />
    <glyph glyph-name="uni0304" unicode="&#x304;" 
d="M-717 1321v209h656v-209h-656z" />
    <glyph glyph-name="uni0306" unicode="&#x306;" 
d="M-393 1237q-165 0 -262 102.5t-97 272.5h205q0 -86 42.5 -133t111.5 -47t111 47t42 133h205q0 -170 -96.5 -272.5t-261.5 -102.5z" />
    <glyph glyph-name="uni0307" unicode="&#x307;" 
d="M-240 1251q-76 0 -127 49t-51 123q0 76 51 126t127 50t127.5 -50t51.5 -126q0 -74 -51.5 -123t-127.5 -49z" />
    <glyph glyph-name="uni0308" unicode="&#x308;" 
d="M-692 1257q-69 0 -118.5 48.5t-49.5 121.5q0 72 50.5 118t123.5 46q70 0 118 -48.5t48 -121.5q0 -70 -50 -117t-122 -47zM-233 1257q-70 0 -120 48t-50 122q0 72 50.5 118t123.5 46q70 0 119 -48.5t49 -121.5q0 -70 -50 -117t-122 -47z" />
    <glyph glyph-name="uni030A" unicode="&#x30a;" 
d="M-315 1174q-111 0 -182.5 67t-71.5 174q0 104 72 173t182 69q112 0 183 -68.5t71 -173.5q0 -107 -70.5 -174t-183.5 -67zM-315 1319q43 0 70.5 27.5t27.5 68.5t-27.5 68.5t-70.5 27.5t-72 -27.5t-29 -68.5t29 -68.5t72 -27.5z" />
    <glyph glyph-name="uni030B" unicode="&#x30b;" 
d="M-782 1188l-160 117l254 356l180 -131zM-336 1188l-162 117l254 356l183 -131z" />
    <glyph glyph-name="uni030C" unicode="&#x30c;" 
d="M-289 1612h228l-273 -375h-223l-279 375h230l157 -213z" />
    <glyph glyph-name="uni0326" unicode="&#x326;" 
d="M-197 -98q59 0 98.5 -39.5t39.5 -100.5q0 -45 -17.5 -89.5t-62.5 -112.5l-72 -121l-121 47l72 127l12 20q-41 15 -65.5 50.5t-24.5 83.5q0 59 40 97t101 38z" />
    <glyph glyph-name="uni0327" unicode="&#x327;" 
d="M-317 -494q-81 0 -144.5 27t-99.5 70l88 106q48 -59 121 -59q46 0 75 26t29 64q0 39 -30 65.5t-78 26.5h-33l-17 16l70 183h160l-49 -125q70 -6 117 -60t47 -129q0 -94 -70.5 -152.5t-185.5 -58.5z" />
    <glyph glyph-name="uni0328" unicode="&#x328;" 
d="M-276 -477q-104 0 -168 57.5t-64 149.5q0 134 182 276l90 68l97 -72l-80 -78q-52 -54 -72 -87.5t-20 -67.5q0 -35 20.5 -56.5t54.5 -21.5q54 0 80 35l95 -123q-33 -37 -89 -58.5t-126 -21.5z" />
    <glyph glyph-name="uni0335" unicode="&#x335;" 
d="M-766 477v180h705v-180h-705z" />
    <glyph glyph-name="uni0336" unicode="&#x336;" 
d="M-1446 553v205h1385v-205h-1385z" />
    <glyph glyph-name="uni0337" unicode="&#x337;" 
d="M-705 352l-96 164l621 348l96 -164z" />
    <glyph glyph-name="uni0338" unicode="&#x338;" 
d="M-1186 -12l-125 139l1129 981l121 -137z" />
    <glyph glyph-name="Wgrave" unicode="&#x1e80;" horiz-adv-x="1845" 
d="M1241 1729l-59 -189l-578 178l66 215zM1567 1423h258l-330 -1423h-307l-264 1063l-267 -1063h-305l-332 1423h259l231 -1110l272 1110h283l272 -1118z" />
    <glyph glyph-name="wgrave" unicode="&#x1e81;" horiz-adv-x="1634" 
d="M1090 1356l-107 -168l-479 278l117 191zM1358 1079h266l-283 -1079h-307l-211 786l-209 -786h-307l-287 1079h267l186 -825l205 825h291l205 -821z" />
    <glyph glyph-name="Wacute" unicode="&#x1e82;" horiz-adv-x="1845" 
d="M1262 1718l-578 -178l-59 189l571 204zM1567 1423h258l-330 -1423h-307l-264 1063l-267 -1063h-305l-332 1423h259l231 -1110l272 1110h283l272 -1118z" />
    <glyph glyph-name="wacute" unicode="&#x1e83;" horiz-adv-x="1634" 
d="M1110 1466l-481 -278l-105 168l467 301zM1358 1079h266l-283 -1079h-307l-211 786l-209 -786h-307l-287 1079h267l186 -825l205 825h291l205 -821z" />
    <glyph glyph-name="Wdieresis" unicode="&#x1e84;" horiz-adv-x="1845" 
d="M684 1563q-72 0 -123 49t-51 125q0 74 51.5 121t126.5 47q73 0 121.5 -49t48.5 -125q0 -73 -50.5 -120.5t-123.5 -47.5zM1157 1563q-72 0 -123 49t-51 125q0 74 51 121t125 47q73 0 123.5 -49.5t50.5 -124.5q0 -73 -51 -120.5t-125 -47.5zM1567 1423h258l-330 -1423h-307
l-264 1063l-267 -1063h-305l-332 1423h259l231 -1110l272 1110h283l272 -1118z" />
    <glyph glyph-name="wdieresis" unicode="&#x1e85;" horiz-adv-x="1634" 
d="M584 1257q-69 0 -118.5 48.5t-49.5 121.5q0 72 50.5 118t123.5 46q70 0 118 -48.5t48 -121.5q0 -70 -50 -117t-122 -47zM1042 1257q-70 0 -120 48t-50 122q0 72 50.5 118t124.5 46q70 0 118.5 -48.5t48.5 -121.5q0 -70 -50 -117t-122 -47zM1358 1079h266l-283 -1079h-307
l-211 786l-209 -786h-307l-287 1079h267l186 -825l205 825h291l205 -821z" />
    <glyph glyph-name="uni1E9E" unicode="&#x1e9e;" horiz-adv-x="1327" 
d="M930 772q150 -31 237.5 -134t87.5 -255q0 -185 -123.5 -293t-328.5 -108q-241 0 -316 151l84 189q28 -62 81.5 -95.5t123.5 -33.5q100 0 158.5 57.5t58.5 155.5q0 100 -67 158.5t-185 58.5h-67v149l260 336q-83 111 -254 111q-135 0 -212 -75t-77 -204v-940h-262v938
q0 231 150.5 368.5t394.5 137.5q402 0 530 -324z" />
    <glyph glyph-name="Ygrave" unicode="&#x1ef2;" horiz-adv-x="1306" 
d="M973 1729l-58 -189l-577 178l65 215zM1307 1423l-523 -841v-582h-262v584l-522 839h293l360 -616l361 616h293z" />
    <glyph glyph-name="ygrave" unicode="&#x1ef3;" horiz-adv-x="1142" 
d="M844 1356l-105 -168l-481 278l119 191zM864 1079h271l-412 -1079l-139 -367h-256l147 367h-82l-381 1079h269l278 -870z" />
    <glyph glyph-name="uni1EF8" unicode="&#x1ef8;" horiz-adv-x="1306" 
d="M547 1665q-82 0 -105 -90l-180 76q24 92 90.5 160.5t171.5 68.5q45 0 85 -15.5t64 -34.5t56 -34.5t62 -15.5q41 0 67 24t35 68l180 -78q-25 -97 -90 -163t-170 -66q-45 0 -85 15.5t-63.5 34.5t-55 34.5t-62.5 15.5zM1307 1423l-523 -841v-582h-262v584l-522 839h293
l360 -616l361 616h293z" />
    <glyph glyph-name="uni1EF9" unicode="&#x1ef9;" horiz-adv-x="1142" 
d="M461 1368q-39 0 -66.5 -24t-36.5 -66l-178 76q22 94 81.5 161.5t158.5 67.5q43 0 81.5 -15.5t62 -34.5t55.5 -34.5t63 -15.5q37 0 63 24.5t35 67.5l181 -78q-59 -229 -240 -229q-43 0 -82.5 15.5t-63 34.5t-54.5 34.5t-60 15.5zM864 1079h271l-412 -1079l-139 -367h-256
l147 367h-82l-381 1079h269l278 -870z" />
    <glyph glyph-name="endash" unicode="&#x2013;" horiz-adv-x="1046" 
d="M111 401v213h825v-213h-825z" />
    <glyph glyph-name="emdash" unicode="&#x2014;" horiz-adv-x="1566" 
d="M111 401v211h1345v-211h-1345z" />
    <glyph glyph-name="quoteleft" unicode="&#x2018;" horiz-adv-x="440" 
d="M246 1212q56 -8 89.5 -45t33.5 -98q0 -65 -44.5 -109.5t-107.5 -44.5q-64 0 -109 45t-45 113q0 71 43 158l109 233h150z" />
    <glyph glyph-name="quoteright" unicode="&#x2019;" horiz-adv-x="442" 
d="M236 1477q64 0 107.5 -45t43.5 -113q0 -69 -41 -158l-110 -233h-148l119 252q-57 8 -91 45t-34 98q0 65 45 109.5t109 44.5z" />
    <glyph glyph-name="quotesinglbase" unicode="&#x201a;" horiz-adv-x="448" 
d="M223 276q64 0 109 -43.5t45 -111.5q0 -71 -43 -158l-109 -233h-149l117 250q-55 9 -88 46t-33 97q0 67 43.5 110t107.5 43z" />
    <glyph glyph-name="quotedblleft" unicode="&#x201c;" horiz-adv-x="815" 
d="M246 1212q56 -8 89.5 -45t33.5 -98q0 -65 -44.5 -109.5t-107.5 -44.5q-64 0 -109 45t-45 113q0 71 43 158l109 233h150zM618 1212q57 -8 91 -45t34 -98q0 -65 -44.5 -109.5t-108.5 -44.5t-108 45t-44 113q0 69 41 158l111 233h147z" />
    <glyph glyph-name="quotedblright" unicode="&#x201d;" horiz-adv-x="815" 
d="M236 1477q64 0 107.5 -45t43.5 -113q0 -69 -41 -158l-110 -233h-148l119 252q-57 8 -91 45t-34 98q0 65 45 109.5t109 44.5zM608 1477q64 0 109 -45t45 -113q0 -71 -43 -158l-109 -233h-149l119 252q-56 8 -89.5 45t-33.5 98q0 66 44 110t107 44z" />
    <glyph glyph-name="quotedblbase" unicode="&#x201e;" horiz-adv-x="821" 
d="M223 276q64 0 109 -43.5t45 -111.5q0 -71 -43 -158l-109 -233h-149l117 250q-55 9 -88 46t-33 97q0 67 43.5 110t107.5 43zM598 276q64 0 108 -43.5t44 -111.5q0 -69 -41 -158l-111 -233h-147l116 250q-56 8 -89.5 45.5t-33.5 97.5q0 66 45 109.5t109 43.5z" />
    <glyph glyph-name="dagger" unicode="&#x2020;" horiz-adv-x="751" 
d="M672 1270v-183h-199v-501h-197v501h-196v183h196v227h197v-227h199z" />
    <glyph glyph-name="daggerdbl" unicode="&#x2021;" horiz-adv-x="798" 
d="M694 1147h-196v-211h196v-182h-196v-168h-197v168h-199v182h199v211h-199v182h199v168h197v-168h196v-182z" />
    <glyph glyph-name="bullet" unicode="&#x2022;" horiz-adv-x="780" 
d="M389 438q-109 0 -183.5 73.5t-74.5 182.5q0 112 74.5 186t183.5 74t183.5 -74t74.5 -186q0 -109 -74.5 -182.5t-183.5 -73.5z" />
    <glyph glyph-name="ellipsis" unicode="&#x2026;" horiz-adv-x="1288" 
d="M227 -20q-64 0 -107.5 44t-43.5 107q0 67 43 111.5t108 44.5q66 0 110 -44.5t44 -111.5q0 -63 -44 -107t-110 -44zM645 -20q-65 0 -109 44t-44 107q0 67 43.5 111.5t109.5 44.5t110 -44.5t44 -111.5q0 -63 -44 -107t-110 -44zM1059 -20q-63 0 -106.5 44t-43.5 107
q0 67 43.5 111.5t106.5 44.5q66 0 109.5 -44.5t43.5 -111.5q0 -63 -44 -107t-109 -44z" />
    <glyph glyph-name="perthousand" unicode="&#x2030;" horiz-adv-x="2213" 
d="M379 778q-140 0 -234 96t-94 234q0 139 94 235.5t234 96.5t233 -96.5t93 -235.5q0 -138 -93 -234t-233 -96zM254 0l813 1423l205 2l-817 -1423zM379 942q67 0 111.5 48t44.5 120q0 69 -44.5 117.5t-111.5 48.5q-68 0 -113 -48.5t-45 -117.5q0 -72 45 -120t113 -48z
M1145 -16q-140 0 -234 95.5t-94 233.5q0 139 94 235.5t234 96.5t232.5 -96.5t92.5 -235.5q0 -138 -92.5 -233.5t-232.5 -95.5zM1841 -16q-140 0 -234 95.5t-94 233.5q0 139 94 235.5t234 96.5t233 -96.5t93 -235.5q0 -138 -93 -233.5t-233 -95.5zM1145 147q67 0 111 48
t44 120q0 69 -44.5 117.5t-110.5 48.5q-68 0 -113 -48.5t-45 -117.5q0 -72 45 -120t113 -48zM1841 147q66 0 111 48t45 120q0 69 -44.5 117.5t-111.5 48.5q-68 0 -113 -48.5t-45 -117.5q0 -72 44.5 -120t113.5 -48z" />
    <glyph glyph-name="guilsinglleft" unicode="&#x2039;" horiz-adv-x="630" 
d="M293 156l-234 348l234 348h244l-234 -348l234 -348h-244z" />
    <glyph glyph-name="guilsinglright" unicode="&#x203a;" horiz-adv-x="630" 
d="M94 156l234 348l-234 348h244l233 -348l-233 -348h-244z" />
    <glyph glyph-name="fraction" unicode="&#x2044;" horiz-adv-x="851" 
d="M-31 0l725 1423h195l-727 -1423h-193z" />
    <glyph glyph-name="uni2074" unicode="&#x2074;" horiz-adv-x="679" 
d="M608 975v-121h-69v-143h-168v143h-322v123l324 446h166v-448h69zM373 975v260l-189 -260h189z" />
    <glyph glyph-name="Euro" unicode="&#x20ac;" horiz-adv-x="1542" 
d="M1257 410l224 -150q-83 -128 -229 -206.5t-341 -78.5q-242 0 -424.5 130t-250.5 346h-183l17 167h133q-2 20 -2 60q0 39 2 57h-115l16 170h132q68 216 250.5 345.5t424.5 129.5q193 0 338 -77t230 -205l-224 -152q-109 187 -350 187q-129 0 -230.5 -60.5t-156.5 -167.5
h426l-16 -170h-459q-2 -18 -2 -57q0 -10 1 -30.5t1 -29.5h440l-16 -167h-375q54 -107 156.5 -167.5t232.5 -60.5q243 0 350 187z" />
    <glyph glyph-name="trademark" unicode="&#x2122;" horiz-adv-x="1331" 
d="M522 1370v-123h-166v-446h-137v446h-166v123h469zM1223 801h-129l-27 364l-111 -346h-114l-111 346l-26 -364h-127l40 569h164l117 -379l119 379h162z" />
    <glyph glyph-name="minus" unicode="&#x2212;" horiz-adv-x="1099" 
d="M119 551v221h860v-221h-860z" />
    <glyph glyph-name="approxequal" unicode="&#x2248;" horiz-adv-x="1097" 
d="M741 692q-56 0 -107 17t-82 37.5t-74.5 37.5t-86.5 17q-118 0 -166 -80l-125 141q43 73 110 112.5t148 39.5q56 0 106.5 -17t82.5 -37.5t75.5 -37.5t86.5 -17q115 0 163 80l127 -141q-43 -72 -111 -112t-147 -40zM739 236q-56 0 -106 17t-81.5 37t-75 37t-87.5 17
q-52 0 -96 -20t-68 -60l-127 142q43 72 110.5 111.5t149.5 39.5q56 0 106 -17t81.5 -37t75 -37t86.5 -17q117 0 165 77l125 -141q-41 -72 -108.5 -110.5t-149.5 -38.5z" />
    <glyph glyph-name="notequal" unicode="&#x2260;" horiz-adv-x="1101" 
d="M981 754h-272l-82 -256h354v-222h-424l-68 -215h-243l67 215h-192v222h264l82 256h-346v221h416l67 213h242l-68 -213h203v-221z" />
    <glyph glyph-name="uniF8FF" unicode="&#xf8ff;" horiz-adv-x="4724" 
d="M1149 408q-95 0 -136.5 40t-41.5 130v466h203q0 -62 -40 -122t-98 -86l2 -9q58 35 119 35h105v-162h-86v-98q0 -35 36 -35q28 0 50 15v-154q-36 -20 -113 -20zM1303 418v626h200q0 -67 -47 -122t-115 -70l5 -6q84 16 143 16h16v-444h-202zM2808 408q-95 0 -137.5 40.5
t-42.5 129.5v466h202q0 -62 -39 -122t-98 -86l4 -9q58 35 119 35h102v-162h-86v-98q0 -35 37 -35q27 0 49 15v-154q-36 -20 -110 -20zM205 418v624h203v-624h-203zM584 408q-66 0 -105 34t-39 90q0 60 41 98t111 38q92 0 135 -43h4v71q0 24 -12 38t-35 14q-47 0 -47 -60
l-184 29q37 160 249 160q110 0 172 -50t62 -135v-274h-201v45h-6q-14 -20 -51.5 -37.5t-93.5 -17.5zM1548 418v444h199v-133h6q17 143 145 143q70 0 110 -46t40 -134v-274h-205v264q0 55 -39 55q-22 0 -32 -13t-21 -52v-254h-203zM2337 408q-123 0 -190.5 63.5t-67.5 167.5
t69 168.5t189 64.5q122 0 190 -64.5t68 -168.5q0 -103 -67.5 -167t-190.5 -64zM3463 270v592h203v-133h6q21 143 150 143q170 0 170 -233q0 -115 -51.5 -173t-125.5 -58q-105 0 -141 88h-6v-226h-205zM4274 408q-120 0 -187 63.5t-67 167.5q0 103 70 168t190 65
q107 0 173.5 -64.5t66.5 -158.5v-18h-307q0 -39 18.5 -66.5t50.5 -27.5q55 0 62 69l168 -16q-18 -95 -83 -138.5t-155 -43.5zM3015 262v135h133q115 0 137 25l-2 6h-139q-83 0 -107 80l-110 354h204q6 -37 20 -110t24 -134t14 -110h4q13 125 61 354h203l-145 -424
q-63 -176 -217 -176h-80zM4213 655h12q62 0 87.5 12t25.5 38q0 45 -49 45q-34 0 -55 -26t-21 -69zM3738 506q31 0 46 27.5t15 89.5q0 66 -12 95.5t-43 29.5q-46 0 -62 -68v-148q21 -26 56 -26zM2337 535q59 0 59 104q0 106 -59 106q-58 0 -58 -106q0 -104 58 -104zM686 469
q30 0 45 23v104q-10 16 -39 16q-25 0 -40 -19t-15 -52q0 -72 49 -72z" />
    <glyph glyph-name="uni00A40301" horiz-adv-x="700" 
d="M199 1540l-58 189l570 204l65 -215zM41 0v233h86q86 0 133 51t47 144v995h260v-999q0 -198 -108.5 -311t-311.5 -113h-106z" />
    <glyph glyph-name="Q.ss01" horiz-adv-x="1617" 
d="M1319 233h240v-233h-750q-212 0 -379.5 91.5t-260.5 254.5t-93 369t96.5 374t264.5 263.5t372 95.5q153 0 288.5 -55.5t231.5 -150.5t151.5 -227t55.5 -280q0 -313 -217 -502zM807 231q204 0 333.5 136.5t129.5 349.5q0 212 -129 347.5t-334 135.5q-206 0 -335.5 -135.5
t-129.5 -347.5q0 -213 130 -349.5t335 -136.5z" />
    <glyph glyph-name="i.loclTRK" horiz-adv-x="501" 
d="M252 1251q-76 0 -127 49t-51 123q0 75 51.5 125.5t126.5 50.5t126.5 -50.5t51.5 -125.5q0 -74 -51 -123t-127 -49zM121 0v1079h260v-1079h-260z" />
    <glyph glyph-name="uni006A0301" horiz-adv-x="505" 
d="M74 1188l-105 166l467 301l119 -191zM-86 -377v225h20q87 0 139 56t52 149v1026h260v-1022q0 -199 -116.5 -316.5t-301.5 -117.5h-53z" />
    <glyph glyph-name="g.ss01" horiz-adv-x="1175" 
d="M1141 1079v-223h-172q43 -87 43 -201q0 -217 -150 -342q105 -45 159 -127.5t54 -193.5q0 -169 -142.5 -276t-383.5 -107q-421 0 -539 307l236 92q69 -184 297 -184q130 0 199 51.5t69 138.5q0 88 -71 140.5t-199 52.5q-215 0 -348.5 125t-133.5 323q0 196 134 322.5
t348 126.5q88 0 168 -25h432zM305 655q0 -102 66 -167.5t170 -65.5t169.5 65.5t65.5 167.5t-65.5 168t-169.5 66t-170 -66t-66 -168z" />
    <glyph glyph-name="gbreve.ss01" horiz-adv-x="1175" 
d="M559 1237q-165 0 -261.5 102.5t-96.5 272.5h205q0 -85 42.5 -132.5t110.5 -47.5q69 0 111.5 47t42.5 133h207q0 -170 -97.5 -272.5t-263.5 -102.5zM1141 1079v-223h-172q43 -87 43 -201q0 -217 -150 -342q105 -45 159 -127.5t54 -193.5q0 -169 -142.5 -276t-383.5 -107
q-421 0 -539 307l236 92q69 -184 297 -184q130 0 199 51.5t69 138.5q0 88 -71 140.5t-199 52.5q-215 0 -348.5 125t-133.5 323q0 196 134 322.5t348 126.5q88 0 168 -25h432zM305 655q0 -102 66 -167.5t170 -65.5t169.5 65.5t65.5 167.5t-65.5 168t-169.5 66t-170 -66
t-66 -168z" />
    <glyph glyph-name="uni0123.ss01" horiz-adv-x="1175" 
d="M571 1219q-59 0 -98 38t-39 99q0 45 18 89t62 114l72 120l121 -45l-72 -129q-7 -10 -10 -20q39 -15 63.5 -51t24.5 -82q0 -59 -40.5 -96t-101.5 -37zM1141 1079v-223h-172q43 -87 43 -201q0 -217 -150 -342q105 -45 159 -127.5t54 -193.5q0 -169 -142.5 -276t-383.5 -107
q-421 0 -539 307l236 92q69 -184 297 -184q130 0 199 51.5t69 138.5q0 88 -71 140.5t-199 52.5q-215 0 -348.5 125t-133.5 323q0 196 134 322.5t348 126.5q88 0 168 -25h432zM305 655q0 -102 66 -167.5t170 -65.5t169.5 65.5t65.5 167.5t-65.5 168t-169.5 66t-170 -66
t-66 -168z" />
    <glyph glyph-name="gdotaccent.ss01" horiz-adv-x="1175" 
d="M559 1251q-74 0 -125 49t-51 123q0 76 51 126t125 50q76 0 127 -50t51 -126q0 -74 -51 -123t-127 -49zM1141 1079v-223h-172q43 -87 43 -201q0 -217 -150 -342q105 -45 159 -127.5t54 -193.5q0 -169 -142.5 -276t-383.5 -107q-421 0 -539 307l236 92q69 -184 297 -184
q130 0 199 51.5t69 138.5q0 88 -71 140.5t-199 52.5q-215 0 -348.5 125t-133.5 323q0 196 134 322.5t348 126.5q88 0 168 -25h432zM305 655q0 -102 66 -167.5t170 -65.5t169.5 65.5t65.5 167.5t-65.5 168t-169.5 66t-170 -66t-66 -168z" />
    <glyph glyph-name="t.ss01" horiz-adv-x="782" 
d="M258 0v856h-238v223h148q106 0 106 111v170h252v-281h234v-223h-242v-856h-260z" />
    <glyph glyph-name="tbar.ss01" horiz-adv-x="854" 
d="M799 856h-242v-221h221v-182h-221v-453h-260v453h-225v182h225v221h-238v223h148q106 0 106 111v170h252v-281h234v-223z" />
    <glyph glyph-name="tcaron.ss01" horiz-adv-x="782" 
d="M659 1133l41 497h185l-58 -497h-168zM258 0v856h-238v223h148q106 0 106 111v170h252v-281h234v-223h-242v-856h-260z" />
    <glyph glyph-name="uni0163.ss01" horiz-adv-x="782" 
d="M518 0h-49l-41 -106q71 -6 117.5 -59.5t46.5 -129.5q0 -93 -70.5 -152t-185.5 -59q-80 0 -143.5 27t-100.5 69l88 109q48 -59 121 -59q46 0 75.5 25.5t29.5 62.5q0 40 -30 67t-79 27h-33l-16 14l63 164h-53v856h-238v223h148q106 0 106 111v170h252v-281h234v-223h-242
v-856z" />
    <glyph glyph-name="uni021B.ss01" horiz-adv-x="782" 
d="M526 1079h234v-223h-242v-856h-260v856h-238v223h148q106 0 106 111v170h252v-281zM397 -111q59 0 98.5 -38t39.5 -99q0 -46 -17.5 -89.5t-62.5 -113.5l-72 -120l-121 45l72 127q8 16 10 22q-39 14 -63.5 49.5t-24.5 83.5q0 58 40.5 95.5t100.5 37.5z" />
    <glyph glyph-name="u.ss01" horiz-adv-x="1212" 
d="M606 -25q-236 0 -368 129t-132 353v622h261v-633q0 -109 64 -174t175 -65t175.5 65.5t64.5 173.5v633h260v-622q0 -224 -132 -353t-368 -129z" />
    <glyph glyph-name="uacute.ss01" horiz-adv-x="1212" 
d="M420 1188l-107 168l469 301l117 -191zM606 -25q-236 0 -368 129t-132 353v622h261v-633q0 -109 64 -174t175 -65t175.5 65.5t64.5 173.5v633h260v-622q0 -224 -132 -353t-368 -129z" />
    <glyph glyph-name="ucircumflex.ss01" horiz-adv-x="1212" 
d="M606 1450l-157 -213h-230l279 375h223l272 -375h-229zM846 1079h260v-622q0 -224 -132 -353t-368 -129t-368 129t-132 353v622h261v-633q0 -109 64 -174t175 -65t175.5 65.5t64.5 173.5v633z" />
    <glyph glyph-name="udieresis.ss01" horiz-adv-x="1212" 
d="M375 1257q-70 0 -119 48t-49 122q0 72 49.5 118t122.5 46q70 0 119 -48.5t49 -121.5q0 -70 -50.5 -117t-121.5 -47zM834 1257q-70 0 -120 48t-50 122q0 72 50 118t122 46q71 0 120.5 -48.5t49.5 -121.5q0 -70 -50.5 -117t-121.5 -47zM606 -25q-236 0 -368 129t-132 353
v622h261v-633q0 -109 64 -174t175 -65t175.5 65.5t64.5 173.5v633h260v-622q0 -224 -132 -353t-368 -129z" />
    <glyph glyph-name="ugrave.ss01" horiz-adv-x="1212" 
d="M774 1188l-481 278l119 191l467 -301zM606 -25q-236 0 -368 129t-132 353v622h261v-633q0 -109 64 -174t175 -65t175.5 65.5t64.5 173.5v633h260v-622q0 -224 -132 -353t-368 -129z" />
    <glyph glyph-name="uhungarumlaut.ss01" horiz-adv-x="1212" 
d="M373 1188l-160 117l254 356l180 -131zM817 1188l-160 117l254 356l181 -131zM606 -25q-236 0 -368 129t-132 353v622h261v-633q0 -109 64 -174t175 -65t175.5 65.5t64.5 173.5v633h260v-622q0 -224 -132 -353t-368 -129z" />
    <glyph glyph-name="umacron.ss01" horiz-adv-x="1212" 
d="M279 1321v209h653v-209h-653zM606 -25q-236 0 -368 129t-132 353v622h261v-633q0 -109 64 -174t175 -65t175.5 65.5t64.5 173.5v633h260v-622q0 -224 -132 -353t-368 -129z" />
    <glyph glyph-name="uogonek.ss01" horiz-adv-x="1212" 
d="M846 1079h260v-622q0 -175 -81.5 -294t-233.5 -163l-78 -78q-52 -54 -72 -87.5t-20 -67.5q0 -35 20.5 -56.5t54.5 -21.5q50 0 80 35l94 -123q-73 -80 -215 -80q-104 0 -167.5 57t-63.5 150q0 123 145 247q-220 10 -341.5 138.5t-121.5 343.5v622h261v-633q0 -109 64 -174
t175 -65t175.5 65.5t64.5 173.5v633z" />
    <glyph glyph-name="uring.ss01" horiz-adv-x="1212" 
d="M606 1174q-111 0 -182.5 67t-71.5 174q0 104 72 173t182 69q112 0 183 -68.5t71 -173.5q0 -107 -70.5 -174t-183.5 -67zM606 1319q43 0 71 27.5t28 68.5t-28 68.5t-71 27.5t-71.5 -27.5t-28.5 -68.5t28.5 -68.5t71.5 -27.5zM606 -25q-236 0 -368 129t-132 353v622h261
v-633q0 -109 64 -174t175 -65t175.5 65.5t64.5 173.5v633h260v-622q0 -224 -132 -353t-368 -129z" />
    <glyph glyph-name="utilde.ss01" horiz-adv-x="1212" 
d="M756 1268q-43 0 -82.5 15.5t-63 34.5t-54.5 34.5t-60 15.5q-39 0 -66.5 -24t-36.5 -66l-178 76q22 94 81.5 161.5t158.5 67.5q43 0 81.5 -15.5t62 -34.5t55.5 -34.5t63 -15.5q37 0 63 24.5t35 67.5l180 -78q-59 -229 -239 -229zM606 -25q-236 0 -368 129t-132 353v622
h261v-633q0 -109 64 -174t175 -65t175.5 65.5t64.5 173.5v633h260v-622q0 -224 -132 -353t-368 -129z" />
    <glyph glyph-name="y.ss01" horiz-adv-x="1222" 
d="M844 1079h260v-987q0 -229 -130.5 -356t-373.5 -127q-178 0 -299 76t-180 211l219 84q66 -168 260 -168q125 0 191.5 66.5t66.5 193.5v98q-59 -65 -146 -103t-184 -38q-199 0 -310.5 120t-111.5 314v616h261v-583q0 -105 64.5 -170.5t172.5 -65.5q101 2 170.5 63.5
t69.5 155.5v600z" />
    <glyph glyph-name="yacute.ss01" horiz-adv-x="1222" 
d="M905 1466l-481 -278l-105 168l467 301zM844 1079h260v-987q0 -229 -130.5 -356t-373.5 -127q-178 0 -299 76t-180 211l219 84q66 -168 260 -168q125 0 191.5 66.5t66.5 193.5v98q-59 -65 -146 -103t-184 -38q-199 0 -310.5 120t-111.5 314v616h261v-583
q0 -105 64.5 -170.5t172.5 -65.5q101 2 170.5 63.5t69.5 155.5v600z" />
    <glyph glyph-name="ycircumflex.ss01" horiz-adv-x="1222" 
d="M610 1450l-157 -213h-230l279 375h223l272 -375h-227zM844 1079h260v-987q0 -229 -130.5 -356t-373.5 -127q-178 0 -299 76t-180 211l219 84q66 -168 260 -168q125 0 191.5 66.5t66.5 193.5v98q-59 -65 -146 -103t-184 -38q-199 0 -310.5 120t-111.5 314v616h261v-583
q0 -105 64.5 -170.5t172.5 -65.5q101 2 170.5 63.5t69.5 155.5v600z" />
    <glyph glyph-name="ydieresis.ss01" horiz-adv-x="1222" 
d="M379 1257q-69 0 -118.5 48.5t-49.5 121.5q0 72 50 118t122 46q71 0 119.5 -48.5t48.5 -121.5q0 -70 -50 -117t-122 -47zM838 1257q-70 0 -120 48t-50 122q0 72 50 118t122 46q71 0 120.5 -48.5t49.5 -121.5q0 -70 -50 -117t-122 -47zM844 1079h260v-987
q0 -229 -130.5 -356t-373.5 -127q-178 0 -299 76t-180 211l219 84q66 -168 260 -168q125 0 191.5 66.5t66.5 193.5v98q-59 -65 -146 -103t-184 -38q-199 0 -310.5 120t-111.5 314v616h261v-583q0 -105 64.5 -170.5t172.5 -65.5q101 2 170.5 63.5t69.5 155.5v600z" />
    <glyph glyph-name="ygrave.ss01" horiz-adv-x="1222" 
d="M883 1356l-105 -168l-481 278l119 191zM844 1079h260v-987q0 -229 -130.5 -356t-373.5 -127q-178 0 -299 76t-180 211l219 84q66 -168 260 -168q125 0 191.5 66.5t66.5 193.5v98q-59 -65 -146 -103t-184 -38q-199 0 -310.5 120t-111.5 314v616h261v-583
q0 -105 64.5 -170.5t172.5 -65.5q101 2 170.5 63.5t69.5 155.5v600z" />
    <glyph glyph-name="uni1EF9.ss01" horiz-adv-x="1222" 
d="M500 1368q-38 0 -65 -24t-36 -66l-180 76q22 94 81.5 161.5t158.5 67.5q43 0 81.5 -15.5t62 -34.5t55.5 -34.5t63 -15.5q77 0 100 92l180 -78q-63 -229 -241 -229q-43 0 -82.5 15.5t-63 34.5t-54.5 34.5t-60 15.5zM844 1079h260v-987q0 -229 -130.5 -356t-373.5 -127
q-178 0 -299 76t-180 211l219 84q66 -168 260 -168q125 0 191.5 66.5t66.5 193.5v98q-59 -65 -146 -103t-184 -38q-199 0 -310.5 120t-111.5 314v616h261v-583q0 -105 64.5 -170.5t172.5 -65.5q101 2 170.5 63.5t69.5 155.5v600z" />
    <glyph glyph-name="zero.osf" horiz-adv-x="1325" 
d="M664 -25q-165 0 -298 70.5t-209.5 200.5t-76.5 297q0 169 77 298t209 196t298 67t297.5 -67.5t207.5 -196t76 -297.5q0 -167 -76.5 -297t-208.5 -200.5t-296 -70.5zM664 209q138 0 230.5 90t92.5 242q0 151 -92.5 240t-230.5 89q-140 0 -233 -89t-93 -240q0 -152 93 -242
t233 -90z" />
    <glyph glyph-name="one.osf" horiz-adv-x="890" 
d="M625 223h225v-223h-760v223h275v633h-285v223h545v-856z" />
    <glyph glyph-name="two.osf" horiz-adv-x="1120" 
d="M518 207h541v-207h-987v166q244 118 385.5 212.5t194.5 167.5t53 150q0 80 -50 128t-137 48q-79 0 -134 -39t-77 -110l-237 78q37 134 166 218.5t303 84.5q197 0 312.5 -98.5t115.5 -266.5q0 -152 -105 -278.5t-344 -253.5z" />
    <glyph glyph-name="three.osf" horiz-adv-x="1112" 
d="M643 535q173 -8 286 -121.5t113 -282.5q0 -186 -140 -309t-365 -123q-189 0 -325.5 88t-178.5 227l239 95q25 -79 97.5 -129t169.5 -50q110 0 175.5 62.5t65.5 159.5q0 95 -65 152.5t-166 57.5h-209v173l332 321h-572v223h879v-205z" />
    <glyph glyph-name="four.osf" horiz-adv-x="1153" 
d="M1098 236v-195h-148v-283h-258v283h-641v190l643 848h256v-843h148zM694 236v518l-389 -518h389z" />
    <glyph glyph-name="five.osf" horiz-adv-x="1093" 
d="M528 559q236 0 370 -112.5t134 -307.5q0 -193 -139.5 -316.5t-370.5 -123.5q-182 0 -310 81.5t-183 239.5l237 97q24 -85 92.5 -136t165.5 -51q109 0 177.5 63t68.5 157t-67.5 156.5t-172.5 62.5h-376l41 710h745v-223h-526l-17 -297h131z" />
    <glyph glyph-name="six.osf" horiz-adv-x="1140" 
d="M586 920q221 0 360 -129t139 -336q0 -211 -142 -345.5t-365 -134.5t-369 134.5t-146 339.5q0 183 140 368l409 535h303l-335 -432h6zM578 199q110 0 179.5 71.5t69.5 182.5q0 112 -69.5 183t-179.5 71q-113 0 -184.5 -71t-71.5 -183q0 -110 73 -182t183 -72z" />
    <glyph glyph-name="seven.osf" horiz-adv-x="987" 
d="M31 1079h913v-198l-455 -1151h-290l454 1130h-622v219z" />
    <glyph glyph-name="eight.osf" horiz-adv-x="1167" 
d="M827 717q118 -41 189 -133.5t71 -214.5q0 -179 -137 -286.5t-366 -107.5t-366.5 107.5t-137.5 286.5q0 123 68 215.5t184 132.5q-89 37 -143 113.5t-54 183.5q0 158 119.5 259t329.5 101q208 0 327 -100.5t119 -259.5q0 -109 -55 -184.5t-148 -112.5zM584 1163
q-91 0 -146 -48.5t-55 -129.5q0 -79 56 -128.5t145 -49.5t143.5 49t54.5 129q0 82 -53.5 130t-144.5 48zM584 186q112 0 178.5 58.5t66.5 156.5q0 92 -68 151.5t-177 59.5t-177.5 -59.5t-68.5 -151.5q0 -98 67 -156.5t179 -58.5z" />
    <glyph glyph-name="nine.osf" horiz-adv-x="1122" 
d="M555 1104q144 0 261 -58.5t185 -166.5t68 -246q0 -171 -125 -340l-424 -565h-303l330 434q-220 2 -360 128t-140 335q0 214 144 346.5t364 132.5zM555 375q111 0 183.5 70t72.5 182t-72.5 183t-183.5 71q-108 0 -179 -71t-71 -183q0 -113 70.5 -182.5t179.5 -69.5z" />
    <glyph glyph-name="uni030C.alt" 
d="M-358 946l41 498h186l-59 -498h-168z" />
    <glyph glyph-name="caron.alt" horiz-adv-x="393" 
d="M113 946l41 498h186l-59 -498h-168z" />
    <glyph glyph-name="uni0308.case" 
d="M-713 1563q-71 0 -121.5 49t-50.5 125q0 74 51.5 121t126.5 47q71 0 120.5 -49.5t49.5 -124.5q0 -73 -51 -120.5t-125 -47.5zM-240 1563q-72 0 -122 49t-50 125q0 74 50.5 121t125.5 47q73 0 124 -49.5t51 -124.5q0 -73 -51.5 -120.5t-127.5 -47.5z" />
    <glyph glyph-name="uni0307.case" 
d="M-236 1563q-73 0 -123.5 48.5t-50.5 125.5q0 74 51 121t126 47q73 0 122.5 -49t49.5 -125q0 -73 -50.5 -120.5t-124.5 -47.5z" />
    <glyph glyph-name="gravecomb.case" 
d="M-119 1540l-577 178l65 215l570 -204z" />
    <glyph glyph-name="acutecomb.case" 
d="M-637 1540l-59 189l571 204l64 -215z" />
    <glyph glyph-name="uni030B.case" 
d="M-791 1513l-159 115l254 375l180 -131zM-336 1513l-160 115l254 375l181 -131z" />
    <glyph glyph-name="uni0302.case" 
d="M-61 1563h-236l-160 176l-157 -176h-236l291 344h213z" />
    <glyph glyph-name="uni030C.case" 
d="M-297 1907h236l-285 -344h-213l-291 344h236l157 -176z" />
    <glyph glyph-name="uni0306.case" 
d="M-418 1563q-160 0 -256 97t-96 247h213q0 -65 38 -108.5t101 -43.5q64 0 101.5 43.5t37.5 108.5h213q0 -151 -95.5 -247.5t-256.5 -96.5z" />
    <glyph glyph-name="uni030A.case" 
d="M-309 1436q-111 0 -182.5 68t-71.5 175q0 104 72 173t182 69q112 0 183 -68.5t71 -173.5q0 -107 -71 -175t-183 -68zM-309 1583q43 0 70.5 27.5t27.5 68.5t-27.5 69t-70.5 28t-72 -28t-29 -69t29 -68.5t72 -27.5z" />
    <glyph glyph-name="tildecomb.case" 
d="M-322 1575q-46 0 -86 15.5t-63.5 34.5t-54.5 34.5t-62 15.5q-85 0 -104 -92l-180 76q22 92 88.5 161.5t171.5 69.5q45 0 85.5 -16t65 -35t56 -35t61.5 -16q79 0 102 92l181 -76q-25 -97 -90.5 -163t-170.5 -66z" />
    <glyph glyph-name="uni0304.case" 
d="M-766 1628v213h705v-213h-705z" />
    <glyph glyph-name="uni0326.case" 
d="M-197 -98q59 0 98.5 -39.5t39.5 -100.5q0 -45 -17.5 -89.5t-62.5 -112.5l-72 -121l-121 47l72 127l12 20q-41 15 -65.5 50.5t-24.5 83.5q0 59 40 97t101 38z" />
    <glyph glyph-name="uni0337.case" 
d="M-723 385l-55 166l663 246l54 -166z" />
    <glyph glyph-name="uni0338.case" 
d="M-1380 -8l-154 145l1296 1374l152 -147z" />
    <glyph glyph-name="dieresis.case" horiz-adv-x="847" 
d="M233 1563q-71 0 -121.5 49t-50.5 125q0 74 52 121t127 47q72 0 121 -49.5t49 -124.5q0 -73 -51.5 -120.5t-125.5 -47.5zM707 1563q-72 0 -122 49t-50 125q0 74 50.5 121t125.5 47q73 0 123.5 -49.5t50.5 -124.5q0 -73 -51 -120.5t-127 -47.5z" />
    <glyph glyph-name="dotaccent.case" horiz-adv-x="335" 
d="M236 1563q-74 0 -124.5 48.5t-50.5 125.5q0 74 51 121t126 47q73 0 122.5 -49t49.5 -125q0 -73 -50 -120.5t-124 -47.5z" />
    <glyph glyph-name="grave.case" horiz-adv-x="661" 
d="M639 1540l-578 178l66 215l569 -204z" />
    <glyph glyph-name="acute.case" horiz-adv-x="661" 
d="M121 1540l-60 189l572 204l63 -215z" />
    <glyph glyph-name="hungarumlaut.case" horiz-adv-x="1085" 
d="M221 1513l-160 115l254 375l181 -131zM676 1513l-160 115l254 375l180 -131z" />
    <glyph glyph-name="circumflex.case" horiz-adv-x="866" 
d="M850 1563h-236l-159 176l-158 -176h-236l291 344h213z" />
    <glyph glyph-name="caron.case" horiz-adv-x="866" 
d="M614 1907h236l-285 -344h-213l-291 344h236l158 -176z" />
    <glyph glyph-name="breve.case" horiz-adv-x="784" 
d="M414 1563q-160 0 -256.5 97t-96.5 247h213q0 -65 38.5 -108.5t101.5 -43.5q64 0 101.5 43.5t37.5 108.5h213q0 -151 -95.5 -247.5t-256.5 -96.5z" />
    <glyph glyph-name="ring.case" horiz-adv-x="538" 
d="M309 1436q-111 0 -182.5 68t-71.5 175q0 104 72 173t182 69q112 0 183 -68.5t71 -173.5q0 -107 -71 -175t-183 -68zM309 1583q43 0 71 27.5t28 68.5t-28 69t-71 28t-71.5 -28t-28.5 -69t28.5 -68.5t71.5 -27.5z" />
    <glyph glyph-name="tilde.case" horiz-adv-x="917" 
d="M612 1575q-46 0 -86 15.5t-63.5 34.5t-54.5 34.5t-62 15.5q-85 0 -104 -92l-181 76q22 92 89 161.5t172 69.5q45 0 85.5 -16t65 -35t56 -35t61.5 -16q79 0 102 92l180 -76q-25 -97 -90 -163t-170 -66z" />
    <glyph glyph-name="macron.case" horiz-adv-x="819" 
d="M61 1628v213h705v-213h-705z" />
    <glyph glyph-name="IJacute" horiz-adv-x="1247" 
d="M37 1540l-60 189l572 204l65 -215zM745 1540l-57 189l569 204l66 -215zM143 0v1423h263v-1423h-263zM588 0v233h86q86 0 132 51t46 144v995h262v-999q0 -198 -109.5 -311t-310.5 -113h-106z" />
    <glyph glyph-name="ijacute" horiz-adv-x="1085" 
d="M63 1186l-104 168l469 301l117 -191zM651 1188l-104 166l469 301l117 -191zM121 0v1079h260v-1079h-260zM494 -377l-2 225h22q85 0 136.5 56t51.5 149v1026h263v-1022q0 -199 -117.5 -316.5t-302.5 -117.5h-51z" />
    </font>
</defs>
</svg>
